<?xml version="1.0" standalone="no"?>
<!DOCTYPE svg PUBLIC "-//W3C//DTD SVG 1.1//EN" "http://www.w3.org/Graphics/SVG/1.1/DTD/svg11.dtd" >
<svg xmlns="http://www.w3.org/2000/svg" xmlns:xlink="http://www.w3.org/1999/xlink" version="1.1">
<metadata>
Created by FontForge 20170731 at Fri Aug 27 13:32:26 2021
 By Aleksey,,,
Digitized data copyright 2012-2018 for FiraGO, bBox Type GmbH and HERE Europe B.V. All rights reserved, with Reserved Font Name "Fira" / Digitized data copyright 2012-2018 for Fira Sans The Mozilla Foundation, Telefonica S.A., Carrois Corporate GbR and bBox Type GmbH, with Reserved Font Name "Fira"
</metadata>
<defs>
<font id="FiraGO-Regular" horiz-adv-x="0" >
  <font-face 
    font-family="FiraGO"
    font-weight="400"
    font-stretch="normal"
    units-per-em="2048"
    panose-1="2 11 5 3 5 0 0 2 0 4"
    ascent="1638"
    descent="-410"
    x-height="1079"
    cap-height="1411"
    bbox="-1548 -1485 4948 2615"
    underline-thickness="102"
    underline-position="-307"
    unicode-range="U+000D-FEFF"
  />
<missing-glyph horiz-adv-x="1363" 
d="M1112 2150v-2867h-860v2867h860zM1001 2044h-636v-2654h636v2654zM664 924q122 0 174.5 -66t52.5 -170q0 -109 -46.5 -168t-148.5 -74v-92q0 -22 -15.5 -35.5t-35.5 -13.5q-21 0 -36 13.5t-15 35.5v172q108 6 147 40.5t39 117.5q0 67 -27 104t-98 37q-58 0 -106 -22
q-15 -6 -27 -6q-23 0 -36 13t-13 34q0 38 60.5 59t130.5 21zM645 246q31 0 51.5 -20.5t20.5 -51.5q0 -32 -20.5 -54t-51.5 -22t-51.5 22t-20.5 54q0 31 20.5 51.5t51.5 20.5z" />
    <glyph glyph-name="fi" unicode="fi" horiz-adv-x="1171" 
d="M565 1536q154 0 299 -74l-65 -131q-105 51 -228 51q-108 0 -149 -38.5t-41 -120.5v-144h602v-1079h-188v934h-414v-934h-188v934h-173v145h173v142q0 144 92 229.5t280 85.5z" />
    <glyph glyph-name="fl" unicode="fl" horiz-adv-x="1222" 
d="M1122 143l49 -131q-75 -37 -159 -37q-103 0 -159 61t-56 177v1137q-112 34 -236 34q-100 0 -140 -37t-40 -118v-150h262l-20 -145h-242v-934h-188v934h-173v145h173v148q0 140 91 224.5t265 84.5q122 0 250 -41l186 25v-1303q0 -44 16 -65t52 -21q39 0 69 12z" />
    <glyph glyph-name="uniFDF2" unicode="&#x627;&#xfedf;&#xfee0;&#xfeea;" horiz-adv-x="2355" arabic-form="isolated" 
d="M1251 1888v-375h-116v361zM1081 1237q-53 0 -98 40.5t-45 117.5q0 52 27 135l92 -21q-13 -50 -13 -92q0 -27 12 -46t34 -19q25 0 41 21t16 59v75h96v-84q0 -30 13 -47.5t36 -17.5q51 0 51 80q0 58 -24 114l94 31q37 -87 37 -176q0 -77 -42 -118.5t-108 -41.5
q-71 0 -104 49q-41 -59 -115 -59zM2040 1548l172 23v-1571h-172v1548zM1581 418v934l172 22v-962q0 -223 -78.5 -317.5t-228.5 -94.5q-85 0 -150 37.5t-100 101.5q-31 -63 -92.5 -101t-145.5 -38q-232 0 -292 203q-46 -63 -124.5 -98t-172.5 -35q-145 0 -231.5 77.5
t-86.5 206.5q0 162 156 282t428 159v168l172 22v-571q0 -130 32.5 -180t114.5 -50q86 0 120 49t34 187v723l172 22v-745q0 -132 35 -184t123 -52q79 0 111 53t32 181zM635 354v285q-202 -19 -312 -94.5t-110 -165.5q0 -72 43 -111t127 -39q169 0 252 125z" />
    <glyph glyph-name="uniFEF5" unicode="&#xfedf;&#xfe82;" horiz-adv-x="1318" arabic-form="isolated" 
d="M240 1530q-29 0 -50.5 -25t-33.5 -61l-99 29q24 76 73.5 126t107.5 50q46 0 103 -30t87 -30q26 0 39 6t43 27l47 -82q-43 -37 -76.5 -51t-74.5 -14q-33 0 -87 27.5t-79 27.5zM987 743q199 -205 199 -393q0 -182 -116.5 -266t-389.5 -84h-477l16 174q235 181 366 300.5
t208 236.5l-617 585l217 33l475 -469q70 174 70 469v219l172 21v-254q0 -332 -123 -572zM668 182q83 0 138.5 3.5t103.5 14t74.5 29t41 48.5t14.5 73q0 102 -137 252q-147 -208 -444 -420h209z" />
    <glyph glyph-name="uniFEF6" unicode="&#xfee0;&#xfe82;" horiz-adv-x="1425" arabic-form="final" 
d="M1442 184l24 -92l-41 -92q-107 0 -188.5 52.5t-112.5 150.5q-83 -103 -231.5 -153t-380.5 -50h-313l-23 184h359q218 0 337 43l-598 963l201 31l332 -572q118 -203 170 -364q58 47 78 116.5t20 173.5v973l170 23v-1125q0 -145 44.5 -203.5t152.5 -58.5zM322 1417
q-29 0 -50.5 -25t-33.5 -61l-99 29q24 76 73 126t107 50q46 0 103.5 -29.5t87.5 -29.5q26 0 39.5 6t42.5 26l47 -82q-43 -37 -77 -51t-75 -14q-33 0 -86.5 27.5t-78.5 27.5z" />
    <glyph glyph-name="uniFEF7" unicode="&#xfedf;&#xfe84;" horiz-adv-x="1318" arabic-form="isolated" 
d="M504 1599l14 -104l-436 -72l-12 103l131 22q-86 77 -86 148q0 80 55.5 132t159.5 52q70 0 155 -45l-63 -100q-56 32 -107 32q-47 0 -67.5 -22.5t-20.5 -52.5q0 -55 86 -125zM987 743q199 -205 199 -393q0 -182 -116.5 -266t-389.5 -84h-477l16 174q235 181 366 300.5
t208 236.5l-617 585l217 33l475 -469q70 174 70 469v219l172 21v-254q0 -332 -123 -572zM668 182q83 0 138.5 3.5t103.5 14t74.5 29t41 48.5t14.5 73q0 102 -137 252q-147 -208 -444 -420h209z" />
    <glyph glyph-name="uniFEF8" unicode="&#xfee0;&#xfe84;" horiz-adv-x="1425" arabic-form="final" 
d="M586 1487l14 -105l-436 -71l-12 102l131 23q-86 77 -86 147q0 80 55.5 132t159.5 52q70 0 155 -45l-63 -100q-57 33 -107 33q-47 0 -67.5 -23t-20.5 -53q0 -55 86 -125zM1442 184l24 -92l-41 -92q-107 0 -188.5 52.5t-112.5 150.5q-83 -103 -231.5 -153t-380.5 -50h-313
l-23 184h359q218 0 337 43l-598 963l201 31l332 -572q118 -203 170 -364q58 47 78 116.5t20 173.5v973l170 23v-1125q0 -145 44.5 -203.5t152.5 -58.5z" />
    <glyph glyph-name="uniFEF9" unicode="&#xfedf;&#xfe88;" horiz-adv-x="1318" arabic-form="isolated" 
d="M987 743q199 -205 199 -393q0 -182 -116.5 -266t-389.5 -84h-477l16 174q235 181 366 300.5t208 236.5l-617 585l217 33l475 -469q70 174 70 469v219l172 21v-254q0 -332 -123 -572zM668 182q83 0 138.5 3.5t103.5 14t74.5 29t41 48.5t14.5 73q0 102 -137 252
q-147 -208 -444 -420h209zM420 -395l190 33l15 -105l-437 -72l-12 103l131 22q-86 77 -86 148q0 80 55.5 132t159.5 52q71 0 156 -45l-64 -100q-56 32 -106 32q-47 0 -67.5 -22.5t-20.5 -52.5q0 -55 86 -125z" />
    <glyph glyph-name="uniFEFA" unicode="&#xfee0;&#xfe88;" horiz-adv-x="1425" arabic-form="final" 
d="M1442 184l24 -92l-41 -92q-107 0 -188.5 52.5t-112.5 150.5q-83 -103 -231.5 -153t-380.5 -50h-313l-23 184h359q218 0 337 43l-598 963l201 31l332 -572q118 -203 170 -364q58 47 78 116.5t20 173.5v973l170 23v-1125q0 -145 44.5 -203.5t152.5 -58.5zM424 -395l190 33
l15 -105l-436 -72l-13 103l131 22q-86 77 -86 148q0 80 55.5 132t159.5 52q71 0 156 -45l-64 -100q-56 32 -106 32q-47 0 -67.5 -22.5t-20.5 -52.5q0 -55 86 -125z" />
    <glyph glyph-name="uniFEFB" unicode="&#xfedf;&#xfe8e;" horiz-adv-x="1318" arabic-form="isolated" 
d="M987 743q199 -205 199 -393q0 -182 -116.5 -266t-389.5 -84h-477l16 174q235 181 366 300.5t208 236.5l-617 585l217 33l475 -469q70 174 70 469v219l172 21v-254q0 -332 -123 -572zM668 182q83 0 138.5 3.5t103.5 14t74.5 29t41 48.5t14.5 73q0 102 -137 252
q-147 -208 -444 -420h209z" />
    <glyph glyph-name="uniFEFC" unicode="&#xfee0;&#xfe8e;" horiz-adv-x="1425" arabic-form="final" 
d="M1442 184l24 -92l-41 -92q-107 0 -188.5 52.5t-112.5 150.5q-83 -103 -231.5 -153t-380.5 -50h-313l-23 184h359q218 0 337 43l-598 963l201 31l332 -572q118 -203 170 -364q58 47 78 116.5t20 173.5v973l170 23v-1125q0 -145 44.5 -203.5t152.5 -58.5z" />
    <glyph glyph-name="f_f" unicode="ff" horiz-adv-x="1249" 
d="M1124 1384q-87 0 -123 -37.5t-36 -117.5v-150h262l-21 -145h-241v-934h-189v934h-395v-934h-188v934h-173v145h173v127q0 140 91 225t265 85q85 0 154 -16t155 -56q92 92 256 92q130 0 258 -55l-59 -138q-93 41 -189 41zM776 1079v148q0 51 12 94q-114 43 -227 43
q-100 0 -140 -37.5t-40 -118.5v-129h395z" />
    <glyph glyph-name="f_f_i" unicode="ffi" horiz-adv-x="1755" 
d="M965 1079h602v-1079h-189v934h-413v-934h-189v934h-395v-934h-188v934h-173v145h173v127q0 140 91 225t265 85q85 0 154 -16t157 -56q98 92 289 92q154 0 299 -74l-66 -131q-105 51 -227 51q-108 0 -149 -38.5t-41 -120.5v-144zM776 1079v142q0 53 12 100
q-114 43 -227 43q-100 0 -140 -37.5t-40 -118.5v-129h395z" />
    <glyph glyph-name="f_f_j" unicode="ffj" horiz-adv-x="1755" 
d="M1567 1079v-1013q0 -113 -20 -191.5t-66.5 -135.5t-104 -94t-151.5 -79l-56 137q60 28 93.5 51t63 61.5t41 95.5t11.5 142v881h-413v-934h-189v934h-395v-934h-188v934h-173v145h173v127q0 140 91 225t265 85q85 0 154 -16t157 -56q98 92 289 92q154 0 299 -74l-66 -131
q-105 51 -227 51q-108 0 -149 -38.5t-41 -120.5v-144h602zM776 1079v142q0 53 12 100q-114 43 -227 43q-100 0 -140 -37.5t-40 -118.5v-129h395z" />
    <glyph glyph-name="f_f_l" unicode="ffl" horiz-adv-x="1806" 
d="M1706 143l49 -131q-75 -37 -160 -37q-103 0 -159 61t-56 177v1137q-112 34 -235 34q-100 0 -140 -37t-40 -118v-150h262l-21 -145h-241v-934h-189v934h-395v-934h-188v934h-173v145h173v127q0 140 91 225t265 85q85 0 154 -16t157 -56q95 92 273 92q121 0 249 -41l187 25
v-1303q0 -44 15.5 -65t51.5 -21q40 0 70 12zM776 1079v148q0 51 12 94q-114 43 -227 43q-100 0 -140 -37.5t-40 -118.5v-129h395z" />
    <glyph glyph-name="f_j" unicode="fj" horiz-adv-x="1171" 
d="M983 1079v-1013q0 -113 -20 -191.5t-66.5 -135.5t-104 -94t-151.5 -79l-55 137q60 28 93.5 51t63 61.5t41 95.5t11.5 142v881h-414v-934h-188v934h-173v145h173v142q0 144 92 229.5t280 85.5q154 0 299 -74l-65 -131q-105 51 -228 51q-108 0 -149 -38.5t-41 -120.5v-144
h602z" />
    <glyph glyph-name="uni0E240E45" unicode="&#xe24;&#xe45;" horiz-adv-x="1904" 
d="M1309 1196q208 0 306.5 -88.5t98.5 -269.5v-1231l-188 22v1200q0 114 -62 163.5t-190 49.5q-115 0 -250 -36q63 -97 63 -250v-1170l-188 23v1147q0 140 -65 206t-203 66q-209 0 -344 -135q161 -28 311 -90v-146q-120 -3 -178 -58.5t-58 -176.5v-184q0 -59 20.5 -83
t61.5 -24q43 0 86 19l41 -136q-97 -39 -168 -39q-223 0 -223 271v176q0 135 67.5 214.5t190.5 98.5q-157 53 -315 68v123q23 29 48.5 55.5t74.5 64t102 64.5t130.5 46.5t160.5 19.5q173 0 285 -70q209 90 385 90z" />
    <glyph glyph-name="uni0E260E45" unicode="&#xe26;&#xe45;" horiz-adv-x="1890" 
d="M1294 1196q208 0 307 -88.5t99 -269.5v-1231l-189 22v1200q0 114 -61.5 163.5t-189.5 49.5q-114 0 -246 -36q61 -98 61 -250v-1170l-188 23v1147q0 140 -63.5 206t-198.5 66q-207 0 -336 -135q161 -28 311 -90v-146q-97 -3 -145.5 -58.5t-48.5 -186.5v-179
q0 -247 -250 -247q-23 0 -43 2l-9 135h13q17 0 30.5 2.5t23.5 4.5t17.5 9.5t12.5 11.5t8 17t4.5 18.5t2.5 24t1 25.5v30v180q0 121 59.5 194.5t165.5 94.5q-160 53 -317 68v123q23 29 48 55t73.5 64t101 65t128 46.5t157.5 19.5q168 0 280 -70q206 90 381 90z" />
    <glyph glyph-name="uni06440671" unicode="&#xfedf;&#xfb51;" horiz-adv-x="1318" 
d="M334 1513q-71 0 -162 27l-37 -78l-94 33l57 172q28 -9 74 -20q96 208 246 208q67 0 113.5 -43t46.5 -114q0 -97 -69.5 -141t-174.5 -44zM408 1743q-73 0 -148 -115q47 -8 98 -8q115 0 115 68q0 28 -15 41.5t-50 13.5zM987 743q199 -205 199 -393q0 -182 -116.5 -266
t-389.5 -84h-477l16 174q235 181 366 300.5t208 236.5l-617 585l217 33l475 -469q70 174 70 469v219l172 21v-254q0 -332 -123 -572zM668 182q83 0 138.5 3.5t103.5 14t74.5 29t41 48.5t14.5 73q0 102 -137 252q-147 -208 -444 -420h209z" />
    <glyph glyph-name="uni06440671.fina" unicode="&#xfee0;&#xfb51;" horiz-adv-x="1425" 
d="M254 1427l-37 -77l-94 32l57 172q28 -9 74 -20q96 209 246 209q67 0 113 -43.5t46 -114.5q0 -66 -36 -109t-88 -59t-119 -16q-75 0 -162 26zM489 1630q-73 0 -147 -114q52 -9 98 -9q115 0 115 68q0 55 -66 55zM1442 184l24 -92l-41 -92q-107 0 -188.5 52.5t-112.5 150.5
q-83 -103 -231.5 -153t-380.5 -50h-313l-23 184h359q218 0 337 43l-598 963l201 31l332 -572q118 -203 170 -364q58 47 78 116.5t20 173.5v973l170 23v-1125q0 -145 44.5 -203.5t152.5 -58.5z" />
    <glyph glyph-name="uni0E1B0E31" unicode="&#xe1b;&#xe31;" horiz-adv-x="1241" 
d="M1319 1386q-122 -28 -268 -45v-925q0 -196 -119.5 -319.5t-327.5 -123.5q-213 0 -325.5 116t-112.5 327v387q0 222 -45 334l178 24q21 -34 38 -110.5t17 -155.5v-467q0 -305 250 -305q125 0 191.5 77.5t66.5 227.5v899h-31q-151 0 -230 45.5t-79 157.5q0 53 15 115h135
q-8 -50 -8 -82q0 -64 38.5 -87.5t149.5 -23.5h10v147l189 -22v-113q119 12 245 41z" />
    <glyph glyph-name="uni0E1B0E49" unicode="&#xe1b;&#xe49;" horiz-adv-x="1241" 
d="M862 1599l189 -22v-1161q0 -196 -119.5 -319.5t-327.5 -123.5q-213 0 -325.5 116t-112.5 327v387q0 222 -45 334l178 24q21 -34 38 -110.5t17 -155.5v-467q0 -305 250 -305q125 0 191.5 77.5t66.5 227.5v1008q-81 -60 -206 -87t-318 -30l-45 55q51 69 51 117
q0 51 -22.5 69.5t-67.5 18.5q-38 0 -86 -10l-18 110q63 23 133 23q96 0 157.5 -42t61.5 -118q0 -55 -29 -100q151 7 241 44.5t148 112.5z" />
    <glyph glyph-name="uni0E1B0E4A" unicode="&#xe1b;&#xe4a;" horiz-adv-x="1241" 
d="M862 1599l189 -22v-1161q0 -196 -119.5 -319.5t-327.5 -123.5q-213 0 -325.5 116t-112.5 327v387q0 222 -45 334l178 24q21 -34 38 -110.5t17 -155.5v-467q0 -305 250 -305q125 0 191.5 77.5t66.5 227.5v985q-105 -92 -289 -92q-45 0 -81 6q12 85 12 164q0 41 -21 64.5
t-57 23.5q-38 0 -62 -32.5t-24 -88.5v-84l-145 -10v94q0 55 -23.5 88t-60.5 33q-36 0 -57 -23.5t-21 -66.5q0 -81 18 -162h-143q-21 82 -21 178q0 85 53 141t144 56q81 0 126 -39t58 -100q10 61 57.5 100t129.5 39q91 0 142.5 -50t51.5 -122q0 -46 -16 -96q165 18 229 165z
" />
    <glyph glyph-name="uni0E1B0E4B" unicode="&#xe1b;&#xe4b;" horiz-adv-x="1241" 
d="M449 1327l2 131l-160 -2l14 123l146 -2l-2 113l149 20l-2 -133l154 2v-123l-154 2l2 -131h-149zM862 1599l189 -22v-1161q0 -196 -119.5 -319.5t-327.5 -123.5q-213 0 -325.5 116t-112.5 327v387q0 222 -45 334l178 24q21 -34 38 -110.5t17 -155.5v-467q0 -305 250 -305
q125 0 191.5 77.5t66.5 227.5v1171z" />
    <glyph glyph-name="uni0E1B0E4C" unicode="&#xe1b;&#xe4c;" horiz-adv-x="1241" 
d="M1231 1526v-123h-180v-987q0 -196 -119.5 -319.5t-327.5 -123.5q-213 0 -325.5 116t-112.5 327v387q0 222 -45 334l178 24q21 -34 38 -110.5t17 -155.5v-467q0 -305 250 -305q125 0 191.5 77.5t66.5 227.5v975h-110q-51 0 -68.5 -20t-17.5 -76q0 -26 4 -66h-152
q-8 58 -8 98q0 102 57.5 144.5t163.5 42.5h131v73l189 -22v-51h180z" />
    <glyph glyph-name="uni0E1B0E4D" unicode="&#xe1b;&#xe4d;" horiz-adv-x="1241" 
d="M557 1317q-91 0 -150 55.5t-59 138.5t59 139t150 56t150 -56t59 -139t-59 -138.5t-150 -55.5zM862 1599l189 -22v-1161q0 -196 -119.5 -319.5t-327.5 -123.5q-213 0 -325.5 116t-112.5 327v387q0 222 -45 334l178 24q21 -34 38 -110.5t17 -155.5v-467q0 -305 250 -305
q125 0 191.5 77.5t66.5 227.5v1171zM557 1589q-34 0 -54 -21t-20 -57t20 -56.5t54 -20.5t54 20.5t20 56.5t-20 57t-54 21z" />
    <glyph glyph-name="uni0E1D0E31" unicode="&#xe1d;&#xe31;" horiz-adv-x="1505" 
d="M1583 1386q-122 -28 -268 -45v-919q0 -118 -25.5 -206t-71 -139.5t-102.5 -76.5t-125 -25q-219 0 -256 240q-26 -125 -89.5 -182.5t-178.5 -57.5q-67 0 -122 24t-99.5 74.5t-69 139t-24.5 209.5v178q0 139 13.5 240t38 165.5t64.5 102.5t87 53t112 15q69 0 149 -33
l-28 -131q-48 16 -88 16q-61 0 -94.5 -37t-49.5 -130t-16 -263v-158q0 -170 38.5 -241.5t119.5 -71.5q35 0 59.5 9.5t45 35t30.5 75t10 124.5v252l180 20v-272q0 -244 142 -244q28 0 50 6.5t43.5 26t36 51.5t23 86t8.5 127v903h-30q-151 0 -230.5 45.5t-79.5 157.5
q0 53 15 115h135q-8 -50 -8 -82q0 -64 38.5 -87.5t149.5 -23.5h10v147l189 -22v-113q121 12 246 41z" />
    <glyph glyph-name="uni0E1D0E49" unicode="&#xe1d;&#xe49;" horiz-adv-x="1505" 
d="M1126 1599l189 -22v-1155q0 -118 -25.5 -206t-71 -139.5t-102.5 -76.5t-125 -25q-219 0 -256 240q-26 -125 -89.5 -182.5t-178.5 -57.5q-67 0 -122 24t-99.5 74.5t-69 139t-24.5 209.5v178q0 139 13.5 240t38 165.5t64.5 102.5t87 53t112 15q69 0 149 -33l-28 -131
q-48 16 -88 16q-61 0 -94.5 -37t-49.5 -130t-16 -263v-158q0 -170 38.5 -241.5t119.5 -71.5q35 0 59.5 9.5t45 35t30.5 75t10 124.5v252l180 20v-272q0 -244 142 -244q28 0 50 6.5t43.5 26t36 51.5t23 86t8.5 127v1012q-81 -60 -206 -87t-318 -30l-45 55q51 69 51 117
q0 51 -22.5 69.5t-67.5 18.5q-38 0 -86 -10l-18 110q63 23 133 23q96 0 157.5 -42t61.5 -118q0 -55 -29 -100q151 7 241 44.5t148 112.5z" />
    <glyph glyph-name="uni0E1D0E4A" unicode="&#xe1d;&#xe4a;" horiz-adv-x="1505" 
d="M1126 1599l189 -22v-1155q0 -118 -25.5 -206t-71 -139.5t-102.5 -76.5t-125 -25q-219 0 -256 240q-26 -125 -89.5 -182.5t-178.5 -57.5q-67 0 -122 24t-99.5 74.5t-69 139t-24.5 209.5v178q0 139 13.5 240t38 165.5t64.5 102.5t87 53t112 15q69 0 149 -33l-28 -131
q-48 16 -88 16q-61 0 -94.5 -37t-49.5 -130t-16 -263v-158q0 -170 38.5 -241.5t119.5 -71.5q35 0 59.5 9.5t45 35t30.5 75t10 124.5v252l180 20v-272q0 -244 142 -244q28 0 50 6.5t43.5 26t36 51.5t23 86t8.5 127v989q-105 -92 -288 -92q-46 0 -82 6q12 85 12 164
q0 41 -21 64.5t-57 23.5q-38 0 -62 -32.5t-24 -88.5v-84l-145 -10v94q0 55 -23.5 88t-60.5 33q-36 0 -57 -23.5t-21 -66.5q0 -81 18 -162h-143q-20 78 -20 178q0 85 52.5 141t143.5 56q81 0 126 -39t58 -100q10 61 57.5 100t129.5 39q91 0 142.5 -50t51.5 -122
q0 -46 -16 -96q165 18 229 165z" />
    <glyph glyph-name="uni0E1D0E4B" unicode="&#xe1d;&#xe4b;" horiz-adv-x="1505" 
d="M713 1327l2 131l-160 -2l14 123l146 -2l-2 113l149 20l-2 -133l154 2v-123l-154 2l2 -131h-149zM1126 1599l189 -22v-1155q0 -118 -25.5 -206t-71 -139.5t-102.5 -76.5t-125 -25q-219 0 -256 240q-26 -125 -89.5 -182.5t-178.5 -57.5q-67 0 -122 24t-99.5 74.5t-69 139
t-24.5 209.5v178q0 139 13.5 240t38 165.5t64.5 102.5t87 53t112 15q69 0 149 -33l-28 -131q-48 16 -88 16q-61 0 -94.5 -37t-49.5 -130t-16 -263v-158q0 -170 38.5 -241.5t119.5 -71.5q35 0 59.5 9.5t45 35t30.5 75t10 124.5v252l180 20v-272q0 -244 142 -244q28 0 50 6.5
t43.5 26t36 51.5t23 86t8.5 127v1175z" />
    <glyph glyph-name="uni0E1D0E4C" unicode="&#xe1d;&#xe4c;" horiz-adv-x="1505" 
d="M1495 1526v-123h-180v-981q0 -118 -25.5 -206t-71 -139.5t-102.5 -76.5t-125 -25q-219 0 -256 240q-26 -125 -89.5 -182.5t-178.5 -57.5q-67 0 -122 24t-99.5 74.5t-69 139t-24.5 209.5v178q0 139 13.5 240t38 165.5t64.5 102.5t87 53t112 15q69 0 149 -33l-28 -131
q-48 16 -88 16q-61 0 -94.5 -37t-49.5 -130t-16 -263v-158q0 -170 38.5 -241.5t119.5 -71.5q35 0 59.5 9.5t45 35t30.5 75t10 124.5v252l180 20v-272q0 -244 142 -244q28 0 50 6.5t43.5 26t36 51.5t23 86t8.5 127v979h-110q-51 0 -68.5 -20t-17.5 -76q0 -26 4 -66h-152
q-8 58 -8 98q0 102 57.5 144.5t163.5 42.5h131v73l189 -22v-51h180z" />
    <glyph glyph-name="uni0E1D0E4D" unicode="&#xe1d;&#xe4d;" horiz-adv-x="1505" 
d="M821 1317q-91 0 -150 55.5t-59 138.5t59 139t150 56t150 -56t59 -139t-59 -138.5t-150 -55.5zM1126 1599l189 -22v-1155q0 -118 -25.5 -206t-71 -139.5t-102.5 -76.5t-125 -25q-219 0 -256 240q-26 -125 -89.5 -182.5t-178.5 -57.5q-67 0 -122 24t-99.5 74.5t-69 139
t-24.5 209.5v178q0 139 13.5 240t38 165.5t64.5 102.5t87 53t112 15q69 0 149 -33l-28 -131q-48 16 -88 16q-61 0 -94.5 -37t-49.5 -130t-16 -263v-158q0 -170 38.5 -241.5t119.5 -71.5q35 0 59.5 9.5t45 35t30.5 75t10 124.5v252l180 20v-272q0 -244 142 -244q28 0 50 6.5
t43.5 26t36 51.5t23 86t8.5 127v1175zM821 1589q-34 0 -53.5 -20.5t-19.5 -57.5q0 -36 19.5 -56.5t53.5 -20.5t54 20.5t20 56.5t-20 57t-54 21z" />
    <glyph glyph-name="uni0E1F0E31" unicode="&#xe1f;&#xe31;" horiz-adv-x="1581" 
d="M1823 1386q-131 -33 -314 -51l-39 -180l-239 -1155h-244l-211 934l-219 -934h-235l-150 745q-34 172 -64.5 250.5t-72.5 139.5l166 34q92 -108 143 -405l107 -612l227 1003h199l233 -1003l188 1003l31 172q-147 0 -225 46t-78 157q0 57 14 115h136q-9 -56 -9 -82
q0 -64 39 -87.5t148 -23.5l26 147h185l-29 -137q137 13 264 43z" />
    <glyph glyph-name="uni0E1F0E49" unicode="&#xe1f;&#xe49;" horiz-adv-x="1560" 
d="M1380 1599h185l-95 -444l-239 -1155h-244l-211 934l-219 -934h-235l-150 745q-34 172 -64.5 250.5t-72.5 139.5l166 34q92 -108 143 -405l107 -612l227 1003h199l233 -1003l188 1003l25 135q10 52 31 129q-83 -51 -199.5 -74t-280.5 -28l-43 59q50 66 50 115
q0 51 -22.5 69.5t-67.5 18.5q-38 0 -86 -10l-19 110q63 23 133 23q97 0 158 -43t61 -123q0 -48 -30 -94q256 18 372 157z" />
    <glyph glyph-name="uni0E1F0E4A" unicode="&#xe1f;&#xe4a;" horiz-adv-x="1560" 
d="M1380 1599h185l-95 -444l-239 -1155h-244l-211 934l-219 -934h-235l-150 745q-34 172 -64.5 250.5t-72.5 139.5l166 34q92 -108 143 -405l107 -612l227 1003h199l233 -1003l188 1003l17 88q12 72 35 146q-93 -68 -244 -68q-46 0 -82 6q12 85 12 164q0 41 -21 64.5
t-57 23.5q-38 0 -62 -32.5t-24 -88.5v-84l-145 -10v94q0 55 -23.5 88t-60.5 33q-36 0 -57 -23.5t-21 -66.5q0 -77 19 -162h-144q-20 78 -20 178q0 85 52.5 141t143.5 56q81 0 126.5 -39t58.5 -100q10 61 57 100t129 39q91 0 143 -50t52 -122q0 -43 -17 -96q83 10 137 55.5
t78 109.5z" />
    <glyph glyph-name="uni0E1F0E4B" unicode="&#xe1f;&#xe4b;" horiz-adv-x="1560" 
d="M940 1327l2 131l-160 -2l15 123l145 -2l-2 113l150 20l-3 -133l154 2v-123l-154 2l3 -131h-150zM1380 1599h185l-95 -444l-239 -1155h-244l-211 934l-219 -934h-235l-150 745q-34 172 -64.5 250.5t-72.5 139.5l166 34q92 -108 143 -405l107 -612l227 1003h199l233 -1003
l188 1003z" />
    <glyph glyph-name="uni0E1F0E4C" unicode="&#xe1f;&#xe4c;" horiz-adv-x="1581" 
d="M1735 1526v-123h-211l-54 -248l-239 -1155h-244l-211 934l-219 -934h-235l-150 745q-34 172 -64.5 250.5t-72.5 139.5l166 34q92 -108 143 -405l107 -612l227 1003h199l233 -1003l188 1003l45 248h-88q-51 0 -68.5 -20t-17.5 -76q0 -16 5 -66h-152q-8 58 -8 98
q0 102 57.5 144.5t163.5 42.5h131l14 73h185l-17 -73h187z" />
    <glyph glyph-name="uni0E1F0E4D" unicode="&#xe1f;&#xe4d;" horiz-adv-x="1560" 
d="M1049 1317q-91 0 -150 55.5t-59 138.5t59 139t150 56t149.5 -56t58.5 -139t-58.5 -138.5t-149.5 -55.5zM1380 1599h185l-95 -444l-239 -1155h-244l-211 934l-219 -934h-235l-150 745q-34 172 -64.5 250.5t-72.5 139.5l166 34q92 -108 143 -405l107 -612l227 1003h199
l233 -1003l188 1003zM1049 1589q-34 0 -54 -21t-20 -57t20 -56.5t54 -20.5t53.5 20.5t19.5 56.5q0 37 -19.5 57.5t-53.5 20.5z" />
    <glyph glyph-name="uni0E310E4A" unicode="&#xe31;&#xe4a;" 
d="M-190 2097l129 -26q-33 -84 -79 -142.5t-100.5 -90t-110 -45t-120.5 -13.5q-44 0 -74 6q10 85 10 147q0 37 -18.5 58.5t-50.5 21.5q-34 0 -56 -29t-22 -79v-76l-131 -10v86q0 49 -21 78.5t-55 29.5q-31 0 -50 -21.5t-19 -60.5q0 -63 16 -145h-129q-19 83 -19 160
q0 76 48.5 127t130.5 51q71 0 112 -35t54 -90q8 55 50.5 90t116.5 35q81 0 128 -45.5t47 -110.5q0 -32 -15 -86q87 11 143.5 71t84.5 144zM-729 1458q74 0 191 22.5t214 63.5l33 -129q-111 -44 -237.5 -69t-221.5 -25q-141 0 -214.5 47t-73.5 162q0 62 16 115h135
q-10 -42 -10 -82q0 -61 34.5 -83t133.5 -22z" />
    <glyph glyph-name="uni0620.init" unicode="&#x620;" horiz-adv-x="598" 
d="M399 92q74 -54 74 -143q0 -72 -48.5 -122t-127.5 -50q-77 0 -127.5 50.5t-50.5 121.5q0 23 8 55q-74 -4 -127 -4l-41 92l57 92q128 0 192 19t86.5 59.5t22.5 120.5q0 139 -94 410l176 57q41 -123 63.5 -253.5t22.5 -223.5q0 -201 -86 -281zM297 -127q38 0 60 23t22 53
q0 33 -23 54.5t-59 21.5t-59 -21.5t-23 -54.5q0 -30 23 -53t59 -23z" />
    <glyph glyph-name="uni0620.medi" unicode="&#x620;" horiz-adv-x="708" 
d="M709 0q-139 0 -219 32.5t-132 121.5q-14 -28 -28 -45q43 -22 69.5 -64t26.5 -92q0 -72 -48.5 -122t-127.5 -50q-76 0 -127 50.5t-51 121.5q0 28 8 49q-25 -2 -80 -2l-41 92l59 92q92 0 144.5 11.5t75 46t26.5 64t4 97.5v17v272h172v-272q0 -70 8 -109t37 -71t86 -44
t154 -12l25 -92zM250 -123q38 0 60 23t22 53q0 33 -23 54.5t-59 21.5t-59 -21.5t-23 -54.5q0 -30 23 -53t59 -23z" />
    <glyph glyph-name="uni0620.fina" unicode="&#x620;" horiz-adv-x="1509" 
d="M1550 92l-41 -92q-94 0 -172 35q15 -35 15 -72q0 -146 -148 -258t-418 -139q19 -40 19 -80q0 -72 -48.5 -122t-127.5 -50q-77 0 -127.5 51t-50.5 121q0 47 22 86q-195 37 -288 166t-93 330q0 205 96 401l129 -39q-57 -154 -57 -336q0 -61 12 -112.5t41 -96.5t73 -76
t111.5 -49t153.5 -18q128 0 235.5 23.5t172 59t100 75.5t35.5 77q0 56 -74.5 98t-275.5 99l80 162q62 -19 166.5 -55t157 -52t129.5 -30.5t149 -14.5zM711 -514q0 26 -15 45t-39 27h-22h-33q-25 -6 -40 -25.5t-15 -46.5q0 -30 23 -53t59 -23q38 0 60 23t22 53z" />
    <glyph glyph-name="uni063B.init" unicode="&#x63b;" horiz-adv-x="954" 
d="M68 1591q0 -44 -31.5 -75t-75.5 -31q-43 0 -74.5 31t-31.5 75t31.5 75.5t74.5 31.5q44 0 75.5 -31.5t31.5 -75.5zM279 1485q-44 0 -75.5 31t-31.5 75t31.5 75.5t75.5 31.5q43 0 74.5 -31.5t31.5 -75.5t-31.5 -75t-74.5 -31zM862 1577l-10 -195l-659 -389
q166 -74 273.5 -141t165.5 -134.5t79.5 -131t21.5 -146.5q0 -215 -182 -327.5t-551 -112.5l-41 92l57 92q164 0 276 20t172 58.5t84.5 86t24.5 112.5q0 49 -20.5 91t-79 95t-175.5 116.5t-298 139.5l39 174z" />
    <glyph glyph-name="uni063B.medi" unicode="&#x63b;" horiz-adv-x="1124" 
d="M43 1485q-43 0 -74.5 31t-31.5 75t31.5 75.5t74.5 31.5q44 0 75.5 -31.5t31.5 -75.5t-31.5 -75t-75.5 -31zM360 1485q-44 0 -75 31t-31 75t31 75.5t75 31.5q43 0 75 -31.5t32 -75.5t-32 -75t-75 -31zM1141 184l24 -88l-41 -96q-185 0 -313.5 73.5t-263.5 272.5
q-11 -156 -153 -251t-394 -95l-41 92l57 92q195 0 291 57.5t96 159.5q0 129 -139 304l-164 204l37 166l824 502l-11 -195l-688 -405l377 -475q61 -76 97.5 -120t78.5 -84.5t71 -59t70.5 -33t82.5 -18t102 -3.5z" />
    <glyph glyph-name="uni063B.fina" unicode="&#x63b;" horiz-adv-x="2043" 
d="M944 1485q-43 0 -74.5 31t-31.5 75t31.5 75.5t74.5 31.5q44 0 75.5 -31.5t31.5 -75.5t-31.5 -75t-75.5 -31zM1262 1485q-44 0 -75.5 31t-31.5 75t31.5 75.5t75.5 31.5q43 0 74.5 -31.5t31.5 -75.5t-31.5 -75t-74.5 -31zM2060 184l25 -88l-41 -96q-185 0 -314 73.5
t-264 272.5q-4 -64 -30 -117.5t-84 -102t-144 -82t-218 -53.5t-300 -20q-220 0 -352 46t-189 137t-57 239q0 171 76 326l129 -43q-43 -133 -43 -256q0 -99 42.5 -155t140.5 -82.5t270 -26.5q147 0 258 13t178 35t108.5 54.5t56.5 66.5t15 76q0 129 -139 304l-164 204l37 166
l823 502l-10 -195l-688 -405l377 -475q61 -77 97.5 -120.5t78 -84t70.5 -58.5t70.5 -33t82.5 -18.5t102 -3.5z" />
    <glyph glyph-name="uni063C.init" unicode="&#x63c;" horiz-adv-x="954" 
d="M862 1577l-10 -195l-659 -389q166 -74 273.5 -141t165.5 -134.5t79.5 -131t21.5 -146.5q0 -215 -182 -327.5t-551 -112.5l-41 92l57 92q164 0 276 20t172 58.5t84.5 86t24.5 112.5q0 49 -20.5 91t-79 95t-175.5 116.5t-298 139.5l39 174zM162 -295q0 -42 -31.5 -73
t-73.5 -31q-44 0 -75 30.5t-31 73.5t31 74t75 31q42 0 73.5 -31.5t31.5 -73.5zM401 -190q44 0 75.5 -31t31.5 -74t-31.5 -73.5t-75.5 -30.5q-42 0 -73 31t-31 73q0 43 31.5 74t72.5 31zM229 -440q42 0 73.5 -31.5t31.5 -73.5t-31.5 -73t-73.5 -31t-73 31t-31 73
q0 43 31.5 74t72.5 31z" />
    <glyph glyph-name="uni063C.medi" unicode="&#x63c;" horiz-adv-x="1124" 
d="M1141 184l24 -88l-41 -96q-185 0 -313.5 73.5t-263.5 272.5q-11 -156 -153 -251t-394 -95l-41 92l57 92q195 0 291 57.5t96 159.5q0 129 -139 304l-164 204l37 166l824 502l-11 -195l-688 -405l377 -475q61 -76 97.5 -120t78.5 -84.5t71 -59t70.5 -33t82.5 -18t102 -3.5z
M520 -295q0 -42 -31 -73t-73 -31q-44 0 -75.5 30.5t-31.5 73.5t31.5 74t75.5 31q42 0 73 -31t31 -74zM760 -190q44 0 75 -31t31 -74t-31 -73.5t-75 -30.5q-42 0 -73.5 31t-31.5 73t31.5 73.5t73.5 31.5zM588 -440q42 0 73 -31t31 -74q0 -42 -31 -73t-73 -31t-73.5 31
t-31.5 73t31.5 73.5t73.5 31.5z" />
    <glyph glyph-name="uni063C.fina" unicode="&#x63c;" horiz-adv-x="2043" 
d="M2060 184l25 -88l-41 -96q-185 0 -314 73.5t-264 272.5q-4 -64 -30 -117.5t-84 -102t-144 -82t-218 -53.5t-300 -20q-220 0 -352 46t-189 137t-57 239q0 171 76 326l129 -43q-43 -133 -43 -256q0 -99 42.5 -155t140.5 -82.5t270 -26.5q147 0 258 13t178 35t108.5 54.5
t56.5 66.5t15 76q0 129 -139 304l-164 204l37 166l823 502l-10 -195l-688 -405l377 -475q61 -77 97.5 -120.5t78 -84t70.5 -58.5t70.5 -33t82.5 -18.5t102 -3.5zM709 -295q0 -42 -31.5 -73t-73.5 -31q-44 0 -75 30.5t-31 73.5t31 74t75 31q42 0 73.5 -31.5t31.5 -73.5z
M948 -190q44 0 75.5 -31t31.5 -74t-31.5 -73.5t-75.5 -30.5q-42 0 -73 31t-31 73q0 43 31 74t73 31zM776 -440q42 0 73.5 -31.5t31.5 -73.5t-31.5 -73t-73.5 -31t-73 31t-31 73q0 43 31 74t73 31z" />
    <glyph glyph-name="uni066E.init" unicode="&#x66e;" horiz-adv-x="598" 
d="M16 184q128 0 192 19t86.5 59.5t22.5 120.5q0 139 -94 410l176 57q41 -123 63.5 -253.5t22.5 -223.5q0 -111 -22.5 -180.5t-80 -114t-148 -61.5t-234.5 -17l-41 92z" />
    <glyph glyph-name="uni066E.medi" unicode="&#x66e;" horiz-adv-x="708" 
d="M725 184l25 -92l-41 -92q-139 0 -219 32.5t-132 121.5q-48 -89 -128 -121.5t-230 -32.5l-41 92l59 92q92 0 144.5 11.5t75 46t26.5 64t4 97.5v17v272h172v-272q0 -70 8 -109t37 -71t86 -44t154 -12z" />
    <glyph glyph-name="uni066E.fina" unicode="&#x66e;" horiz-adv-x="1998" 
d="M2015 184l25 -88l-41 -96q-158 0 -245.5 38t-145.5 120q-173 -93 -387.5 -140t-530.5 -47q-220 0 -352 46t-189 137t-57 239q0 171 76 326l129 -43q-43 -133 -43 -256q0 -99 42.5 -155t140.5 -82.5t270 -26.5q266 0 483 45t346 114v377h172v-241q0 -82 10.5 -129
t44 -80.5t93 -45.5t159.5 -12z" />
    <glyph glyph-name="uni066F.init" unicode="&#x66f;" horiz-adv-x="968" 
d="M455 1163q175 0 288 -155.5t113 -432.5q0 -101 -16 -179.5t-47 -139.5t-83.5 -104.5t-118 -73t-157.5 -46.5t-195.5 -24.5t-238.5 -7.5l-41 94l57 90q257 0 401.5 27t205 78.5t75.5 142.5q-75 -63 -235 -63q-181 0 -291.5 106.5t-110.5 272.5q0 171 114.5 293t279.5 122z
M211 758q0 -108 80 -172t235 -64q96 0 181 29q-1 221 -68.5 326.5t-183.5 105.5q-107 0 -175.5 -64t-68.5 -161z" />
    <glyph glyph-name="uni066F.medi" unicode="&#x66f;" horiz-adv-x="1050" 
d="M1063 184l29 -92l-41 -92h-101q-210 0 -411 92q-202 -92 -453 -92h-86l-41 92l57 92h90q118 0 246 23q-198 160 -198 366q0 107 49.5 204.5t136 158.5t186.5 61q115 0 206 -61.5t138.5 -157.5t47.5 -205q0 -95 -51.5 -191t-145.5 -175q122 -23 229 -23h113zM305 573
q0 -103 63 -181t173 -128q225 105 225 309q0 98 -66 169t-163 71q-98 0 -165 -71t-67 -169z" />
    <glyph glyph-name="uni066F.fina" unicode="&#x66f;" horiz-adv-x="1599" 
d="M1640 94l-41 -94h-161q-17 -131 -61 -226.5t-122.5 -165t-200.5 -104t-290 -34.5q-353 0 -512.5 131t-159.5 379q0 205 96 401l129 -39q-57 -154 -57 -336q0 -83 26 -145t84.5 -109.5t161.5 -72.5t248 -25q108 0 191.5 18.5t138.5 49t93 76t57.5 94t29.5 108.5h-129
q-263 0 -383.5 101.5t-120.5 277.5q0 171 114.5 293.5t279.5 122.5q175 0 287 -155.5t112 -432.5v-23h166zM1122 184h181q-1 219 -69 324.5t-183 105.5q-107 0 -176.5 -64t-69.5 -161q0 -104 78.5 -154.5t238.5 -50.5z" />
    <glyph glyph-name="uni0676.fina" unicode="&#x676;" horiz-adv-x="1103" 
d="M420 1032l-12 103l131 22q-86 77 -86 148q0 80 55.5 132t159.5 52q70 0 155 -45l-63 -101q-57 33 -107 33q-47 0 -67.5 -23t-20.5 -53q0 -54 86 -124l191 32l14 -104zM1145 94l-41 -94h-211q-34 -145 -118.5 -251t-238.5 -183.5t-386 -126.5l-58 178q286 63 437 155
t204 228h-155q-213 0 -332 107.5t-119 277.5q0 169 114.5 291.5t278.5 122.5q174 0 286 -151t112 -410v-54h202zM592 184h176v25q0 204 -67 305.5t-185 101.5q-104 0 -172 -63.5t-68 -159.5q0 -209 316 -209z" />
    <glyph glyph-name="uni0677.fina" unicode="&#x677;" horiz-adv-x="1103" 
d="M385 1401l-47 96q100 32 164 76q-133 59 -133 166q0 83 53 131.5t125 48.5q80 0 124 -51t44 -125q0 -96 -83 -189t-247 -153zM473 1737q0 -29 25 -50.5t84 -39.5q32 43 32 86q0 30 -19 50.5t-50 20.5q-32 0 -52 -17t-20 -50zM748 961l-437 -72l-12 102l131 23
q-86 77 -86 147q0 80 55.5 132.5t159.5 52.5q69 0 156 -46l-64 -100q-57 33 -106 33q-47 0 -67.5 -23t-20.5 -53q0 -55 86 -125l190 33zM1145 94l-41 -94h-211q-34 -145 -118.5 -251t-238.5 -183.5t-386 -126.5l-58 178q286 63 437 155t204 228h-155q-213 0 -332 107.5
t-119 277.5q0 169 114.5 291.5t278.5 122.5q174 0 286 -151t112 -410v-54h202zM592 184h176v25q0 204 -67 305.5t-185 101.5q-104 0 -172 -63.5t-68 -159.5q0 -209 316 -209z" />
    <glyph glyph-name="uni0678.init" unicode="&#x678;" horiz-adv-x="598" 
d="M518 1290l14 -104l-436 -72l-12 103l131 22q-86 77 -86 147q0 80 55.5 132.5t159.5 52.5q71 0 156 -45l-64 -101q-57 33 -106 33q-47 0 -67.5 -23t-20.5 -53q0 -55 86 -125zM16 184q128 0 192 19t86.5 59.5t22.5 120.5q0 139 -94 410l176 57q41 -123 63.5 -253.5
t22.5 -223.5q0 -111 -22.5 -180.5t-80 -114t-148 -61.5t-234.5 -17l-41 92z" />
    <glyph glyph-name="uni0678.medi" unicode="&#x678;" horiz-adv-x="708" 
d="M199 971l-13 102l131 23q-86 77 -86 147q0 80 55.5 132t159.5 52q71 0 156 -45l-63 -100q-57 33 -107 33q-47 0 -67.5 -23t-20.5 -53q0 -55 86 -125l191 33l14 -105zM725 184l25 -92l-41 -92q-139 0 -219 32.5t-132 121.5q-48 -89 -128 -121.5t-230 -32.5l-41 92l59 92
q92 0 144.5 11.5t75 46t26.5 64t4 97.5v17v272h172v-272q0 -70 8 -109t37 -71t86 -44t154 -12z" />
    <glyph glyph-name="uni0678.fina" unicode="&#x678;" horiz-adv-x="1509" 
d="M885 522l-13 103l132 22q-86 77 -86 148q0 80 55.5 132t159.5 52q70 0 155 -45l-63 -100q-56 32 -107 32q-47 0 -67.5 -22.5t-20.5 -52.5q0 -55 86 -125l191 32l14 -104zM1550 92l-41 -92q-94 0 -172 35q15 -35 15 -72q0 -79 -46 -151t-132.5 -129t-226 -91t-312.5 -34
q-278 0 -410.5 135t-132.5 375q0 205 96 401l129 -39q-57 -154 -57 -336q0 -61 12 -112.5t41 -96.5t73 -76t111.5 -49t153.5 -18q128 0 235.5 23.5t172 59t100 75.5t35.5 77q0 56 -74.5 98t-275.5 99l80 162q62 -19 166.5 -55t157 -52t129.5 -30.5t149 -14.5z" />
    <glyph glyph-name="uni067C.init" unicode="&#x67c;" horiz-adv-x="585" 
d="M100 1042q-43 0 -74.5 31.5t-31.5 75.5t31.5 75t74.5 31q44 0 75.5 -31t31.5 -75t-31.5 -75.5t-75.5 -31.5zM418 1255q43 0 74.5 -31t31.5 -75t-31.5 -75.5t-74.5 -31.5q-44 0 -75.5 31.5t-31.5 75.5t31.5 75t75.5 31zM485 373q0 -113 -24.5 -185t-81.5 -114
q53 -50 53 -125q0 -72 -48.5 -122t-127.5 -50q-76 0 -127 50.5t-51 121.5q0 32 8 53q-27 -2 -86 -2l-41 92l57 92q128 0 192 19t86.5 59.5t22.5 120.5q0 139 -94 410l176 57q41 -123 63.5 -253.5t22.5 -223.5zM338 -51q0 32 -20.5 52.5t-53.5 23.5q-37 -9 -53 -11
q-37 -23 -37 -65q0 -30 23 -53t59 -23q38 0 60 23t22 53z" />
    <glyph glyph-name="uni067C.medi" unicode="&#x67c;" horiz-adv-x="708" 
d="M195 911q-43 0 -75 31.5t-32 75.5t32 75t75 31q44 0 75 -31t31 -75t-31 -75.5t-75 -31.5zM512 911q-44 0 -75 31.5t-31 75.5t31 75t75 31q43 0 74.5 -31t31.5 -75t-31.5 -75.5t-74.5 -31.5zM725 184l25 -92l-41 -92q-139 0 -219 32.5t-132 121.5q-13 -26 -34 -54
q37 -24 59.5 -63t22.5 -84q0 -72 -49 -122t-128 -50q-77 0 -127.5 50.5t-50.5 121.5q0 25 6 49q-18 -2 -57 -2l-41 92l59 92q92 0 144.5 11.5t75 46t26.5 64t4 97.5v17v272h172v-272q0 -70 8 -109t37 -71t86 -44t154 -12zM229 -123q38 0 60 23t22 53q0 33 -23 54.5t-59 21.5
h-8q-4 -1 -11.5 -4t-14.5 -5t-13 -4q-35 -21 -35 -63q0 -30 23 -53t59 -23z" />
    <glyph glyph-name="uni067C.fina" unicode="&#x67c;" horiz-adv-x="1998" 
d="M776 829q-43 0 -74.5 31.5t-31.5 75.5t31.5 75t74.5 31q44 0 75.5 -31t31.5 -75t-31.5 -75.5t-75.5 -31.5zM1094 829q-44 0 -75.5 31.5t-31.5 75.5t31.5 75t75.5 31q43 0 74.5 -31t31.5 -75t-31.5 -75.5t-74.5 -31.5zM2015 184l25 -88l-41 -96q-158 0 -245.5 38
t-145.5 120q-142 -76 -309 -121.5t-394 -59.5q17 -39 17 -75q0 -72 -49 -122t-128 -50q-77 0 -127.5 51t-50.5 121q0 37 17 71q-265 17 -378.5 117.5t-113.5 302.5q0 171 76 326l129 -43q-43 -133 -43 -256q0 -99 42.5 -155t140.5 -82.5t270 -26.5q266 0 483 45t346 114v377
h172v-241q0 -82 10.5 -129t44 -80.5t93 -45.5t159.5 -12zM827 -98q0 52 -49 69h-67q-47 -16 -47 -69q0 -30 22.5 -53t58.5 -23q38 0 60 23t22 53z" />
    <glyph glyph-name="uni067D.init" unicode="&#x67d;" horiz-adv-x="598" 
d="M88 1413q42 0 73.5 -31t31.5 -73t-31.5 -73.5t-73.5 -31.5q-44 0 -75 31t-31 74t31 73.5t75 30.5zM432 1413q44 0 75.5 -30.5t31.5 -73.5t-31.5 -74t-75.5 -31q-42 0 -73 31t-31 74q0 42 31 73t73 31zM260 1163q42 0 73.5 -31t31.5 -73t-31.5 -73.5t-73.5 -31.5t-73 31
t-31 74q0 42 31 73t73 31zM16 184q128 0 192 19t86.5 59.5t22.5 120.5q0 139 -94 410l176 57q41 -123 63.5 -253.5t22.5 -223.5q0 -111 -22.5 -180.5t-80 -114t-148 -61.5t-234.5 -17l-41 92z" />
    <glyph glyph-name="uni067D.medi" unicode="&#x67d;" horiz-adv-x="708" 
d="M182 1073q-44 0 -75 31t-31 74t31 73.5t75 30.5q42 0 73.5 -31t31.5 -73t-31.5 -73.5t-73.5 -31.5zM526 1073q-42 0 -73 31.5t-31 73.5t31 73t73 31q44 0 75.5 -30.5t31.5 -73.5t-31.5 -74t-75.5 -31zM250 928q0 42 31 73t73 31t73.5 -31t31.5 -73t-31.5 -73.5
t-73.5 -31.5t-73 31.5t-31 73.5zM725 184l25 -92l-41 -92q-139 0 -219 32.5t-132 121.5q-48 -89 -128 -121.5t-230 -32.5l-41 92l59 92q92 0 144.5 11.5t75 46t26.5 64t4 97.5v17v272h172v-272q0 -70 8 -109t37 -71t86 -44t154 -12z" />
    <glyph glyph-name="uni067D.fina" unicode="&#x67d;" horiz-adv-x="1998" 
d="M764 991q-44 0 -75.5 31t-31.5 74t31.5 73.5t75.5 30.5q42 0 73 -31t31 -73t-31 -73.5t-73 -31.5zM1108 991q-42 0 -73 31.5t-31 73.5t31 73t73 31q44 0 75 -30.5t31 -73.5t-31 -74t-75 -31zM831 846q0 42 31.5 73t73.5 31t73 -31t31 -73t-31 -73.5t-73 -31.5t-73.5 31.5
t-31.5 73.5zM2015 184l25 -88l-41 -96q-158 0 -245.5 38t-145.5 120q-173 -93 -387.5 -140t-530.5 -47q-220 0 -352 46t-189 137t-57 239q0 171 76 326l129 -43q-43 -133 -43 -256q0 -99 42.5 -155t140.5 -82.5t270 -26.5q266 0 483 45t346 114v377h172v-241
q0 -82 10.5 -129t44 -80.5t93 -45.5t159.5 -12z" />
    <glyph glyph-name="uni0681.init" unicode="&#x681;" horiz-adv-x="1445" 
d="M270 1040l-12 103l131 22q-86 77 -86 148q0 80 55.5 132t159.5 52q71 0 156 -45l-64 -100q-56 32 -106 32q-47 0 -67.5 -22.5t-20.5 -52.5q0 -55 86 -125l190 33l15 -105zM483 950q98 0 174 -18t128 -49t96 -69.5t89.5 -83t95.5 -85t127.5 -79.5t172.5 -64l-25 -160
l-206 -16q-131 -10 -255.5 -47.5t-223 -83.5t-197 -90.5t-216.5 -74.5t-243 -30l-41 92l57 92q109 0 213 25.5t193 64t179.5 79t209 76t244.5 48.5q-75 32 -138.5 76t-103 79t-84.5 66.5t-107.5 49.5t-148.5 18q-117 0 -248 -76l-86 160q171 100 344 100z" />
    <glyph glyph-name="uni0681.medi" unicode="&#x681;" horiz-adv-x="1458" 
d="M262 1040l-12 103l131 22q-86 77 -86 148q0 80 55.5 132t159.5 52q71 0 156 -45l-64 -100q-56 32 -106 32q-47 0 -67.5 -22.5t-20.5 -52.5q0 -55 86 -125l190 33l14 -105zM1475 184l24 -92l-41 -92q-209 0 -332.5 92t-144.5 283q-90 -22 -191.5 -70.5t-188.5 -98.5
t-180 -97.5t-202 -78t-219 -30.5l-41 92l57 92q106 0 209 29t193 73.5t179.5 91t206 90t236.5 62.5q-72 24 -135.5 58t-105.5 63.5t-87.5 56.5t-104.5 42.5t-134 15.5q-117 0 -248 -76l-86 160q171 100 336 100q93 0 165 -15t123 -41t95 -58t91.5 -70t100.5 -73.5
t134.5 -70.5t181.5 -59l-25 -160l-213 -8h-10q13 -58 35 -97t49 -61.5t72 -34.5t88 -15t113 -3z" />
    <glyph glyph-name="uni0681.fina" unicode="&#x681;" horiz-adv-x="1357" 
d="M260 1040l-12 103l131 22q-86 77 -86 148q0 80 55.5 132t159.5 52q71 0 156 -45l-64 -100q-56 32 -106 32q-47 0 -67.5 -22.5t-20.5 -52.5q0 -55 86 -125l190 33l14 -105zM1358 0q-203 0 -308 94.5t-122 290.5h2q-146 -15 -263 -52t-195 -88.5t-130 -117t-75 -135
t-23 -144.5q0 -200 144.5 -304.5t422.5 -104.5q259 0 446 96l70 -162q-200 -123 -534 -123q-177 0 -311.5 40.5t-219 116t-126.5 179t-42 232.5q0 142 50.5 262.5t151.5 216t263.5 158.5t374.5 84q-64 29 -132.5 73.5t-110.5 75t-104 53.5t-132 23q-136 0 -267 -78l-86 160
q167 104 367 104q73 0 136.5 -18.5t113 -49t95.5 -67.5t92.5 -77t95 -75t113 -63t136.5 -39l-20 -160l-164 -6q15 -70 35.5 -111t58.5 -63.5t85 -29.5t128 -7l25 -92z" />
    <glyph glyph-name="uni0682.init" unicode="&#x682;" horiz-adv-x="1445" 
d="M485 1343q-43 0 -74.5 31.5t-31.5 75.5t31.5 75t74.5 31q44 0 75.5 -31t31.5 -75t-31.5 -75.5t-75.5 -31.5zM487 1253q43 0 75 -31t32 -75t-32 -75.5t-75 -31.5q-44 0 -75 31.5t-31 75.5t31 75t75 31zM483 950q98 0 174 -18t128 -49t96 -69.5t89.5 -83t95.5 -85
t127.5 -79.5t172.5 -64l-25 -160l-206 -16q-131 -10 -255.5 -47.5t-223 -83.5t-197 -90.5t-216.5 -74.5t-243 -30l-41 92l57 92q109 0 213 25.5t193 64t179.5 79t209 76t244.5 48.5q-75 32 -138.5 76t-103 79t-84.5 66.5t-107.5 49.5t-148.5 18q-117 0 -248 -76l-86 160
q171 100 344 100z" />
    <glyph glyph-name="uni0682.medi" unicode="&#x682;" horiz-adv-x="1458" 
d="M477 1343q-43 0 -74.5 31.5t-31.5 75.5t31.5 75t74.5 31q44 0 75.5 -31t31.5 -75t-31.5 -75.5t-75.5 -31.5zM479 1253q43 0 75 -31t32 -75t-32 -75.5t-75 -31.5q-44 0 -75 31.5t-31 75.5t31 75t75 31zM1475 184l24 -92l-41 -92q-209 0 -332.5 92t-144.5 283
q-90 -22 -191.5 -70.5t-188.5 -98.5t-180 -97.5t-202 -78t-219 -30.5l-41 92l57 92q106 0 209 29t193 73.5t179.5 91t206 90t236.5 62.5q-72 24 -135.5 58t-105.5 63.5t-87.5 56.5t-104.5 42.5t-134 15.5q-117 0 -248 -76l-86 160q171 100 336 100q93 0 165 -15t123 -41
t95 -58t91.5 -70t100.5 -73.5t134.5 -70.5t181.5 -59l-25 -160l-213 -8h-10q13 -58 35 -97t49 -61.5t72 -34.5t88 -15t113 -3z" />
    <glyph glyph-name="uni0682.fina" unicode="&#x682;" horiz-adv-x="1357" 
d="M475 1343q-43 0 -74.5 31.5t-31.5 75.5t31.5 75t74.5 31q44 0 75.5 -31t31.5 -75t-31.5 -75.5t-75.5 -31.5zM477 1253q43 0 75 -31t32 -75t-32 -75.5t-75 -31.5q-44 0 -75 31.5t-31 75.5t31 75t75 31zM1358 0q-203 0 -308 94.5t-122 290.5h2q-146 -15 -263 -52
t-195 -88.5t-130 -117t-75 -135t-23 -144.5q0 -200 144.5 -304.5t422.5 -104.5q259 0 446 96l70 -162q-200 -123 -534 -123q-177 0 -311.5 40.5t-219 116t-126.5 179t-42 232.5q0 142 50.5 262.5t151.5 216t263.5 158.5t374.5 84q-64 29 -132.5 73.5t-110.5 75t-104 53.5
t-132 23q-136 0 -267 -78l-86 160q167 104 367 104q73 0 136.5 -18.5t113 -49t95.5 -67.5t92.5 -77t95 -75t113 -63t136.5 -39l-20 -160l-164 -6q15 -70 35.5 -111t58.5 -63.5t85 -29.5t128 -7l25 -92z" />
    <glyph glyph-name="uni0685.init" unicode="&#x685;" horiz-adv-x="1445" 
d="M483 1341q-41 0 -72.5 31.5t-31.5 73.5t31 73t73 31t73.5 -31t31.5 -73t-31.5 -73.5t-73.5 -31.5zM311 1092q-44 0 -75 30.5t-31 73.5t31 73.5t75 30.5q42 0 73.5 -31t31.5 -73t-31.5 -73t-73.5 -31zM551 1196q0 42 31 73t73 31q44 0 75.5 -30.5t31.5 -73.5t-31.5 -73.5
t-75.5 -30.5q-42 0 -73 31t-31 73zM483 950q98 0 174 -18t128 -49t96 -69.5t89.5 -83t95.5 -85t127.5 -79.5t172.5 -64l-25 -160l-206 -16q-131 -10 -255.5 -47.5t-223 -83.5t-197 -90.5t-216.5 -74.5t-243 -30l-41 92l57 92q109 0 213 25.5t193 64t179.5 79t209 76
t244.5 48.5q-75 32 -138.5 76t-103 79t-84.5 66.5t-107.5 49.5t-148.5 18q-117 0 -248 -76l-86 160q171 100 344 100z" />
    <glyph glyph-name="uni0685.medi" unicode="&#x685;" horiz-adv-x="1458" 
d="M475 1341q-41 0 -72.5 31.5t-31.5 73.5t31 73t73 31t73.5 -31t31.5 -73t-31.5 -73.5t-73.5 -31.5zM303 1092q-44 0 -75 30.5t-31 73.5t31 73.5t75 30.5q42 0 73.5 -31t31.5 -73t-31.5 -73t-73.5 -31zM543 1196q0 42 31 73t73 31q44 0 75.5 -30.5t31.5 -73.5t-31.5 -73.5
t-75.5 -30.5q-42 0 -73 31t-31 73zM1475 184l24 -92l-41 -92q-209 0 -332.5 92t-144.5 283q-90 -22 -191.5 -70.5t-188.5 -98.5t-180 -97.5t-202 -78t-219 -30.5l-41 92l57 92q106 0 209 29t193 73.5t179.5 91t206 90t236.5 62.5q-72 24 -135.5 58t-105.5 63.5t-87.5 56.5
t-104.5 42.5t-134 15.5q-117 0 -248 -76l-86 160q171 100 336 100q93 0 165 -15t123 -41t95 -58t91.5 -70t100.5 -73.5t134.5 -70.5t181.5 -59l-25 -160l-213 -8h-10q13 -58 35 -97t49 -61.5t72 -34.5t88 -15t113 -3z" />
    <glyph glyph-name="uni0685.fina" unicode="&#x685;" horiz-adv-x="1357" 
d="M473 1341q-41 0 -72.5 31.5t-31.5 73.5t31 73t73 31t73.5 -31t31.5 -73t-31.5 -73.5t-73.5 -31.5zM301 1092q-44 0 -75 30.5t-31 73.5t31 73.5t75 30.5q42 0 73.5 -31t31.5 -73t-31.5 -73t-73.5 -31zM541 1196q0 42 31 73t73 31q44 0 75.5 -30.5t31.5 -73.5t-31.5 -73.5
t-75.5 -30.5q-42 0 -73 31t-31 73zM1358 0q-203 0 -308 94.5t-122 290.5h2q-146 -15 -263 -52t-195 -88.5t-130 -117t-75 -135t-23 -144.5q0 -200 144.5 -304.5t422.5 -104.5q259 0 446 96l70 -162q-200 -123 -534 -123q-177 0 -311.5 40.5t-219 116t-126.5 179t-42 232.5
q0 142 50.5 262.5t151.5 216t263.5 158.5t374.5 84q-64 29 -132.5 73.5t-110.5 75t-104 53.5t-132 23q-136 0 -267 -78l-86 160q167 104 367 104q73 0 136.5 -18.5t113 -49t95.5 -67.5t92.5 -77t95 -75t113 -63t136.5 -39l-20 -160l-164 -6q15 -70 35.5 -111t58.5 -63.5
t85 -29.5t128 -7l25 -92z" />
    <glyph glyph-name="uni0689.fina" unicode="&#x689;" horiz-adv-x="1089" 
d="M1106 184l24 -92l-40 -92q-96 0 -172 47.5t-119 126.5q-71 -134 -244 -182q27 -46 27 -92q0 -72 -48.5 -122t-127.5 -50q-77 0 -128 51t-51 121q0 41 19 77q-88 8 -195 37l55 181q162 -35 283 -35q214 0 352 129l-313 704l182 86l254 -651q29 -73 48 -112.5t47 -73
t62.5 -46t84.5 -12.5zM487 -100q0 27 -16 47t-43 26q-16 -2 -51 -2q-53 -16 -53 -71q0 -30 23 -53t59 -23q38 0 59.5 23t21.5 53z" />
    <glyph glyph-name="uni068A.fina" unicode="&#x68a;" horiz-adv-x="1089" 
d="M1106 184l24 -92l-40 -92q-96 0 -172 47.5t-119 126.5q-111 -203 -422 -203q-164 0 -326 43l55 181q162 -35 283 -35q214 0 352 129l-313 704l182 86l254 -651q29 -73 48 -112.5t47 -73t62.5 -46t84.5 -12.5zM432 -201q47 0 80 -32.5t33 -79.5t-33 -80t-80 -33t-80 33
t-33 80t33 79.5t80 32.5z" />
    <glyph glyph-name="uni068B.fina" unicode="&#x68b;" horiz-adv-x="1089" 
d="M694 1395q0 -31 -11 -61t-33.5 -58t-64 -45t-96.5 -17h-315l12 103h54q14 21 22 37v291h100v-154q78 86 164 86q74 0 121 -52t47 -130zM326 1317h145q67 0 96 18.5t29 61.5q0 76 -78 76q-90 0 -192 -156zM1106 184l24 -92l-40 -92q-96 0 -172 47.5t-119 126.5
q-111 -203 -422 -203q-164 0 -326 43l55 181q162 -35 283 -35q214 0 352 129l-313 704l182 86l254 -651q29 -73 48 -112.5t47 -73t62.5 -46t84.5 -12.5zM432 -201q47 0 80 -32.5t33 -79.5t-33 -80t-80 -33t-80 33t-33 80t33 79.5t80 32.5z" />
    <glyph glyph-name="uni068F.fina" unicode="&#x68f;" horiz-adv-x="1089" 
d="M266 1425q-44 0 -75 31t-31 74t31 73.5t75 30.5q42 0 73.5 -31t31.5 -73t-31.5 -73.5t-73.5 -31.5zM610 1425q-42 0 -73 31.5t-31 73.5t31 73t73 31q44 0 75.5 -30.5t31.5 -73.5t-31.5 -74t-75.5 -31zM334 1280q0 42 31 73t73 31t73.5 -31t31.5 -73t-31.5 -73t-73.5 -31
t-73 31t-31 73zM1106 184l24 -92l-40 -92q-96 0 -172 47.5t-119 126.5q-111 -203 -422 -203q-164 0 -326 43l55 181q162 -35 283 -35q214 0 352 129l-313 704l182 86l254 -651q29 -73 48 -112.5t47 -73t62.5 -46t84.5 -12.5z" />
    <glyph glyph-name="uni0690.fina" unicode="&#x690;" horiz-adv-x="1089" 
d="M283 1464q-44 0 -75.5 30.5t-31.5 72.5q0 47 31 78.5t76 31.5t75.5 -31.5t30.5 -78.5q0 -42 -31 -72.5t-75 -30.5zM598 1464q-44 0 -75 30.5t-31 72.5q0 47 30.5 78.5t75.5 31.5t76 -31.5t31 -78.5q0 -42 -31.5 -72.5t-75.5 -30.5zM283 1163q-44 0 -75.5 31.5t-31.5 77.5
q0 43 31.5 73.5t75.5 30.5t75 -30.5t31 -73.5q0 -46 -31 -77.5t-75 -31.5zM598 1163q-44 0 -75 31.5t-31 77.5q0 43 31 73.5t75 30.5t75.5 -30.5t31.5 -73.5q0 -46 -31.5 -77.5t-75.5 -31.5zM1106 184l24 -92l-40 -92q-96 0 -172 47.5t-119 126.5q-111 -203 -422 -203
q-164 0 -326 43l55 181q162 -35 283 -35q214 0 352 129l-313 704l182 86l254 -651q29 -73 48 -112.5t47 -73t62.5 -46t84.5 -12.5z" />
    <glyph glyph-name="uni0692.fina" unicode="&#x692;" horiz-adv-x="845" 
d="M418 854h-99l-155 291l92 37l115 -195l114 195l93 -37zM862 184l25 -92l-41 -92q-159 0 -223 100q-26 -230 -181.5 -384t-427.5 -230l-75 178q145 40 252 98t168.5 125.5t90.5 138t29 146.5q0 162 -160 498l195 61q18 -50 80 -262q42 -162 98 -223.5t170 -61.5z" />
    <glyph glyph-name="uni0693.fina" unicode="&#x693;" horiz-adv-x="845" 
d="M862 184l25 -92l-41 -92q-159 0 -223 100q-23 -222 -177 -379q65 -9 107.5 -57.5t42.5 -114.5q0 -72 -48.5 -122t-127.5 -50q-76 0 -127 50.5t-51 121.5q0 17 2 25q-90 -46 -230 -88l-75 178q145 40 252 98t168.5 125.5t90.5 138t29 146.5q0 162 -160 498l195 61
q18 -50 80 -262q42 -162 98 -223.5t170 -61.5zM502 -451q0 33 -23 54.5t-59 21.5t-59 -21.5t-23 -54.5q0 -29 23 -52t59 -23q38 0 60 22.5t22 52.5z" />
    <glyph glyph-name="uni0694.fina" unicode="&#x694;" horiz-adv-x="845" 
d="M862 184l25 -92l-41 -92q-159 0 -223 100q-26 -230 -181.5 -384t-427.5 -230l-75 178q145 40 252 98t168.5 125.5t90.5 138t29 146.5q0 162 -160 498l195 61q18 -50 80 -262q42 -162 98 -223.5t170 -61.5zM451 -549q47 0 79.5 -33t32.5 -80t-32.5 -79.5t-79.5 -32.5
t-80 32.5t-33 79.5t33 80t80 33z" />
    <glyph glyph-name="uni0695.fina" unicode="&#x695;" horiz-adv-x="845" 
d="M862 184l25 -92l-41 -92q-159 0 -223 100q-26 -230 -181.5 -384t-427.5 -230l-75 178q145 40 252 98t168.5 125.5t90.5 138t29 146.5q0 162 -160 498l195 61q18 -50 80 -262q42 -162 98 -223.5t170 -61.5zM451 -659l114 194l92 -37l-159 -291h-99l-155 291l92 37z" />
    <glyph glyph-name="uni0696.fina" unicode="&#x696;" horiz-adv-x="845" 
d="M365 907q-47 0 -80 33t-33 80t33 80t80 33t79.5 -33t32.5 -80t-32.5 -80t-79.5 -33zM862 184l25 -92l-41 -92q-159 0 -223 100q-26 -230 -181.5 -384t-427.5 -230l-75 178q145 40 252 98t168.5 125.5t90.5 138t29 146.5q0 162 -160 498l195 61q18 -50 80 -262
q42 -162 98 -223.5t170 -61.5zM451 -549q47 0 79.5 -33t32.5 -80t-32.5 -79.5t-79.5 -32.5t-80 32.5t-33 79.5t33 80t80 33z" />
    <glyph glyph-name="uni0697.fina" unicode="&#x697;" horiz-adv-x="845" 
d="M211 963q-43 0 -75 31t-32 75t32 75.5t75 31.5q44 0 75 -31.5t31 -75.5t-31 -75t-75 -31zM528 963q-44 0 -75 31t-31 75t31 75.5t75 31.5q43 0 75 -31.5t32 -75.5t-32 -75t-75 -31zM862 184l25 -92l-41 -92q-159 0 -223 100q-26 -230 -181.5 -384t-427.5 -230l-75 178
q145 40 252 98t168.5 125.5t90.5 138t29 146.5q0 162 -160 498l195 61q18 -50 80 -262q42 -162 98 -223.5t170 -61.5z" />
    <glyph glyph-name="uni0699.fina" unicode="&#x699;" horiz-adv-x="845" 
d="M215 1163q-44 0 -75 30.5t-31 72.5q0 47 30.5 78.5t75.5 31.5t76 -31.5t31 -78.5q0 -42 -31.5 -72.5t-75.5 -30.5zM530 1163q-44 0 -75 30.5t-31 72.5q0 47 30.5 78.5t75.5 31.5t76 -31.5t31 -78.5q0 -42 -31.5 -72.5t-75.5 -30.5zM215 862q-44 0 -75 31.5t-31 77.5
q0 43 31 73.5t75 30.5t75.5 -30.5t31.5 -73.5q0 -46 -31.5 -77.5t-75.5 -31.5zM530 862q-44 0 -75 31.5t-31 77.5q0 43 31 73.5t75 30.5t75.5 -30.5t31.5 -73.5q0 -46 -31.5 -77.5t-75.5 -31.5zM862 184l25 -92l-41 -92q-159 0 -223 100q-26 -230 -181.5 -384t-427.5 -230
l-75 178q145 40 252 98t168.5 125.5t90.5 138t29 146.5q0 162 -160 498l195 61q18 -50 80 -262q42 -162 98 -223.5t170 -61.5z" />
    <glyph glyph-name="uni069A.init" unicode="&#x69a;" horiz-adv-x="1710" 
d="M948 856q-47 0 -79.5 33t-32.5 80t32.5 79.5t79.5 32.5t80 -32.5t33 -79.5t-33 -80t-80 -33zM1511 850q44 -116 65 -239t21 -214q0 -202 -94.5 -299.5t-259.5 -97.5q-90 0 -164 35.5t-118 101.5q-95 -137 -289 -137q-94 0 -172 34.5t-119 96.5q-53 -72 -147 -101.5
t-234 -29.5l-41 94l57 90q139 0 210 44t71 155v309h166v-264q0 -77 15 -127t46 -74.5t65.5 -33.5t84.5 -9q196 0 196 242v266h168v-264q0 -131 54.5 -187.5t162.5 -56.5q91 0 133 46.5t42 150.5q0 173 -84 414zM979 -201q47 0 80 -32.5t33 -79.5t-33 -80t-80 -33t-80 33
t-33 80t33 79.5t80 32.5z" />
    <glyph glyph-name="uni069A.medi" unicode="&#x69a;" horiz-adv-x="1902" 
d="M952 856q-47 0 -79.5 33t-32.5 80t32.5 79.5t79.5 32.5t80 -32.5t33 -79.5t-33 -80t-80 -33zM1919 184l25 -88l-41 -96q-134 0 -223 37t-124 100q-92 -137 -309 -137q-90 0 -164 35.5t-118 101.5q-95 -137 -289 -137q-94 0 -172 34.5t-119 96.5q-53 -72 -147.5 -101.5
t-237.5 -29.5l-41 94l59 90q141 0 212 44t71 155v309h166v-264q0 -77 15 -127t46 -74.5t65.5 -33.5t84.5 -9q196 0 196 242v266h168v-264q0 -131 55 -187.5t163 -56.5q190 0 190 197v373h172v-355q0 -124 63.5 -169.5t233.5 -45.5zM958 -201q47 0 80 -32.5t33 -79.5t-33 -80
t-80 -33t-79.5 33t-32.5 80t32.5 79.5t79.5 32.5z" />
    <glyph glyph-name="uni069A.fina" unicode="&#x69a;" horiz-adv-x="2744" 
d="M1794 856q-47 0 -80 33t-33 80t33 79.5t80 32.5t80 -32.5t33 -79.5t-33 -80t-80 -33zM2761 184l24 -88l-41 -96q-134 0 -222.5 37t-123.5 100q-92 -137 -309 -137q-90 0 -164.5 35.5t-118.5 101.5q-96 -137 -299 -137h-2q-143 0 -225 76q-6 -170 -49.5 -288
t-127.5 -187.5t-197.5 -100t-270.5 -30.5q-278 0 -410.5 135t-132.5 375q0 205 96 401l129 -39q-57 -154 -57 -336q0 -61 12 -112.5t41 -96.5t73 -76t111.5 -49t153.5 -18q253 0 358 101.5t105 344.5q0 117 -30.5 225t-102.5 267l188 76q8 -33 19.5 -70t27.5 -83.5t23 -68.5
q49 -154 113 -208t172 -54q192 0 192 242v266h168v-264q0 -131 54.5 -187.5t162.5 -56.5q191 0 191 197v389h172v-371q0 -124 63.5 -169.5t233.5 -45.5zM1804 -201q47 0 80 -32.5t33 -79.5t-33 -80t-80 -33t-79.5 33t-32.5 80t32.5 79.5t79.5 32.5z" />
    <glyph glyph-name="uni069B.init" unicode="&#x69b;" horiz-adv-x="1710" 
d="M1511 850q44 -116 65 -239t21 -214q0 -202 -94.5 -299.5t-259.5 -97.5q-90 0 -164 35.5t-118 101.5q-95 -137 -289 -137q-94 0 -172 34.5t-119 96.5q-53 -72 -147 -101.5t-234 -29.5l-41 94l57 90q139 0 210 44t71 155v309h166v-264q0 -77 15 -127t46 -74.5t65.5 -33.5
t84.5 -9q196 0 196 242v266h168v-264q0 -131 54.5 -187.5t162.5 -56.5q91 0 133 46.5t42 150.5q0 173 -84 414zM911 -295q0 -42 -31 -73t-73 -31q-44 0 -75.5 30.5t-31.5 73.5t31.5 74t75.5 31q41 0 72.5 -31t31.5 -74zM1151 -190q44 0 75 -31t31 -74t-31 -73.5t-75 -30.5
q-42 0 -73 31t-31 73q0 43 31.5 74t72.5 31zM979 -440q41 0 72.5 -31t31.5 -74q0 -42 -31 -73t-73 -31t-73.5 31t-31.5 73t31.5 73.5t73.5 31.5z" />
    <glyph glyph-name="uni069B.medi" unicode="&#x69b;" horiz-adv-x="1902" 
d="M1919 184l25 -88l-41 -96q-134 0 -223 37t-124 100q-92 -137 -309 -137q-90 0 -164 35.5t-118 101.5q-95 -137 -289 -137q-94 0 -172 34.5t-119 96.5q-53 -72 -147.5 -101.5t-237.5 -29.5l-41 94l59 90q141 0 212 44t71 155v309h166v-264q0 -77 15 -127t46 -74.5
t65.5 -33.5t84.5 -9q196 0 196 242v266h168v-264q0 -131 55 -187.5t163 -56.5q190 0 190 197v373h172v-355q0 -124 63.5 -169.5t233.5 -45.5zM891 -295q0 -42 -31.5 -73t-73.5 -31q-44 0 -75 30.5t-31 73.5t31 74t75 31q42 0 73.5 -31.5t31.5 -73.5zM1130 -190
q44 0 75.5 -31t31.5 -74t-31.5 -73.5t-75.5 -30.5q-42 0 -73 31t-31 73q0 43 31 74t73 31zM958 -440q42 0 73.5 -31.5t31.5 -73.5t-31.5 -73t-73.5 -31t-73 31t-31 73q0 43 31 74t73 31z" />
    <glyph glyph-name="uni069B.fina" unicode="&#x69b;" horiz-adv-x="2744" 
d="M2761 184l24 -88l-41 -96q-134 0 -222.5 37t-123.5 100q-92 -137 -309 -137q-90 0 -164.5 35.5t-118.5 101.5q-96 -137 -299 -137h-2q-143 0 -225 76q-6 -170 -49.5 -288t-127.5 -187.5t-197.5 -100t-270.5 -30.5q-278 0 -410.5 135t-132.5 375q0 205 96 401l129 -39
q-57 -154 -57 -336q0 -61 12 -112.5t41 -96.5t73 -76t111.5 -49t153.5 -18q253 0 358 101.5t105 344.5q0 117 -30.5 225t-102.5 267l188 76q8 -33 19.5 -70t27.5 -83.5t23 -68.5q49 -154 113 -208t172 -54q192 0 192 242v266h168v-264q0 -131 54.5 -187.5t162.5 -56.5
q191 0 191 197v389h172v-371q0 -124 63.5 -169.5t233.5 -45.5zM1737 -295q0 -42 -31.5 -73t-73.5 -31q-44 0 -75 30.5t-31 73.5t31 74t75 31q42 0 73.5 -31.5t31.5 -73.5zM1976 -190q44 0 75.5 -31t31.5 -74t-31.5 -73.5t-75.5 -30.5q-42 0 -73 31t-31 73q0 43 31 74t73 31z
M1804 -440q42 0 73.5 -31.5t31.5 -73.5t-31.5 -73t-73.5 -31t-73 31t-31 73q0 43 31 74t73 31z" />
    <glyph glyph-name="uni069C.init" unicode="&#x69c;" horiz-adv-x="1710" 
d="M954 1112q-42 0 -73 31t-31 74q0 42 31 73t73 31t73.5 -31t31.5 -73t-31.5 -73.5t-73.5 -31.5zM782 862q-44 0 -75 31t-31 74t31 73.5t75 30.5q42 0 73.5 -31t31.5 -73t-31.5 -73.5t-73.5 -31.5zM1022 967q0 42 31 73t73 31q44 0 75.5 -30.5t31.5 -73.5t-31.5 -74
t-75.5 -31q-42 0 -73 31t-31 74zM1511 850q44 -116 65 -239t21 -214q0 -202 -94.5 -299.5t-259.5 -97.5q-90 0 -164 35.5t-118 101.5q-95 -137 -289 -137q-94 0 -172 34.5t-119 96.5q-53 -72 -147 -101.5t-234 -29.5l-41 94l57 90q139 0 210 44t71 155v309h166v-264
q0 -77 15 -127t46 -74.5t65.5 -33.5t84.5 -9q196 0 196 242v266h168v-264q0 -131 54.5 -187.5t162.5 -56.5q91 0 133 46.5t42 150.5q0 173 -84 414zM911 -295q0 -42 -31 -73t-73 -31q-44 0 -75.5 30.5t-31.5 73.5t31.5 74t75.5 31q41 0 72.5 -31t31.5 -74zM1151 -190
q44 0 75 -31t31 -74t-31 -73.5t-75 -30.5q-42 0 -73 31t-31 73q0 43 31.5 74t72.5 31zM979 -440q41 0 72.5 -31t31.5 -74q0 -42 -31 -73t-73 -31t-73.5 31t-31.5 73t31.5 73.5t73.5 31.5z" />
    <glyph glyph-name="uni069C.medi" unicode="&#x69c;" horiz-adv-x="1902" 
d="M958 1112q-42 0 -73 31t-31 74q0 42 31 73t73 31t73.5 -31t31.5 -73t-31.5 -73.5t-73.5 -31.5zM786 862q-44 0 -75 31t-31 74t31 73.5t75 30.5q42 0 73.5 -31t31.5 -73t-31.5 -73.5t-73.5 -31.5zM1026 967q0 42 31 73t73 31q44 0 75.5 -30.5t31.5 -73.5t-31.5 -74
t-75.5 -31q-42 0 -73 31t-31 74zM1919 184l25 -88l-41 -96q-134 0 -223 37t-124 100q-92 -137 -309 -137q-90 0 -164 35.5t-118 101.5q-95 -137 -289 -137q-94 0 -172 34.5t-119 96.5q-53 -72 -147.5 -101.5t-237.5 -29.5l-41 94l59 90q141 0 212 44t71 155v309h166v-264
q0 -77 15 -127t46 -74.5t65.5 -33.5t84.5 -9q196 0 196 242v266h168v-264q0 -131 55 -187.5t163 -56.5q190 0 190 197v373h172v-355q0 -124 63.5 -169.5t233.5 -45.5zM891 -295q0 -42 -31.5 -73t-73.5 -31q-44 0 -75 30.5t-31 73.5t31 74t75 31q42 0 73.5 -31.5t31.5 -73.5z
M1130 -190q44 0 75.5 -31t31.5 -74t-31.5 -73.5t-75.5 -30.5q-42 0 -73 31t-31 73q0 43 31 74t73 31zM958 -440q42 0 73.5 -31.5t31.5 -73.5t-31.5 -73t-73.5 -31t-73 31t-31 73q0 43 31 74t73 31z" />
    <glyph glyph-name="uni069C.fina" unicode="&#x69c;" horiz-adv-x="2744" 
d="M1800 1112q-42 0 -73 31t-31 74q0 42 31 73t73 31t73.5 -31t31.5 -73t-31.5 -73.5t-73.5 -31.5zM1628 862q-44 0 -75 31t-31 74t31 73.5t75 30.5q42 0 73.5 -31t31.5 -73t-31.5 -73.5t-73.5 -31.5zM1868 967q0 42 31 73t73 31q44 0 75.5 -30.5t31.5 -73.5t-31.5 -74
t-75.5 -31q-42 0 -73 31t-31 74zM2761 184l24 -88l-41 -96q-134 0 -222.5 37t-123.5 100q-92 -137 -309 -137q-90 0 -164.5 35.5t-118.5 101.5q-96 -137 -299 -137h-2q-143 0 -225 76q-6 -170 -49.5 -288t-127.5 -187.5t-197.5 -100t-270.5 -30.5q-278 0 -410.5 135
t-132.5 375q0 205 96 401l129 -39q-57 -154 -57 -336q0 -61 12 -112.5t41 -96.5t73 -76t111.5 -49t153.5 -18q253 0 358 101.5t105 344.5q0 117 -30.5 225t-102.5 267l188 76q8 -33 19.5 -70t27.5 -83.5t23 -68.5q49 -154 113 -208t172 -54q192 0 192 242v266h168v-264
q0 -131 54.5 -187.5t162.5 -56.5q191 0 191 197v389h172v-371q0 -124 63.5 -169.5t233.5 -45.5zM1737 -295q0 -42 -31.5 -73t-73.5 -31q-44 0 -75 30.5t-31 73.5t31 74t75 31q42 0 73.5 -31.5t31.5 -73.5zM1976 -190q44 0 75.5 -31t31.5 -74t-31.5 -73.5t-75.5 -30.5
q-42 0 -73 31t-31 73q0 43 31 74t73 31zM1804 -440q42 0 73.5 -31.5t31.5 -73.5t-31.5 -73t-73.5 -31t-73 31t-31 73q0 43 31 74t73 31z" />
    <glyph glyph-name="uni069D.init" unicode="&#x69d;" horiz-adv-x="1914" 
d="M1374 940q188 0 308 -129t120 -362q0 -74 -10.5 -132t-37 -104t-61.5 -79t-92.5 -57t-122 -38.5t-158 -23.5t-192 -12t-233.5 -3h-213q-130 0 -208.5 32t-129.5 118q-48 -87 -125 -118.5t-219 -31.5l-41 92l59 92q59 0 100 5t66.5 20t40 27.5t21 43.5t7.5 51t1 66v17v397
h172v-397q0 -58 5.5 -93t24 -65.5t54.5 -46t94 -21.5q117 352 330 552t440 200zM895 184q148 0 249.5 4t192.5 14.5t146 29.5t96 50.5t57.5 75t16.5 103.5q0 77 -18.5 133t-45 85.5t-65.5 47t-69.5 21.5t-68.5 4q-181 0 -333.5 -130t-290.5 -438h133zM180 -186
q44 0 75.5 -31.5t31.5 -75.5t-31.5 -75t-75.5 -31q-43 0 -74.5 31t-31.5 75t31.5 75.5t74.5 31.5zM498 -186q43 0 74.5 -31.5t31.5 -75.5t-31.5 -75t-74.5 -31q-44 0 -75.5 31t-31.5 75t31.5 75.5t75.5 31.5z" />
    <glyph glyph-name="uni069D.medi" unicode="&#x69d;" horiz-adv-x="1978" 
d="M1995 184l24 -92l-41 -92q-81 0 -152.5 40.5t-117.5 106.5q-87 -88 -271.5 -117.5t-541.5 -29.5h-213q-130 0 -208.5 32t-129.5 118q-48 -87 -125 -118.5t-219 -31.5l-41 92l59 92q59 0 100 5t66.5 20t40 27.5t21 43.5t7.5 51t1 66v17v397h172v-397q0 -58 5.5 -93
t24 -65.5t54.5 -46t94 -21.5q117 352 330 552t440 200q188 0 308 -129t120 -362q0 -91 -18 -162q42 -58 93 -80.5t118 -22.5zM895 184q148 0 249.5 4t192.5 14.5t146 29.5t96 50.5t57.5 75t16.5 103.5q0 77 -18.5 133t-45 85.5t-65.5 47t-69.5 21.5t-68.5 4
q-181 0 -333.5 -130t-290.5 -438h133zM180 -186q44 0 75.5 -31.5t31.5 -75.5t-31.5 -75t-75.5 -31q-43 0 -74.5 31t-31.5 75t31.5 75.5t74.5 31.5zM498 -186q43 0 74.5 -31.5t31.5 -75.5t-31.5 -75t-74.5 -31q-44 0 -75.5 31t-31.5 75t31.5 75.5t75.5 31.5z" />
    <glyph glyph-name="uni069D.fina" unicode="&#x69d;" horiz-adv-x="2803" 
d="M2820 184l25 -92l-41 -92q-81 0 -153 40.5t-118 106.5q-87 -88 -271.5 -117.5t-541.5 -29.5h-213q-143 0 -227 76q-6 -170 -49.5 -288t-127.5 -187.5t-197.5 -100t-270.5 -30.5q-278 0 -410.5 135t-132.5 375q0 205 96 401l129 -39q-57 -154 -57 -336q0 -61 12 -112.5
t41 -96.5t73 -76t111.5 -49t153.5 -18q253 0 358 101.5t105 344.5q0 117 -30.5 225t-102.5 267l188 76q8 -33 19.5 -70t27.5 -83.5t23 -68.5q37 -118 82.5 -175t110.5 -76q79 233 205.5 404t271 256t291.5 85q188 0 308 -129t120 -362q0 -88 -19 -162q42 -58 93 -80.5
t118 -22.5zM1720 184q148 0 249.5 4t192.5 14.5t146 29.5t96 50.5t57.5 75t16.5 103.5q0 77 -18.5 133t-44.5 85.5t-65 47t-69.5 21.5t-68.5 4q-181 0 -334 -130t-291 -438h133zM487 -688q44 0 75.5 -31.5t31.5 -75.5t-31.5 -75t-75.5 -31q-43 0 -74.5 31t-31.5 75
t31.5 75.5t74.5 31.5zM805 -688q43 0 74.5 -31.5t31.5 -75.5t-31.5 -75t-74.5 -31q-44 0 -75.5 31t-31.5 75t31.5 75.5t75.5 31.5z" />
    <glyph glyph-name="uni069E.init" unicode="&#x69e;" horiz-adv-x="1914" 
d="M1313 1331q-42 0 -73.5 31.5t-31.5 73.5t31.5 73t73.5 31t73 -31t31 -73t-31.5 -73.5t-72.5 -31.5zM1141 1081q-44 0 -75.5 31t-31.5 74t31.5 73.5t75.5 30.5q42 0 73 -31t31 -73t-31.5 -73.5t-72.5 -31.5zM1380 1186q0 42 31.5 73t73.5 31q44 0 75 -30.5t31 -73.5
t-31 -74t-75 -31q-42 0 -73.5 31.5t-31.5 73.5zM1374 940q188 0 308 -129t120 -362q0 -74 -10.5 -132t-37 -104t-61.5 -79t-92.5 -57t-122 -38.5t-158 -23.5t-192 -12t-233.5 -3h-213q-130 0 -208.5 32t-129.5 118q-48 -87 -125 -118.5t-219 -31.5l-41 92l59 92q59 0 100 5
t66.5 20t40 27.5t21 43.5t7.5 51t1 66v17v397h172v-397q0 -58 5.5 -93t24 -65.5t54.5 -46t94 -21.5q117 352 330 552t440 200zM895 184q148 0 249.5 4t192.5 14.5t146 29.5t96 50.5t57.5 75t16.5 103.5q0 77 -18.5 133t-45 85.5t-65.5 47t-69.5 21.5t-68.5 4
q-181 0 -333.5 -130t-290.5 -438h133z" />
    <glyph glyph-name="uni069E.medi" unicode="&#x69e;" horiz-adv-x="1978" 
d="M1313 1331q-42 0 -73.5 31.5t-31.5 73.5t31.5 73t73.5 31t73 -31t31 -73t-31.5 -73.5t-72.5 -31.5zM1141 1081q-44 0 -75.5 31t-31.5 74t31.5 73.5t75.5 30.5q42 0 73 -31t31 -73t-31.5 -73.5t-72.5 -31.5zM1380 1186q0 42 31.5 73t73.5 31q44 0 75 -30.5t31 -73.5
t-31 -74t-75 -31q-42 0 -73.5 31.5t-31.5 73.5zM1995 184l24 -92l-41 -92q-81 0 -152.5 40.5t-117.5 106.5q-87 -88 -271.5 -117.5t-541.5 -29.5h-213q-130 0 -208.5 32t-129.5 118q-48 -87 -125 -118.5t-219 -31.5l-41 92l59 92q59 0 100 5t66.5 20t40 27.5t21 43.5t7.5 51
t1 66v17v397h172v-397q0 -58 5.5 -93t24 -65.5t54.5 -46t94 -21.5q117 352 330 552t440 200q188 0 308 -129t120 -362q0 -91 -18 -162q42 -58 93 -80.5t118 -22.5zM895 184q148 0 249.5 4t192.5 14.5t146 29.5t96 50.5t57.5 75t16.5 103.5q0 77 -18.5 133t-45 85.5t-65.5 47
t-69.5 21.5t-68.5 4q-181 0 -333.5 -130t-290.5 -438h133z" />
    <glyph glyph-name="uni069E.fina" unicode="&#x69e;" horiz-adv-x="2803" 
d="M2138 1331q-42 0 -73 31.5t-31 73.5t31 73t73 31t73.5 -31t31.5 -73t-31.5 -73.5t-73.5 -31.5zM1966 1081q-44 0 -75 31t-31 74t31 73.5t75 30.5q42 0 73.5 -31t31.5 -73t-31.5 -73.5t-73.5 -31.5zM2206 1186q0 42 31 73t73 31q44 0 75.5 -30.5t31.5 -73.5t-31.5 -74
t-75.5 -31q-42 0 -73 31.5t-31 73.5zM2820 184l25 -92l-41 -92q-81 0 -153 40.5t-118 106.5q-87 -88 -271.5 -117.5t-541.5 -29.5h-213q-143 0 -227 76q-6 -170 -49.5 -288t-127.5 -187.5t-197.5 -100t-270.5 -30.5q-278 0 -410.5 135t-132.5 375q0 205 96 401l129 -39
q-57 -154 -57 -336q0 -61 12 -112.5t41 -96.5t73 -76t111.5 -49t153.5 -18q253 0 358 101.5t105 344.5q0 117 -30.5 225t-102.5 267l188 76q8 -33 19.5 -70t27.5 -83.5t23 -68.5q37 -118 82.5 -175t110.5 -76q79 233 205.5 404t271 256t291.5 85q188 0 308 -129t120 -362
q0 -88 -19 -162q42 -58 93 -80.5t118 -22.5zM1720 184q148 0 249.5 4t192.5 14.5t146 29.5t96 50.5t57.5 75t16.5 103.5q0 77 -18.5 133t-44.5 85.5t-65 47t-69.5 21.5t-68.5 4q-181 0 -334 -130t-291 -438h133z" />
    <glyph glyph-name="uni069F.init" unicode="&#x69f;" horiz-adv-x="1570" 
d="M1030 940q188 0 308 -129t120 -362q0 -74 -10.5 -132t-37 -104t-61.5 -79t-92.5 -57t-122 -38.5t-158 -23.5t-192 -12t-233.5 -3h-555l2 6l-39 88l57 90h242l43 115v1249l172 23v-965q120 161 265.5 247.5t291.5 86.5zM969 1331q-42 0 -73.5 31.5t-31.5 73.5t31.5 73
t73.5 31t73 -31t31 -73t-31.5 -73.5t-72.5 -31.5zM797 1081q-44 0 -75.5 31t-31.5 74t31.5 73.5t75.5 30.5q42 0 73 -31t31 -73t-31.5 -73.5t-72.5 -31.5zM1036 1186q0 42 31.5 73t73.5 31q44 0 75 -30.5t31 -73.5t-31 -74t-75 -31q-42 0 -73.5 31.5t-31.5 73.5zM551 184
q148 0 249.5 4t192.5 14.5t146 29.5t96 50.5t57.5 75t16.5 103.5q0 77 -18.5 133t-45 85.5t-65.5 47t-69.5 21.5t-68.5 4q-181 0 -333.5 -130t-290.5 -438h133z" />
    <glyph glyph-name="uni069F.medi" unicode="&#x69f;" horiz-adv-x="1634" 
d="M1651 184l24 -92l-41 -92q-81 0 -152.5 40.5t-117.5 106.5q-87 -88 -271.5 -117.5t-541.5 -29.5h-555l2 6l-39 88l57 90h242l43 115v1249l172 23v-965q120 161 265.5 247.5t291.5 86.5q188 0 308 -129t120 -362q0 -91 -18 -162q42 -58 93 -80.5t118 -22.5zM969 1331
q-42 0 -73.5 31.5t-31.5 73.5t31.5 73t73.5 31t73 -31t31 -73t-31.5 -73.5t-72.5 -31.5zM797 1081q-44 0 -75.5 31t-31.5 74t31.5 73.5t75.5 30.5q42 0 73 -31t31 -73t-31.5 -73.5t-72.5 -31.5zM1036 1186q0 42 31.5 73t73.5 31q44 0 75 -30.5t31 -73.5t-31 -74t-75 -31
q-42 0 -73.5 31.5t-31.5 73.5zM551 184q148 0 249.5 4t192.5 14.5t146 29.5t96 50.5t57.5 75t16.5 103.5q0 77 -18.5 133t-45 85.5t-65.5 47t-69.5 21.5t-68.5 4q-181 0 -333.5 -130t-290.5 -438h133z" />
    <glyph glyph-name="uni069F.fina" unicode="&#x69f;" horiz-adv-x="1699" 
d="M1716 184l25 -92l-41 -92q-81 0 -152.5 40.5t-117.5 106.5q-87 -88 -272 -117.5t-542 -29.5h-555l37 184h226l43 115v1249l172 23v-965q120 161 265.5 247.5t291.5 86.5q188 0 308 -129t120 -362q0 -88 -19 -162q42 -58 93 -80.5t118 -22.5zM1034 1331q-42 0 -73 31.5
t-31 73.5t31 73t73 31t73.5 -31t31.5 -73t-31.5 -73.5t-73.5 -31.5zM862 1081q-44 0 -75 31t-31 74t31 73.5t75 30.5q42 0 73.5 -31t31.5 -73t-31.5 -73.5t-73.5 -31.5zM1102 1186q0 42 31 73t73 31q44 0 75.5 -30.5t31.5 -73.5t-31.5 -74t-75.5 -31q-42 0 -73 31.5
t-31 73.5zM616 184q148 0 249.5 4t192.5 14.5t146 29.5t96 50.5t57.5 75t16.5 103.5q0 77 -18.5 133t-44.5 85.5t-65 47t-69.5 21.5t-68.5 4q-181 0 -334 -130t-291 -438h133z" />
    <glyph glyph-name="uni06A0.init" unicode="&#x6a0;" horiz-adv-x="1173" 
d="M625 1341q-42 0 -73.5 31.5t-31.5 73.5t31.5 73t73.5 31t73 -31t31 -73t-31.5 -73.5t-72.5 -31.5zM453 1092q-44 0 -75.5 30.5t-31.5 73.5t31.5 73.5t75.5 30.5q42 0 73 -31t31 -73t-31 -73t-73 -31zM692 1196q0 42 31.5 73t73.5 31q44 0 75 -30.5t31 -73.5t-31 -73.5
t-75 -30.5q-42 0 -73.5 31t-31.5 73zM1120 295l23 -184q-280 -67 -471.5 -89t-407.5 -22h-264l-41 92l57 92h209h131q-100 78 -151 176.5t-51 194.5q0 75 30.5 144.5t87 126t148.5 90.5t205 34q180 0 321 -76l-80 -176q-117 64 -241 64q-149 0 -224 -64.5t-75 -160.5
q0 -195 262 -340q179 17 532 98z" />
    <glyph glyph-name="uni06A0.medi" unicode="&#x6a0;" horiz-adv-x="1226" 
d="M625 1341q-42 0 -73.5 31.5t-31.5 73.5t31.5 73t73.5 31t73 -31t31 -73t-31.5 -73.5t-72.5 -31.5zM453 1092q-44 0 -75.5 30.5t-31.5 73.5t31.5 73.5t75.5 30.5q42 0 73 -31t31 -73t-31 -73t-73 -31zM692 1196q0 42 31.5 73t73.5 31q44 0 75 -30.5t31 -73.5t-31 -73.5
t-75 -30.5q-42 0 -73.5 31t-31.5 73zM1243 184l25 -92l-41 -92h-86q-267 0 -467 164q-142 -76 -301 -120t-293 -44h-80l-41 92l57 92h31q245 0 498 105q-10 11 -57.5 63t-69 73.5t-67 65t-93.5 81.5t-106 79l22 185q212 86 451 86q235 0 339.5 -72.5t104.5 -214.5
q0 -197 -238 -373q69 -46 142 -62t209 -16h61zM338 698q67 -52 183 -166.5t177 -166.5q103 60 162.5 125.5t59.5 125.5q0 64 -71.5 94.5t-223.5 30.5q-115 0 -287 -43z" />
    <glyph glyph-name="uni06A0.fina" unicode="&#x6a0;" horiz-adv-x="1165" 
d="M616 1339q-42 0 -73 31.5t-31 73.5t31 73t73 31t73.5 -31t31.5 -73t-31.5 -73.5t-73.5 -31.5zM444 1090q-44 0 -75 30.5t-31 73.5t31 73.5t75 30.5q42 0 73.5 -31t31.5 -73t-31.5 -73t-73.5 -31zM684 1194q0 42 31 73t73 31q44 0 75.5 -30.5t31.5 -73.5t-31.5 -73.5
t-75.5 -30.5q-42 0 -73 31t-31 73zM709 -561q240 0 424 96l71 -162q-203 -123 -514 -123q-129 0 -233 26.5t-175 72t-119 110t-69.5 138.5t-21.5 159q0 383 381 563q-4 4 -28.5 30t-32 33.5t-31.5 32t-37 36.5t-37 35t-44 40t-46 39.5t-53.5 44t-57.5 43.5l25 185
q216 84 456 84q242 0 347.5 -72.5t105.5 -214.5q0 -115 -65.5 -200.5t-200.5 -158.5q76 -56 147.5 -74t214.5 -18h66l24 -90l-41 -94h-88q-141 0 -256 46t-237 149q-200 -93 -280.5 -185t-80.5 -225q0 -157 123.5 -251.5t362.5 -94.5zM274 698q68 -53 184 -164.5t156 -146.5
q134 58 196 109.5t62 121.5q0 64 -72.5 93.5t-232.5 29.5q-134 0 -293 -43z" />
    <glyph glyph-name="uni06A1.init" unicode="&#x6a1;" horiz-adv-x="968" 
d="M455 1163q175 0 288 -155.5t113 -432.5q0 -101 -16 -179.5t-47 -139.5t-83.5 -104.5t-118 -73t-157.5 -46.5t-195.5 -24.5t-238.5 -7.5l-41 94l57 90q257 0 401.5 27t205 78.5t75.5 142.5q-75 -63 -235 -63q-181 0 -291.5 106.5t-110.5 272.5q0 171 114.5 293t279.5 122z
M211 758q0 -108 80 -172t235 -64q96 0 181 29q-1 221 -68.5 326.5t-183.5 105.5q-107 0 -175.5 -64t-68.5 -161z" />
    <glyph glyph-name="uni06A1.medi" unicode="&#x6a1;" horiz-adv-x="1050" 
d="M1063 184l29 -92l-41 -92h-101q-210 0 -411 92q-202 -92 -453 -92h-86l-41 92l57 92h90q118 0 246 23q-198 160 -198 366q0 107 49.5 204.5t136 158.5t186.5 61q115 0 206 -61.5t138.5 -157.5t47.5 -205q0 -95 -51.5 -191t-145.5 -175q122 -23 229 -23h113zM305 573
q0 -103 63 -181t173 -128q225 105 225 309q0 98 -66 169t-163 71q-98 0 -165 -71t-67 -169z" />
    <glyph glyph-name="uni06A1.fina" unicode="&#x6a1;" horiz-adv-x="1974" 
d="M1987 184l28 -92l-41 -92h-100q-209 0 -410 92q-288 -121 -774 -121q-220 0 -352 46t-189 137t-57 239q0 171 76 326l129 -43q-43 -133 -43 -256q0 -146 99 -205t352 -59q339 0 571 51q-199 161 -199 366q0 107 50 204.5t136.5 158.5t186.5 61q115 0 206 -61.5
t138 -157.5t47 -205q0 -219 -184 -368q108 -21 217 -21h113zM1229 573q0 -102 61.5 -179.5t167.5 -127.5q232 107 232 307q0 98 -66.5 169t-163.5 71q-98 0 -164.5 -71t-66.5 -169z" />
    <glyph glyph-name="uni06A2.init" unicode="&#x6a2;" horiz-adv-x="968" 
d="M455 1163q175 0 288 -155.5t113 -432.5q0 -101 -16 -179.5t-47 -139.5t-83.5 -104.5t-118 -73t-157.5 -46.5t-195.5 -24.5t-238.5 -7.5l-41 94l57 90q257 0 401.5 27t205 78.5t75.5 142.5q-75 -63 -235 -63q-181 0 -291.5 106.5t-110.5 272.5q0 171 114.5 293t279.5 122z
M211 758q0 -108 80 -172t235 -64q96 0 181 29q-1 221 -68.5 326.5t-183.5 105.5q-107 0 -175.5 -64t-68.5 -161zM420 -201q47 0 79.5 -32.5t32.5 -79.5t-32.5 -80t-79.5 -33t-80 33t-33 80t33 79.5t80 32.5z" />
    <glyph glyph-name="uni06A2.medi" unicode="&#x6a2;" horiz-adv-x="1050" 
d="M1063 184l29 -92l-41 -92h-101q-210 0 -411 92q-202 -92 -453 -92h-86l-41 92l57 92h90q118 0 246 23q-198 160 -198 366q0 107 49.5 204.5t136 158.5t186.5 61q115 0 206 -61.5t138.5 -157.5t47.5 -205q0 -95 -51.5 -191t-145.5 -175q122 -23 229 -23h113zM305 573
q0 -103 63 -181t173 -128q225 105 225 309q0 98 -66 169t-163 71q-98 0 -165 -71t-67 -169zM537 -201q47 0 79.5 -32.5t32.5 -79.5t-32.5 -80t-79.5 -33t-80 33t-33 80t33 79.5t80 32.5z" />
    <glyph glyph-name="uni06A2.fina" unicode="&#x6a2;" horiz-adv-x="1974" 
d="M1987 184l28 -92l-41 -92h-100q-209 0 -410 92q-288 -121 -774 -121q-220 0 -352 46t-189 137t-57 239q0 171 76 326l129 -43q-43 -133 -43 -256q0 -146 99 -205t352 -59q339 0 571 51q-199 161 -199 366q0 107 50 204.5t136.5 158.5t186.5 61q115 0 206 -61.5
t138 -157.5t47 -205q0 -219 -184 -368q108 -21 217 -21h113zM1229 573q0 -102 61.5 -179.5t167.5 -127.5q232 107 232 307q0 98 -66.5 169t-163.5 71q-98 0 -164.5 -71t-66.5 -169zM1460 -201q47 0 80 -32.5t33 -79.5t-33 -80t-80 -33t-79.5 33t-32.5 80t32.5 79.5
t79.5 32.5z" />
    <glyph glyph-name="uni06A3.init" unicode="&#x6a3;" horiz-adv-x="968" 
d="M449 1298q-47 0 -80 33t-33 80t33 80t80 33t79.5 -33t32.5 -80t-32.5 -80t-79.5 -33zM455 1163q175 0 288 -155.5t113 -432.5q0 -101 -16 -179.5t-47 -139.5t-83.5 -104.5t-118 -73t-157.5 -46.5t-195.5 -24.5t-238.5 -7.5l-41 94l57 90q257 0 401.5 27t205 78.5
t75.5 142.5q-75 -63 -235 -63q-181 0 -291.5 106.5t-110.5 272.5q0 171 114.5 293t279.5 122zM211 758q0 -108 80 -172t235 -64q96 0 181 29q-1 221 -68.5 326.5t-183.5 105.5q-107 0 -175.5 -64t-68.5 -161zM418 -201q47 0 79.5 -32.5t32.5 -79.5t-32.5 -80t-79.5 -33
t-80 33t-33 80t33 79.5t80 32.5z" />
    <glyph glyph-name="uni06A3.medi" unicode="&#x6a3;" horiz-adv-x="1050" 
d="M522 1130q-47 0 -79.5 33t-32.5 80t32.5 80t79.5 33t80 -33t33 -80t-33 -80t-80 -33zM1063 184l29 -92l-41 -92h-101q-210 0 -411 92q-202 -92 -453 -92h-86l-41 92l57 92h90q118 0 246 23q-198 160 -198 366q0 107 49.5 204.5t136 158.5t186.5 61q115 0 206 -61.5
t138.5 -157.5t47.5 -205q0 -95 -51.5 -191t-145.5 -175q122 -23 229 -23h113zM305 573q0 -103 63 -181t173 -128q225 105 225 309q0 98 -66 169t-163 71q-98 0 -165 -71t-67 -169zM530 -201q47 0 80 -32.5t33 -79.5t-33 -80t-80 -33t-79.5 33t-32.5 80t32.5 79.5t79.5 32.5z
" />
    <glyph glyph-name="uni06A3.fina" unicode="&#x6a3;" horiz-adv-x="1974" 
d="M1446 1130q-47 0 -80 33t-33 80t33 80t80 33t80 -33t33 -80t-33 -80t-80 -33zM1987 184l28 -92l-41 -92h-100q-209 0 -410 92q-288 -121 -774 -121q-220 0 -352 46t-189 137t-57 239q0 171 76 326l129 -43q-43 -133 -43 -256q0 -146 99 -205t352 -59q339 0 571 51
q-199 161 -199 366q0 107 50 204.5t136.5 158.5t186.5 61q115 0 206 -61.5t138 -157.5t47 -205q0 -219 -184 -368q108 -21 217 -21h113zM1229 573q0 -102 61.5 -179.5t167.5 -127.5q232 107 232 307q0 98 -66.5 169t-163.5 71q-98 0 -164.5 -71t-66.5 -169zM1452 -201
q47 0 80 -32.5t33 -79.5t-33 -80t-80 -33t-80 33t-33 80t33 79.5t80 32.5z" />
    <glyph glyph-name="uni06A5.init" unicode="&#x6a5;" horiz-adv-x="968" 
d="M455 1163q175 0 288 -155.5t113 -432.5q0 -101 -16 -179.5t-47 -139.5t-83.5 -104.5t-118 -73t-157.5 -46.5t-195.5 -24.5t-238.5 -7.5l-41 94l57 90q257 0 401.5 27t205 78.5t75.5 142.5q-75 -63 -235 -63q-181 0 -291.5 106.5t-110.5 272.5q0 171 114.5 293t279.5 122z
M211 758q0 -108 80 -172t235 -64q96 0 181 29q-1 221 -68.5 326.5t-183.5 105.5q-107 0 -175.5 -64t-68.5 -161zM352 -295q0 -42 -31 -73t-73 -31q-44 0 -75.5 30.5t-31.5 73.5t31.5 74t75.5 31q42 0 73 -31t31 -74zM592 -190q44 0 75 -31t31 -74t-31 -73.5t-75 -30.5
q-42 0 -73.5 31t-31.5 73t31.5 73.5t73.5 31.5zM420 -440q42 0 73 -31t31 -74q0 -42 -31 -73t-73 -31t-73.5 31t-31.5 73t31.5 73.5t73.5 31.5z" />
    <glyph glyph-name="uni06A5.medi" unicode="&#x6a5;" horiz-adv-x="1050" 
d="M1063 184l29 -92l-41 -92h-101q-210 0 -411 92q-202 -92 -453 -92h-86l-41 92l57 92h90q118 0 246 23q-198 160 -198 366q0 107 49.5 204.5t136 158.5t186.5 61q115 0 206 -61.5t138.5 -157.5t47.5 -205q0 -95 -51.5 -191t-145.5 -175q122 -23 229 -23h113zM305 573
q0 -103 63 -181t173 -128q225 105 225 309q0 98 -66 169t-163 71q-98 0 -165 -71t-67 -169zM469 -295q0 -42 -31 -73t-73 -31q-44 0 -75.5 30.5t-31.5 73.5t31.5 74t75.5 31q41 0 72.5 -31t31.5 -74zM709 -190q44 0 75 -31t31 -74t-31 -73.5t-75 -30.5q-42 0 -73.5 31
t-31.5 73t31.5 73.5t73.5 31.5zM537 -440q41 0 72.5 -31t31.5 -74q0 -42 -31 -73t-73 -31t-73.5 31t-31.5 73t31.5 73.5t73.5 31.5z" />
    <glyph glyph-name="uni06A5.fina" unicode="&#x6a5;" horiz-adv-x="1974" 
d="M1987 184l28 -92l-41 -92h-100q-209 0 -410 92q-288 -121 -774 -121q-220 0 -352 46t-189 137t-57 239q0 171 76 326l129 -43q-43 -133 -43 -256q0 -146 99 -205t352 -59q339 0 571 51q-199 161 -199 366q0 107 50 204.5t136.5 158.5t186.5 61q115 0 206 -61.5
t138 -157.5t47 -205q0 -219 -184 -368q108 -21 217 -21h113zM1229 573q0 -102 61.5 -179.5t167.5 -127.5q232 107 232 307q0 98 -66.5 169t-163.5 71q-98 0 -164.5 -71t-66.5 -169zM1393 -295q0 -42 -31.5 -73t-73.5 -31q-44 0 -75 30.5t-31 73.5t31 74t75 31
q42 0 73.5 -31.5t31.5 -73.5zM1632 -190q44 0 75.5 -31t31.5 -74t-31.5 -73.5t-75.5 -30.5q-42 0 -73 31t-31 73q0 43 31 74t73 31zM1460 -440q42 0 73.5 -31.5t31.5 -73.5t-31.5 -73t-73.5 -31t-73 31t-31 73q0 43 31 74t73 31z" />
    <glyph glyph-name="uni06A7.init" unicode="&#x6a7;" horiz-adv-x="968" 
d="M449 1298q-47 0 -80 33t-33 80t33 80t80 33t79.5 -33t32.5 -80t-32.5 -80t-79.5 -33zM455 1163q175 0 288 -155.5t113 -432.5q0 -101 -16 -179.5t-47 -139.5t-83.5 -104.5t-118 -73t-157.5 -46.5t-195.5 -24.5t-238.5 -7.5l-41 94l57 90q257 0 401.5 27t205 78.5
t75.5 142.5q-75 -63 -235 -63q-181 0 -291.5 106.5t-110.5 272.5q0 171 114.5 293t279.5 122zM211 758q0 -108 80 -172t235 -64q96 0 181 29q-1 221 -68.5 326.5t-183.5 105.5q-107 0 -175.5 -64t-68.5 -161z" />
    <glyph glyph-name="uni06A7.medi" unicode="&#x6a7;" horiz-adv-x="1050" 
d="M522 1130q-47 0 -79.5 33t-32.5 80t32.5 80t79.5 33t80 -33t33 -80t-33 -80t-80 -33zM1063 184l29 -92l-41 -92h-101q-210 0 -411 92q-202 -92 -453 -92h-86l-41 92l57 92h90q118 0 246 23q-198 160 -198 366q0 107 49.5 204.5t136 158.5t186.5 61q115 0 206 -61.5
t138.5 -157.5t47.5 -205q0 -95 -51.5 -191t-145.5 -175q122 -23 229 -23h113zM305 573q0 -103 63 -181t173 -128q225 105 225 309q0 98 -66 169t-163 71q-98 0 -165 -71t-67 -169z" />
    <glyph glyph-name="uni06A7.fina" unicode="&#x6a7;" horiz-adv-x="1599" 
d="M1044 930q-47 0 -79.5 32.5t-32.5 79.5t32.5 80t79.5 33t80 -33t33 -80t-33 -79.5t-80 -32.5zM1640 94l-41 -94h-161q-17 -131 -61 -226.5t-122.5 -165t-200.5 -104t-290 -34.5q-353 0 -512.5 131t-159.5 379q0 205 96 401l129 -39q-57 -154 -57 -336q0 -83 26 -145
t84.5 -109.5t161.5 -72.5t248 -25q108 0 191.5 18.5t138.5 49t93 76t57.5 94t29.5 108.5h-129q-263 0 -383.5 101.5t-120.5 277.5q0 171 114.5 293.5t279.5 122.5q175 0 287 -155.5t112 -432.5v-23h166zM1122 184h181q-1 219 -69 324.5t-183 105.5q-107 0 -176.5 -64
t-69.5 -161q0 -104 78.5 -154.5t238.5 -50.5z" />
    <glyph glyph-name="uni06A8.init" unicode="&#x6a8;" horiz-adv-x="968" 
d="M455 1554q-42 0 -73.5 31.5t-31.5 73.5t31.5 73t73.5 31t73 -31t31 -73q0 -43 -31.5 -74t-72.5 -31zM283 1305q-44 0 -75.5 30.5t-31.5 73.5t31.5 73.5t75.5 30.5q42 0 73 -31t31 -73t-31 -73t-73 -31zM522 1409q0 42 31.5 73t73.5 31q44 0 75 -30.5t31 -73.5t-31 -73.5
t-75 -30.5q-42 0 -73.5 31t-31.5 73zM455 1163q175 0 288 -155.5t113 -432.5q0 -101 -16 -179.5t-47 -139.5t-83.5 -104.5t-118 -73t-157.5 -46.5t-195.5 -24.5t-238.5 -7.5l-41 94l57 90q257 0 401.5 27t205 78.5t75.5 142.5q-75 -63 -235 -63q-181 0 -291.5 106.5
t-110.5 272.5q0 171 114.5 293t279.5 122zM211 758q0 -108 80 -172t235 -64q96 0 181 29q-1 221 -68.5 326.5t-183.5 105.5q-107 0 -175.5 -64t-68.5 -161z" />
    <glyph glyph-name="uni06A8.medi" unicode="&#x6a8;" horiz-adv-x="1050" 
d="M528 1386q-42 0 -73 31t-31 74q0 42 31 73t73 31t73.5 -31t31.5 -73t-31.5 -73.5t-73.5 -31.5zM356 1137q-44 0 -75 30.5t-31 73.5t31 74t75 31q42 0 73.5 -31.5t31.5 -73.5t-31.5 -73t-73.5 -31zM596 1241q0 43 31 74t73 31q44 0 75.5 -31t31.5 -74t-31.5 -73.5
t-75.5 -30.5q-42 0 -73 31t-31 73zM1063 184l29 -92l-41 -92h-101q-210 0 -411 92q-202 -92 -453 -92h-86l-41 92l57 92h90q118 0 246 23q-198 160 -198 366q0 107 49.5 204.5t136 158.5t186.5 61q115 0 206 -61.5t138.5 -157.5t47.5 -205q0 -95 -51.5 -191t-145.5 -175
q122 -23 229 -23h113zM305 573q0 -103 63 -181t173 -128q225 105 225 309q0 98 -66 169t-163 71q-98 0 -165 -71t-67 -169z" />
    <glyph glyph-name="uni06A8.fina" unicode="&#x6a8;" horiz-adv-x="1599" 
d="M1051 1186q-42 0 -73.5 31t-31.5 73t31.5 73.5t73.5 31.5q41 0 72.5 -31.5t31.5 -73.5t-31 -73t-73 -31zM879 936q-44 0 -75.5 30.5t-31.5 73.5t31.5 74t75.5 31q41 0 72.5 -31.5t31.5 -73.5t-31 -73t-73 -31zM1118 1040q0 42 31.5 73.5t73.5 31.5q44 0 75 -31t31 -74
t-31 -73.5t-75 -30.5q-42 0 -73.5 31t-31.5 73zM1640 94l-41 -94h-161q-17 -131 -61 -226.5t-122.5 -165t-200.5 -104t-290 -34.5q-353 0 -512.5 131t-159.5 379q0 205 96 401l129 -39q-57 -154 -57 -336q0 -83 26 -145t84.5 -109.5t161.5 -72.5t248 -25q108 0 191.5 18.5
t138.5 49t93 76t57.5 94t29.5 108.5h-129q-263 0 -383.5 101.5t-120.5 277.5q0 171 114.5 293.5t279.5 122.5q175 0 287 -155.5t112 -432.5v-23h166zM1122 184h181q-1 219 -69 324.5t-183 105.5q-107 0 -176.5 -64t-69.5 -161q0 -104 78.5 -154.5t238.5 -50.5z" />
    <glyph glyph-name="uni06AA.init" unicode="&#x6aa;" horiz-adv-x="2457" 
d="M1745 762q299 0 449.5 -89t150.5 -278q0 -83 -58 -147t-155 -105q-340 -143 -1344 -143h-788l-41 90l57 94h740q262 0 477 8t361 20.5t256 30.5t173 37t101.5 41.5t50.5 41t12 38.5q0 41 -23 74t-73 60t-138 41.5t-208 13.5q-206 -1 -547 -25t-518 -24q-304 0 -471 34
l18 154q72 218 266 381t470 223l-41 -180q-183 -45 -333.5 -157.5t-226.5 -266.5q204 -16 338 -16q186 0 522 24.5t523 24.5z" />
    <glyph glyph-name="uni06AA.medi" unicode="&#x6aa;" horiz-adv-x="2625" 
d="M2642 184l24 -88l-40 -96q-173 0 -267.5 59.5t-99.5 153.5v8q-55 -49 -127 -78q-340 -143 -1344 -143h-788l-41 90l57 94h740q262 0 477 8t361 20.5t256 30.5t173 37t101.5 41.5t50.5 41t12 38.5q0 41 -23 74t-73 60t-138 41.5t-208 13.5q-206 -1 -547 -25t-518 -24
q-304 0 -471 34l18 154q72 218 266 381t470 223l-41 -180q-183 -45 -333.5 -157.5t-226.5 -266.5q204 -16 338 -16q186 0 522 24.5t523 24.5q297 0 448 -88t152 -275q0 -124 63.5 -169.5t233.5 -45.5z" />
    <glyph glyph-name="uni06AA.fina" unicode="&#x6aa;" horiz-adv-x="2758" 
d="M2775 184l25 -88l-41 -96q-173 0 -267.5 59.5t-99.5 153.5v8q-55 -49 -127 -78q-154 -65 -489 -104t-854 -39h-787l-53 184h807q1431 0 1431 217q0 41 -23 74t-73 60t-138 41.5t-208 13.5q-206 -1 -547 -25t-518 -24q-304 0 -471 34l18 154q74 219 267.5 381.5
t470.5 222.5l-41 -180q-185 -45 -335 -157.5t-224 -266.5q200 -16 336 -16q186 0 522 24.5t522 24.5q297 0 448 -88t152 -275q0 -124 63.5 -169.5t233.5 -45.5z" />
    <glyph glyph-name="uni06AB.init" unicode="&#x6ab;" horiz-adv-x="954" 
d="M862 1577l-10 -195l-168 -98q43 -22 69.5 -64t26.5 -92q0 -72 -48.5 -122t-127.5 -50q-76 0 -127 51t-51 121v2l-233 -137q166 -74 273.5 -141t165.5 -134.5t79.5 -131t21.5 -146.5q0 -215 -182 -327.5t-551 -112.5l-41 92l57 92q164 0 276 20t172 58.5t84.5 86
t24.5 112.5q0 49 -20.5 91t-79 95t-175.5 116.5t-298 139.5l39 174zM604 1053q38 0 60 22.5t22 52.5q0 33 -23 54.5t-59 21.5t-59 -21.5t-23 -54.5q0 -30 23 -52.5t59 -22.5z" />
    <glyph glyph-name="uni06AB.medi" unicode="&#x6ab;" horiz-adv-x="1124" 
d="M1141 184l24 -88l-41 -96q-185 0 -313.5 73.5t-263.5 272.5q-11 -156 -153 -251t-394 -95l-41 92l57 92q195 0 291 57.5t96 159.5q0 129 -139 304l-164 204l37 166l824 502l-11 -195l-180 -106q37 -24 59.5 -63.5t22.5 -84.5q0 -72 -48.5 -122t-127.5 -50q-73 0 -123 47
t-55 113l-236 -139l377 -475q61 -76 97.5 -120t78.5 -84.5t71 -59t70.5 -33t82.5 -18t102 -3.5zM676 1053q38 0 60 22.5t22 52.5q0 33 -23 54.5t-59 21.5t-59 -21.5t-23 -54.5q0 -30 23 -52.5t59 -22.5z" />
    <glyph glyph-name="uni06AB.fina" unicode="&#x6ab;" horiz-adv-x="2043" 
d="M2060 184l25 -88l-41 -96q-185 0 -314 73.5t-264 272.5q-4 -64 -30 -117.5t-84 -102t-144 -82t-218 -53.5t-300 -20q-220 0 -352 46t-189 137t-57 239q0 171 76 326l129 -43q-43 -133 -43 -256q0 -99 42.5 -155t140.5 -82.5t270 -26.5q147 0 258 13t178 35t108.5 54.5
t56.5 66.5t15 76q0 129 -139 304l-164 204l37 166l823 502l-10 -195l-184 -108q36 -24 56.5 -62.5t20.5 -83.5q0 -72 -48.5 -122t-127.5 -50q-72 0 -121 45t-57 111l-227 -135l377 -475q61 -77 97.5 -120.5t78 -84t70.5 -58.5t70.5 -33t82.5 -18.5t102 -3.5zM1587 1204
q-8 0 -24 -4l-39 -22q-19 -19 -19 -50q0 -30 22.5 -52.5t59.5 -22.5q38 0 60 22.5t22 52.5q0 33 -23 54.5t-59 21.5z" />
    <glyph glyph-name="uni06AC.init" unicode="&#x6ac;" horiz-adv-x="954" 
d="M115 1430q-47 0 -80 32.5t-33 79.5t33 80t80 33t79.5 -33t32.5 -80t-32.5 -79.5t-79.5 -32.5zM862 1577l-10 -195l-659 -389q166 -74 273.5 -141t165.5 -134.5t79.5 -131t21.5 -146.5q0 -215 -182 -327.5t-551 -112.5l-41 92l57 92q164 0 276 20t172 58.5t84.5 86
t24.5 112.5q0 49 -20.5 91t-79 95t-175.5 116.5t-298 139.5l39 174z" />
    <glyph glyph-name="uni06AC.medi" unicode="&#x6ac;" horiz-adv-x="1124" 
d="M197 1430q-47 0 -80 32.5t-33 79.5t33 80t80 33t79.5 -33t32.5 -80t-32.5 -79.5t-79.5 -32.5zM1141 184l24 -88l-41 -96q-185 0 -313.5 73.5t-263.5 272.5q-11 -156 -153 -251t-394 -95l-41 92l57 92q195 0 291 57.5t96 159.5q0 129 -139 304l-164 204l37 166l824 502
l-11 -195l-688 -405l377 -475q61 -76 97.5 -120t78.5 -84.5t71 -59t70.5 -33t82.5 -18t102 -3.5z" />
    <glyph glyph-name="uni06AC.fina" unicode="&#x6ac;" horiz-adv-x="1708" 
d="M1436 1712q-47 0 -80 33t-33 80t33 79.5t80 32.5t79.5 -32.5t32.5 -79.5t-32.5 -80t-79.5 -33zM1724 184l25 -88l-41 -96q-95 0 -160 37t-121 117q-143 -93 -315 -138t-422 -45q-220 0 -352 46t-189 137t-57 239q0 171 76 326l129 -43q-43 -133 -43 -256q0 -99 42.5 -155
t140.5 -82.5t270 -26.5q378 0 649 159v1239l172 23v-1174q0 -58 7.5 -95.5t28 -67t60 -43t100.5 -13.5zM594 668q291 0 291 67q0 31 -45 52.5t-185 50.5l23 123l340 200l-8 -131l-209 -119q111 -32 157 -72.5t46 -103.5q0 -182 -392 -182z" />
    <glyph glyph-name="uni06AE.init" unicode="&#x6ae;" horiz-adv-x="954" 
d="M862 1577l-10 -195l-659 -389q166 -74 273.5 -141t165.5 -134.5t79.5 -131t21.5 -146.5q0 -215 -182 -327.5t-551 -112.5l-41 92l57 92q164 0 276 20t172 58.5t84.5 86t24.5 112.5q0 49 -20.5 91t-79 95t-175.5 116.5t-298 139.5l39 174zM162 -295q0 -42 -31.5 -73
t-73.5 -31q-44 0 -75 30.5t-31 73.5t31 74t75 31q42 0 73.5 -31.5t31.5 -73.5zM401 -190q44 0 75.5 -31t31.5 -74t-31.5 -73.5t-75.5 -30.5q-42 0 -73 31t-31 73q0 43 31.5 74t72.5 31zM229 -440q42 0 73.5 -31.5t31.5 -73.5t-31.5 -73t-73.5 -31t-73 31t-31 73
q0 43 31.5 74t72.5 31z" />
    <glyph glyph-name="uni06AE.medi" unicode="&#x6ae;" horiz-adv-x="1124" 
d="M1141 184l24 -88l-41 -96q-185 0 -313.5 73.5t-263.5 272.5q-11 -156 -153 -251t-394 -95l-41 92l57 92q195 0 291 57.5t96 159.5q0 129 -139 304l-164 204l37 166l824 502l-11 -195l-688 -405l377 -475q61 -76 97.5 -120t78.5 -84.5t71 -59t70.5 -33t82.5 -18t102 -3.5z
M520 -295q0 -42 -31 -73t-73 -31q-44 0 -75.5 30.5t-31.5 73.5t31.5 74t75.5 31q42 0 73 -31t31 -74zM760 -190q44 0 75 -31t31 -74t-31 -73.5t-75 -30.5q-42 0 -73.5 31t-31.5 73t31.5 73.5t73.5 31.5zM588 -440q42 0 73 -31t31 -74q0 -42 -31 -73t-73 -31t-73.5 31
t-31.5 73t31.5 73.5t73.5 31.5z" />
    <glyph glyph-name="uni06AE.fina" unicode="&#x6ae;" horiz-adv-x="1708" 
d="M1724 184l25 -88l-41 -96q-95 0 -160 37t-121 117q-143 -93 -315 -138t-422 -45q-220 0 -352 46t-189 137t-57 239q0 171 76 326l129 -43q-43 -133 -43 -256q0 -99 42.5 -155t140.5 -82.5t270 -26.5q378 0 649 159v1239l172 23v-1174q0 -58 7.5 -95.5t28 -67t60 -43
t100.5 -13.5zM594 668q291 0 291 67q0 31 -45 52.5t-185 50.5l23 123l340 200l-8 -131l-209 -119q111 -32 157 -72.5t46 -103.5q0 -182 -392 -182zM705 -295q0 -42 -31.5 -73t-73.5 -31q-44 0 -75 30.5t-31 73.5t31 74t75 31q42 0 73.5 -31.5t31.5 -73.5zM944 -190
q44 0 75.5 -31t31.5 -74t-31.5 -73.5t-75.5 -30.5q-42 0 -73 31t-31 73q0 43 31 74t73 31zM772 -440q42 0 73.5 -31.5t31.5 -73.5t-31.5 -73t-73.5 -31t-73 31t-31 73q0 43 31 74t73 31z" />
    <glyph glyph-name="uni06B0.init" unicode="&#x6b0;" horiz-adv-x="954" 
d="M856 1808l-8 -137l-805 -485l35 147zM862 1577l-10 -195l-154 -90q42 -24 67.5 -64.5t25.5 -88.5q0 -72 -49 -122t-128 -50q-76 0 -127 50.5t-51 119.5l-243 -144q166 -74 273.5 -141t165.5 -134.5t79.5 -131t21.5 -146.5q0 -215 -182 -327.5t-551 -112.5l-41 92l57 92
q164 0 276 20t172 58.5t84.5 86t24.5 112.5q0 49 -20.5 91t-79 95t-175.5 116.5t-298 139.5l39 174zM614 1063q38 0 60 23t22 53q0 33 -23 54t-59 21t-59 -21t-23 -54q0 -30 23 -53t59 -23z" />
    <glyph glyph-name="uni06B0.medi" unicode="&#x6b0;" horiz-adv-x="1124" 
d="M938 1808l-8 -137l-805 -485l35 147zM1141 184l24 -88l-41 -96q-185 0 -313.5 73.5t-263.5 272.5q-11 -156 -153 -251t-394 -95l-41 92l57 92q195 0 291 57.5t96 159.5q0 129 -139 304l-164 204l37 166l824 502l-11 -195l-162 -94q39 -24 61.5 -63t22.5 -86
q0 -72 -48.5 -122t-127.5 -50q-74 0 -123.5 47t-54.5 114l-256 -151l377 -475q61 -76 97.5 -120t78.5 -84.5t71 -59t70.5 -33t82.5 -18t102 -3.5zM696 1063q38 0 60 23t22 53q0 33 -23 54t-59 21t-59 -21t-23 -54q0 -30 23 -53t59 -23z" />
    <glyph glyph-name="uni06B0.fina" unicode="&#x6b0;" horiz-adv-x="2043" 
d="M1880 1808l-8 -137l-805 -485l35 147zM2060 184l25 -88l-41 -96q-185 0 -314 73.5t-264 272.5q-4 -64 -30 -117.5t-84 -102t-144 -82t-218 -53.5t-300 -20q-220 0 -352 46t-189 137t-57 239q0 171 76 326l129 -43q-43 -133 -43 -256q0 -99 42.5 -155t140.5 -82.5
t270 -26.5q147 0 258 13t178 35t108.5 54.5t56.5 66.5t15 76q0 129 -139 304l-164 204l37 166l823 502l-10 -195l-160 -94q39 -24 61.5 -63t22.5 -86q0 -72 -48.5 -122t-127.5 -50q-74 0 -123.5 47t-54.5 114l-258 -151l377 -475q61 -77 97.5 -120.5t78 -84t70.5 -58.5
t70.5 -33t82.5 -18.5t102 -3.5zM1618 1063q38 0 60 23t22 53q0 33 -23 54t-59 21t-59 -21t-23 -54q0 -30 23 -53t59 -23z" />
    <glyph glyph-name="uni06B2.init" unicode="&#x6b2;" horiz-adv-x="954" 
d="M856 1808l-8 -137l-805 -485l35 147zM862 1577l-10 -195l-659 -389q166 -74 273.5 -141t165.5 -134.5t79.5 -131t21.5 -146.5q0 -215 -182 -327.5t-551 -112.5l-41 92l57 92q164 0 276 20t172 58.5t84.5 86t24.5 112.5q0 49 -20.5 91t-79 95t-175.5 116.5t-298 139.5
l39 174zM70 -186q44 0 75 -31.5t31 -75.5t-31 -75t-75 -31q-43 0 -75 31t-32 75t32 75.5t75 31.5zM387 -186q43 0 75 -31.5t32 -75.5t-32 -75t-75 -31q-44 0 -75 31t-31 75t31 75.5t75 31.5z" />
    <glyph glyph-name="uni06B2.medi" unicode="&#x6b2;" horiz-adv-x="1124" 
d="M938 1808l-8 -137l-805 -485l35 147zM1141 184l24 -88l-41 -96q-185 0 -313.5 73.5t-263.5 272.5q-11 -156 -153 -251t-394 -95l-41 92l57 92q195 0 291 57.5t96 159.5q0 129 -139 304l-164 204l37 166l824 502l-11 -195l-688 -405l377 -475q61 -76 97.5 -120t78.5 -84.5
t71 -59t70.5 -33t82.5 -18t102 -3.5zM428 -186q44 0 75.5 -31.5t31.5 -75.5t-31.5 -75t-75.5 -31q-43 0 -74.5 31t-31.5 75t31.5 75.5t74.5 31.5zM745 -186q43 0 75 -31.5t32 -75.5t-32 -75t-75 -31q-44 0 -75 31t-31 75t31 75.5t75 31.5z" />
    <glyph glyph-name="uni06B2.fina" unicode="&#x6b2;" horiz-adv-x="2043" 
d="M1880 1808l-8 -137l-805 -485l35 147zM2060 184l25 -88l-41 -96q-185 0 -314 73.5t-264 272.5q-4 -64 -30 -117.5t-84 -102t-144 -82t-218 -53.5t-300 -20q-220 0 -352 46t-189 137t-57 239q0 171 76 326l129 -43q-43 -133 -43 -256q0 -99 42.5 -155t140.5 -82.5
t270 -26.5q147 0 258 13t178 35t108.5 54.5t56.5 66.5t15 76q0 129 -139 304l-164 204l37 166l823 502l-10 -195l-688 -405l377 -475q61 -77 97.5 -120.5t78 -84t70.5 -58.5t70.5 -33t82.5 -18.5t102 -3.5zM616 -186q44 0 75.5 -31.5t31.5 -75.5t-31.5 -75t-75.5 -31
q-43 0 -74.5 31t-31.5 75t31.5 75.5t74.5 31.5zM934 -186q43 0 74.5 -31.5t31.5 -75.5t-31.5 -75t-74.5 -31q-44 0 -75.5 31t-31.5 75t31.5 75.5t75.5 31.5z" />
    <glyph glyph-name="uni06B4.init" unicode="&#x6b4;" horiz-adv-x="954" 
d="M98 1831q-42 0 -73 31t-31 73q0 43 31 74t73 31t73.5 -31.5t31.5 -73.5t-31.5 -73t-73.5 -31zM43 1186l35 147l778 475l-8 -137zM31 1686q0 -42 -31.5 -73.5t-73.5 -31.5q-44 0 -75 31t-31 74t31 73.5t75 30.5q42 0 73.5 -31t31.5 -73zM166 1686q0 42 31 73t73 31
q44 0 75.5 -30.5t31.5 -73.5t-31.5 -74t-75.5 -31q-42 0 -73 31.5t-31 73.5zM862 1577l-10 -195l-659 -389q166 -74 273.5 -141t165.5 -134.5t79.5 -131t21.5 -146.5q0 -215 -182 -327.5t-551 -112.5l-41 92l57 92q164 0 276 20t172 58.5t84.5 86t24.5 112.5q0 49 -20.5 91
t-79 95t-175.5 116.5t-298 139.5l39 174z" />
    <glyph glyph-name="uni06B4.medi" unicode="&#x6b4;" horiz-adv-x="1124" 
d="M186 1831q-42 0 -73 31t-31 73q0 43 31 74t73 31t73.5 -31.5t31.5 -73.5t-31.5 -73t-73.5 -31zM125 1186l35 147l778 475l-8 -137zM119 1686q0 -42 -31.5 -73.5t-73.5 -31.5q-44 0 -75 31t-31 74t31 73.5t75 30.5q42 0 73.5 -31t31.5 -73zM254 1686q0 42 31 73t73 31
q44 0 75.5 -30.5t31.5 -73.5t-31.5 -74t-75.5 -31q-42 0 -73 31.5t-31 73.5zM1141 184l24 -88l-41 -96q-185 0 -313.5 73.5t-263.5 272.5q-11 -156 -153 -251t-394 -95l-41 92l57 92q195 0 291 57.5t96 159.5q0 129 -139 304l-164 204l37 166l824 502l-11 -195l-688 -405
l377 -475q61 -76 97.5 -120t78.5 -84.5t71 -59t70.5 -33t82.5 -18t102 -3.5z" />
    <glyph glyph-name="uni06B4.fina" unicode="&#x6b4;" horiz-adv-x="2043" 
d="M1120 1831q-42 0 -73 31t-31 73q0 43 31 74t73 31t73.5 -31.5t31.5 -73.5t-31.5 -73t-73.5 -31zM1067 1186l35 147l778 475l-8 -137zM948 1581q-44 0 -75 31t-31 74t31 73.5t75 30.5q42 0 73.5 -31t31.5 -73t-31.5 -73.5t-73.5 -31.5zM1188 1686q0 42 31 73t73 31
q44 0 75.5 -30.5t31.5 -73.5t-31.5 -74t-75.5 -31q-42 0 -73 31.5t-31 73.5zM2060 184l25 -88l-41 -96q-185 0 -314 73.5t-264 272.5q-4 -64 -30 -117.5t-84 -102t-144 -82t-218 -53.5t-300 -20q-220 0 -352 46t-189 137t-57 239q0 171 76 326l129 -43q-43 -133 -43 -256
q0 -99 42.5 -155t140.5 -82.5t270 -26.5q147 0 258 13t178 35t108.5 54.5t56.5 66.5t15 76q0 129 -139 304l-164 204l37 166l823 502l-10 -195l-688 -405l377 -475q61 -77 97.5 -120.5t78 -84t70.5 -58.5t70.5 -33t82.5 -18.5t102 -3.5z" />
    <glyph glyph-name="uni06B5.init" unicode="&#x6b5;" horiz-adv-x="495" 
d="M152 1997l114 -195l115 195l92 -37l-160 -291h-98l-156 291zM0 0l-41 92l57 92q90 0 127 53.5t37 182.5v1128l172 21v-1157q0 -100 -17 -174t-46.5 -119t-75.5 -72t-96.5 -37t-116.5 -10z" />
    <glyph glyph-name="uni06B5.medi" unicode="&#x6b5;" horiz-adv-x="516" 
d="M305 1659h-98l-156 291l92 37l115 -195l115 195l92 -37zM532 184l25 -92l-41 -92q-174 0 -256 119q-43 -70 -106.5 -94.5t-153.5 -24.5l-41 92l57 92q46 0 76 9.5t46 22t24 41.5t9 49.5t1 64.5v1177l172 23v-1200q0 -97 43.5 -142t144.5 -45z" />
    <glyph glyph-name="uni06B5.fina" unicode="&#x6b5;" horiz-adv-x="1445" 
d="M1229 1659h-99l-155 291l92 37l115 -195l114 195l93 -37zM1487 96l-41 -96q-117 0 -184 61q-12 -119 -51 -208t-95 -144.5t-135 -90t-161.5 -47.5t-184.5 -13q-278 0 -410.5 135t-132.5 375q0 205 96 401l129 -39q-57 -154 -57 -336q0 -61 12 -112.5t41 -96.5t73 -76
t111.5 -49t153.5 -18q244 0 344.5 98t100.5 324v1384l172 21v-1170q0 -126 44 -170.5t150 -44.5z" />
    <glyph glyph-name="uni06B6.init" unicode="&#x6b6;" horiz-adv-x="495" 
d="M260 1722q-47 0 -80 33t-33 80t33 80t80 33t80 -33t33 -80t-33 -80t-80 -33zM0 0l-41 92l57 92q90 0 127 53.5t37 182.5v1128l172 21v-1157q0 -100 -17 -174t-46.5 -119t-75.5 -72t-96.5 -37t-116.5 -10z" />
    <glyph glyph-name="uni06B6.medi" unicode="&#x6b6;" horiz-adv-x="516" 
d="M252 1712q-47 0 -80 33t-33 80t33 79.5t80 32.5t80 -32.5t33 -79.5t-33 -80t-80 -33zM532 184l25 -92l-41 -92q-174 0 -256 119q-43 -70 -106.5 -94.5t-153.5 -24.5l-41 92l57 92q46 0 76 9.5t46 22t24 41.5t9 49.5t1 64.5v1177l172 23v-1200q0 -97 43.5 -142t144.5 -45z
" />
    <glyph glyph-name="uni06B6.fina" unicode="&#x6b6;" horiz-adv-x="1445" 
d="M1176 1712q-47 0 -80 33t-33 80t33 79.5t80 32.5t79.5 -32.5t32.5 -79.5t-32.5 -80t-79.5 -33zM1487 96l-41 -96q-117 0 -184 61q-12 -119 -51 -208t-95 -144.5t-135 -90t-161.5 -47.5t-184.5 -13q-278 0 -410.5 135t-132.5 375q0 205 96 401l129 -39q-57 -154 -57 -336
q0 -61 12 -112.5t41 -96.5t73 -76t111.5 -49t153.5 -18q244 0 344.5 98t100.5 324v1384l172 21v-1170q0 -126 44 -170.5t150 -44.5z" />
    <glyph glyph-name="uni06B7.init" unicode="&#x6b7;" horiz-adv-x="495" 
d="M266 1978q-42 0 -73 31t-31 74q0 42 31 73t73 31t73.5 -31t31.5 -73t-31.5 -73.5t-73.5 -31.5zM94 1729q-44 0 -75 30.5t-31 73.5t31 73.5t75 30.5q42 0 73.5 -31t31.5 -73t-31.5 -73t-73.5 -31zM438 1729q-42 0 -73 31t-31 73t31 73t73 31q44 0 75.5 -30.5t31.5 -73.5
t-31.5 -73.5t-75.5 -30.5zM0 0l-41 92l57 92q90 0 127 53.5t37 182.5v1128l172 21v-1157q0 -100 -17 -174t-46.5 -119t-75.5 -72t-96.5 -37t-116.5 -10z" />
    <glyph glyph-name="uni06B7.medi" unicode="&#x6b7;" horiz-adv-x="516" 
d="M258 1968q-42 0 -73 31t-31 74q0 42 31 73t73 31t73 -31t31 -73q0 -43 -31 -74t-73 -31zM86 1718q-44 0 -75 31t-31 74t31 73.5t75 30.5q42 0 73 -31t31 -73q0 -43 -31 -74t-73 -31zM326 1823q0 42 31 73t73 31q44 0 75.5 -30.5t31.5 -73.5t-31.5 -74t-75.5 -31
q-42 0 -73 31t-31 74zM532 184l25 -92l-41 -92q-174 0 -256 119q-43 -70 -106.5 -94.5t-153.5 -24.5l-41 92l57 92q46 0 76 9.5t46 22t24 41.5t9 49.5t1 64.5v1177l172 23v-1200q0 -97 43.5 -142t144.5 -45z" />
    <glyph glyph-name="uni06B7.fina" unicode="&#x6b7;" horiz-adv-x="1445" 
d="M1182 1968q-42 0 -73.5 31.5t-31.5 73.5t31.5 73t73.5 31t73 -31t31 -73q0 -43 -31 -74t-73 -31zM1010 1718q-44 0 -75.5 31t-31.5 74t31.5 73.5t75.5 30.5q42 0 73 -31t31 -73q0 -43 -31 -74t-73 -31zM1249 1823q0 42 31.5 73t73.5 31q44 0 75 -30.5t31 -73.5t-31 -74
t-75 -31q-42 0 -73.5 31.5t-31.5 73.5zM1487 96l-41 -96q-117 0 -184 61q-12 -119 -51 -208t-95 -144.5t-135 -90t-161.5 -47.5t-184.5 -13q-278 0 -410.5 135t-132.5 375q0 205 96 401l129 -39q-57 -154 -57 -336q0 -61 12 -112.5t41 -96.5t73 -76t111.5 -49t153.5 -18
q244 0 344.5 98t100.5 324v1384l172 21v-1170q0 -126 44 -170.5t150 -44.5z" />
    <glyph glyph-name="uni06B8.init" unicode="&#x6b8;" horiz-adv-x="495" 
d="M0 0l-41 92l57 92q90 0 127 53.5t37 182.5v1128l172 21v-1157q0 -100 -17 -174t-46.5 -119t-75.5 -72t-96.5 -37t-116.5 -10zM88 -190q42 0 73.5 -31.5t31.5 -73.5t-31.5 -73t-73.5 -31q-44 0 -75 30.5t-31 73.5t31 74t75 31zM432 -190q44 0 75.5 -31t31.5 -74
t-31.5 -73.5t-75.5 -30.5q-42 0 -73 31t-31 73q0 43 31 74t73 31zM260 -440q42 0 73.5 -31.5t31.5 -73.5t-31.5 -73t-73.5 -31t-73 31t-31 73q0 43 31 74t73 31z" />
    <glyph glyph-name="uni06B8.medi" unicode="&#x6b8;" horiz-adv-x="516" 
d="M260 119q-43 -70 -106.5 -94.5t-153.5 -24.5l-41 92l57 92q46 0 76 9.5t46 22t24 41.5t9 49.5t1 64.5v1177l172 23v-1200q0 -97 43.5 -142t144.5 -45l25 -92l-41 -92q-174 0 -256 119zM190 -295q0 -42 -31 -73t-73 -31q-44 0 -75 30.5t-31 73.5t31 74t75 31q42 0 73 -31
t31 -74zM430 -190q44 0 75.5 -31t31.5 -74t-31.5 -73.5t-75.5 -30.5q-42 0 -73 31t-31 73q0 43 31 74t73 31zM258 -440q42 0 73 -31t31 -74q0 -42 -31 -73t-73 -31t-73 31t-31 73q0 43 31 74t73 31z" />
    <glyph glyph-name="uni06B8.fina" unicode="&#x6b8;" horiz-adv-x="1445" 
d="M1487 96l-41 -96q-117 0 -184 61q-12 -119 -51 -208t-95 -144.5t-135 -90t-161.5 -47.5t-184.5 -13q-278 0 -410.5 135t-132.5 375q0 205 96 401l129 -39q-57 -154 -57 -336q0 -61 12 -112.5t41 -96.5t73 -76t111.5 -49t153.5 -18q244 0 344.5 98t100.5 324v1384l172 21
v-1170q0 -126 44 -170.5t150 -44.5zM567 -737q0 -43 -31.5 -74t-72.5 -31q-44 0 -75.5 31t-31.5 74t31.5 73.5t75.5 30.5q42 0 73 -31t31 -73zM807 -633q44 0 75 -30.5t31 -73.5t-31 -74t-75 -31q-42 0 -73.5 31.5t-31.5 73.5t31.5 73t73.5 31zM635 -883q42 0 73 -31t31 -73
q0 -43 -31.5 -74t-72.5 -31q-42 0 -73.5 31.5t-31.5 73.5t31.5 73t73.5 31z" />
    <glyph glyph-name="uni06B9.init" unicode="&#x6b9;" horiz-adv-x="598" 
d="M254 987q-47 0 -80 33t-33 80t33 79.5t80 32.5t80 -32.5t33 -79.5t-33 -80t-80 -33zM16 184q128 0 192 19t86.5 59.5t22.5 120.5q0 139 -94 410l176 57q41 -123 63.5 -253.5t22.5 -223.5q0 -111 -22.5 -180.5t-80 -114t-148 -61.5t-234.5 -17l-41 92zM289 -426
q-47 0 -80 33t-33 80t33 79.5t80 32.5t79.5 -32.5t32.5 -79.5t-32.5 -80t-79.5 -33z" />
    <glyph glyph-name="uni06B9.medi" unicode="&#x6b9;" horiz-adv-x="708" 
d="M348 856q-47 0 -79.5 33t-32.5 80t32.5 79.5t79.5 32.5t80 -32.5t33 -79.5t-33 -80t-80 -33zM725 184l25 -92l-41 -92q-139 0 -219 32.5t-132 121.5q-48 -89 -128 -121.5t-230 -32.5l-41 92l59 92q92 0 144.5 11.5t75 46t26.5 64t4 97.5v17v272h172v-272q0 -70 8 -109
t37 -71t86 -44t154 -12zM354 -201q47 0 80 -32.5t33 -79.5t-33 -80t-80 -33t-79.5 33t-32.5 80t32.5 79.5t79.5 32.5z" />
    <glyph glyph-name="uni06B9.fina" unicode="&#x6b9;" horiz-adv-x="1507" 
d="M639 676q-47 0 -80 32.5t-33 79.5t33 80t80 33t80 -33t33 -80t-33 -79.5t-80 -32.5zM1548 92l-41 -92q-143 0 -227 76q-6 -170 -49.5 -288t-127.5 -187.5t-197.5 -100t-270.5 -30.5q-278 0 -410.5 135t-132.5 375q0 205 96 401l129 -39q-57 -154 -57 -336
q0 -61 12 -112.5t41 -96.5t73 -76t111.5 -49t153.5 -18q253 0 358 101.5t105 344.5q0 117 -30.5 225t-102.5 267l188 76q8 -33 19.5 -70t27.5 -83.5t23 -68.5q49 -154 113 -208t172 -54zM647 -702q47 0 80 -33t33 -80t-33 -80t-80 -33t-79.5 33t-32.5 80t32.5 80t79.5 33z
" />
    <glyph glyph-name="uni06BC.init" unicode="&#x6bc;" horiz-adv-x="598" 
d="M254 987q-47 0 -80 33t-33 80t33 79.5t80 32.5t80 -32.5t33 -79.5t-33 -80t-80 -33zM379 74q53 -50 53 -125q0 -72 -48.5 -122t-127.5 -50q-76 0 -127 50.5t-51 121.5q0 32 8 53q-27 -2 -86 -2l-41 92l57 92q128 0 192 19t86.5 59.5t22.5 120.5q0 139 -94 410l176 57
q41 -123 63.5 -253.5t22.5 -223.5q0 -113 -24.5 -185t-81.5 -114zM256 -127q38 0 60 23t22 53q0 32 -20.5 52.5t-53.5 23.5q-37 -9 -53 -11q-37 -23 -37 -65q0 -30 23 -53t59 -23z" />
    <glyph glyph-name="uni06BC.medi" unicode="&#x6bc;" horiz-adv-x="708" 
d="M348 856q-47 0 -79.5 33t-32.5 80t32.5 79.5t79.5 32.5t80 -32.5t33 -79.5t-33 -80t-80 -33zM725 184l25 -92l-41 -92q-139 0 -219 32.5t-132 121.5q-13 -26 -34 -54q37 -24 59.5 -63t22.5 -84q0 -72 -49 -122t-128 -50q-77 0 -127.5 50.5t-50.5 121.5q0 25 6 49
q-18 -2 -57 -2l-41 92l59 92q92 0 144.5 11.5t75 46t26.5 64t4 97.5v17v272h172v-272q0 -70 8 -109t37 -71t86 -44t154 -12zM229 -123q38 0 60 23t22 53q0 33 -23 54.5t-59 21.5h-8q-4 -1 -11.5 -4t-14.5 -5t-13 -4q-35 -21 -35 -63q0 -30 23 -53t59 -23z" />
    <glyph glyph-name="uni06BC.fina" unicode="&#x6bc;" horiz-adv-x="1507" 
d="M639 676q-47 0 -80 32.5t-33 79.5t33 80t80 33t80 -33t33 -80t-33 -79.5t-80 -32.5zM1548 92l-41 -92q-143 0 -227 76q-10 -291 -133.5 -431t-366.5 -167q11 -33 11 -58q0 -72 -49 -122t-128 -50q-76 0 -127 51t-51 121q0 38 15 68q-183 41 -271 169t-88 323
q0 205 96 401l129 -39q-57 -154 -57 -336q0 -61 12 -112.5t41 -96.5t73 -76t111.5 -49t153.5 -18q253 0 358 101.5t105 344.5q0 117 -30.5 225t-102.5 267l188 76q8 -33 19.5 -70t27.5 -83.5t23 -68.5q49 -154 113 -208t172 -54zM696 -580q0 32 -18 50h-43q-28 0 -82 4
q-21 -25 -21 -54q0 -30 23 -52.5t59 -22.5q38 0 60 22.5t22 52.5z" />
    <glyph glyph-name="uni06BD.init" unicode="&#x6bd;" horiz-adv-x="598" 
d="M260 1243q-42 0 -73 31.5t-31 73.5t31 73t73 31t73.5 -31t31.5 -73t-31.5 -73.5t-73.5 -31.5zM88 993q-44 0 -75 31t-31 74t31 73.5t75 30.5q42 0 73.5 -31t31.5 -73t-31.5 -73.5t-73.5 -31.5zM432 993q-42 0 -73 31.5t-31 73.5t31 73t73 31q44 0 75.5 -30.5t31.5 -73.5
t-31.5 -74t-75.5 -31zM16 184q128 0 192 19t86.5 59.5t22.5 120.5q0 139 -94 410l176 57q41 -123 63.5 -253.5t22.5 -223.5q0 -111 -22.5 -180.5t-80 -114t-148 -61.5t-234.5 -17l-41 92z" />
    <glyph glyph-name="uni06BD.medi" unicode="&#x6bd;" horiz-adv-x="708" 
d="M354 1112q-42 0 -73 31t-31 74q0 42 31 73t73 31t73.5 -31t31.5 -73t-31.5 -73.5t-73.5 -31.5zM182 862q-44 0 -75 31t-31 74t31 73.5t75 30.5q42 0 73.5 -31t31.5 -73t-31.5 -73.5t-73.5 -31.5zM422 967q0 42 31 73t73 31q44 0 75.5 -30.5t31.5 -73.5t-31.5 -74
t-75.5 -31q-42 0 -73 31t-31 74zM725 184l25 -92l-41 -92q-139 0 -219 32.5t-132 121.5q-48 -89 -128 -121.5t-230 -32.5l-41 92l59 92q92 0 144.5 11.5t75 46t26.5 64t4 97.5v17v272h172v-272q0 -70 8 -109t37 -71t86 -44t154 -12z" />
    <glyph glyph-name="uni06BD.fina" unicode="&#x6bd;" horiz-adv-x="1507" 
d="M645 932q-42 0 -73 31t-31 73t31.5 73.5t72.5 31.5q42 0 73.5 -31.5t31.5 -73.5t-31.5 -73t-73.5 -31zM473 682q-44 0 -75 30.5t-31 73.5t31 74t75 31q42 0 73.5 -31.5t31.5 -73.5t-31.5 -73t-73.5 -31zM713 786q0 42 31.5 73.5t72.5 31.5q44 0 75.5 -31t31.5 -74
t-31.5 -73.5t-75.5 -30.5q-42 0 -73 31t-31 73zM1548 92l-41 -92q-143 0 -227 76q-6 -170 -49.5 -288t-127.5 -187.5t-197.5 -100t-270.5 -30.5q-278 0 -410.5 135t-132.5 375q0 205 96 401l129 -39q-57 -154 -57 -336q0 -61 12 -112.5t41 -96.5t73 -76t111.5 -49t153.5 -18
q253 0 358 101.5t105 344.5q0 117 -30.5 225t-102.5 267l188 76q8 -33 19.5 -70t27.5 -83.5t23 -68.5q49 -154 113 -208t172 -54z" />
    <glyph glyph-name="uni06BF.init" unicode="&#x6bf;" horiz-adv-x="1445" 
d="M477 1085q-47 0 -79.5 33t-32.5 80t32.5 80t79.5 33t80 -33t33 -80t-33 -80t-80 -33zM483 950q98 0 174 -18t128 -49t96 -69.5t89.5 -83t95.5 -85t127.5 -79.5t172.5 -64l-25 -160l-206 -16q-131 -10 -255.5 -47.5t-223 -83.5t-197 -90.5t-216.5 -74.5t-243 -30l-41 92
l57 92q109 0 213 25.5t193 64t179.5 79t209 76t244.5 48.5q-75 32 -138.5 76t-103 79t-84.5 66.5t-107.5 49.5t-148.5 18q-117 0 -248 -76l-86 160q171 100 344 100zM559 -295q0 -42 -31 -73t-73 -31q-44 0 -75.5 30.5t-31.5 73.5t31.5 74t75.5 31q41 0 72.5 -31t31.5 -74z
M799 -190q44 0 75 -31t31 -74t-31 -73.5t-75 -30.5q-42 0 -73.5 31t-31.5 73t31.5 73.5t73.5 31.5zM627 -440q41 0 72.5 -31t31.5 -74q0 -42 -31 -73t-73 -31t-73.5 31t-31.5 73t31.5 73.5t73.5 31.5z" />
    <glyph glyph-name="uni06BF.medi" unicode="&#x6bf;" horiz-adv-x="1458" 
d="M469 1085q-47 0 -80 33t-33 80t33 80t80 33t80 -33t33 -80t-33 -80t-80 -33zM1475 184l24 -92l-41 -92q-209 0 -332.5 92t-144.5 283q-90 -22 -191.5 -70.5t-188.5 -98.5t-180 -97.5t-202 -78t-219 -30.5l-41 92l57 92q106 0 209 29t193 73.5t179.5 91t206 90t236.5 62.5
q-72 24 -135.5 58t-105.5 63.5t-87.5 56.5t-104.5 42.5t-134 15.5q-117 0 -248 -76l-86 160q171 100 336 100q93 0 165 -15t123 -41t95 -58t91.5 -70t100.5 -73.5t134.5 -70.5t181.5 -59l-25 -160l-213 -8h-10q13 -58 35 -97t49 -61.5t72 -34.5t88 -15t113 -3zM743 -193
q0 -42 -31 -73t-73 -31q-44 0 -75.5 30.5t-31.5 73.5t31.5 74t75.5 31q41 0 72.5 -31t31.5 -74zM983 -88q44 0 75.5 -31t31.5 -74t-31.5 -73.5t-75.5 -30.5q-42 0 -73 31t-31 73q0 43 31.5 74t72.5 31zM811 -338q42 0 73 -31t31 -73t-31.5 -73.5t-72.5 -31.5t-72.5 31.5
t-31.5 73.5t31 73t73 31z" />
    <glyph glyph-name="uni06BF.fina" unicode="&#x6bf;" horiz-adv-x="1357" 
d="M467 1085q-47 0 -80 33t-33 80t33 80t80 33t80 -33t33 -80t-33 -80t-80 -33zM1358 0q-203 0 -308 94.5t-122 290.5h2q-146 -15 -263 -52t-195 -88.5t-130 -117t-75 -135t-23 -144.5q0 -200 144.5 -304.5t422.5 -104.5q259 0 446 96l70 -162q-200 -123 -534 -123
q-177 0 -311.5 40.5t-219 116t-126.5 179t-42 232.5q0 142 50.5 262.5t151.5 216t263.5 158.5t374.5 84q-64 29 -132.5 73.5t-110.5 75t-104 53.5t-132 23q-136 0 -267 -78l-86 160q167 104 367 104q73 0 136.5 -18.5t113 -49t95.5 -67.5t92.5 -77t95 -75t113 -63t136.5 -39
l-20 -160l-164 -6q15 -70 35.5 -111t58.5 -63.5t85 -29.5t128 -7l25 -92zM565 72q42 0 73.5 -31.5t31.5 -73.5t-31.5 -73t-73.5 -31q-44 0 -75 30.5t-31 73.5t31 74t75 31zM1016 -33q0 -43 -31.5 -73.5t-75.5 -30.5q-42 0 -73 31t-31 73q0 43 31.5 74t72.5 31q44 0 75.5 -31
t31.5 -74zM737 -387q-42 0 -73 31t-31 73q0 43 31.5 74t72.5 31q42 0 73.5 -31.5t31.5 -73.5t-31.5 -73t-73.5 -31z" />
    <glyph glyph-name="uni06C2.fina" unicode="&#x6c2;" horiz-adv-x="1222" 
d="M348 723l-12 102l131 23q-86 77 -86 147q0 80 55.5 132.5t159.5 52.5q71 0 156 -45l-64 -101q-57 33 -106 33q-47 0 -67.5 -23t-20.5 -53q0 -55 86 -125l190 33l14 -104zM1239 184l25 -92l-41 -92q-103 0 -186 25t-135 64.5t-93 87t-69 95.5t-53.5 87.5t-56.5 64.5
t-69 25q-48 0 -89.5 -26t-74.5 -70.5t-64 -115t-55.5 -149t-50.5 -182.5l-176 35q85 367 213.5 529.5t296.5 162.5q75 0 132 -25t92.5 -64.5t66 -87.5t62.5 -95.5t72 -87t104 -64.5t149 -25z" />
    <glyph glyph-name="uni06C3.fina" unicode="&#x6c3;" horiz-adv-x="1222" 
d="M401 823q-43 0 -74.5 31.5t-31.5 75.5t31.5 75t74.5 31q44 0 75.5 -31t31.5 -75t-31.5 -75.5t-75.5 -31.5zM719 823q-44 0 -75.5 31.5t-31.5 75.5t31.5 75t75.5 31q43 0 74.5 -31t31.5 -75t-31.5 -75.5t-74.5 -31.5zM227 -94l-176 35q85 367 213.5 529.5t296.5 162.5
q75 0 132 -25t92.5 -64.5t66 -87.5t62.5 -95.5t72 -87t104 -64.5t149 -25l25 -92l-41 -92q-103 0 -186 25t-135 64.5t-93 87t-69 95.5t-53.5 87.5t-56.5 64.5t-69 25q-48 0 -89.5 -26t-74.5 -70.5t-64 -115t-55.5 -149t-50.5 -182.5z" />
    <glyph glyph-name="uni06C4.fina" unicode="&#x6c4;" horiz-adv-x="1103" 
d="M1145 94l-41 -94h-211q-34 -145 -118.5 -251t-238.5 -183.5t-386 -126.5l-58 178q16 3 94 23q-47 47 -47 116q0 72 52 123t126 51q73 0 125 -51t52 -123v-4q178 93 239 248h-155q-213 0 -332 107.5t-119 277.5q0 169 114.5 291.5t278.5 122.5q174 0 286 -151t112 -410
v-54h202zM592 184h176v25q0 204 -67 305.5t-185 101.5q-104 0 -172 -63.5t-68 -159.5q0 -209 316 -209zM317 -319h11q16 7 41 14q30 24 30 61q0 33 -23 54.5t-59 21.5q-35 0 -58 -21t-23 -55q0 -30 22.5 -52.5t58.5 -22.5z" />
    <glyph glyph-name="uni06CA.fina" unicode="&#x6ca;" horiz-adv-x="1103" 
d="M365 989q-43 0 -75 31.5t-32 75.5t32 75t75 31q44 0 75 -31t31 -75t-31 -75.5t-75 -31.5zM682 989q-44 0 -75.5 31.5t-31.5 75.5t31.5 75t75.5 31q43 0 74.5 -31t31.5 -75t-31.5 -75.5t-74.5 -31.5zM1145 94l-41 -94h-211q-34 -145 -118.5 -251t-238.5 -183.5
t-386 -126.5l-58 178q286 63 437 155t204 228h-155q-213 0 -332 107.5t-119 277.5q0 169 114.5 291.5t278.5 122.5q174 0 286 -151t112 -410v-54h202zM592 184h176v25q0 204 -67 305.5t-185 101.5q-104 0 -172 -63.5t-68 -159.5q0 -209 316 -209z" />
    <glyph glyph-name="uni06CD.fina" unicode="&#x6cd;" horiz-adv-x="1591" 
d="M1632 92l-41 -92q-94 0 -172 35q15 -35 15 -72q0 -79 -46 -151t-132.5 -129t-226 -91t-312.5 -34q-278 0 -410.5 135t-132.5 375q0 108 25 200q-97 -39 -195 -51l-18 98q160 47 284 154l129 -39q-57 -154 -57 -336q0 -61 12 -112.5t41 -96.5t73 -76t111.5 -49t153.5 -18
q128 0 235.5 23.5t172 59t100 75.5t35.5 77q0 56 -74.5 98t-275.5 99l80 162q62 -19 166.5 -55t157 -52t129.5 -30.5t149 -14.5z" />
    <glyph glyph-name="uni06CE.init" unicode="&#x6ce;" horiz-adv-x="598" 
d="M145 1262l115 -195l115 195l92 -37l-160 -291h-98l-156 291zM16 184q128 0 192 19t86.5 59.5t22.5 120.5q0 139 -94 410l176 57q41 -123 63.5 -253.5t22.5 -223.5q0 -111 -22.5 -180.5t-80 -114t-148 -61.5t-234.5 -17l-41 92zM129 -399q-43 0 -74.5 31t-31.5 75
t31.5 75.5t74.5 31.5q44 0 75.5 -31.5t31.5 -75.5t-31.5 -75t-75.5 -31zM446 -399q-44 0 -75 31t-31 75t31 75.5t75 31.5q43 0 75 -31.5t32 -75.5t-32 -75t-75 -31z" />
    <glyph glyph-name="uni06CE.medi" unicode="&#x6ce;" horiz-adv-x="708" 
d="M401 803h-98l-156 291l93 36l114 -194l115 194l92 -36zM725 184l25 -92l-41 -92q-139 0 -219 32.5t-132 121.5q-48 -89 -128 -121.5t-230 -32.5l-41 92l59 92q92 0 144.5 11.5t75 46t26.5 64t4 97.5v17v272h172v-272q0 -70 8 -109t37 -71t86 -44t154 -12zM195 -186
q44 0 75 -31.5t31 -75.5t-31 -75t-75 -31q-43 0 -75 31t-32 75t32 75.5t75 31.5zM512 -186q43 0 74.5 -31.5t31.5 -75.5t-31.5 -75t-74.5 -31q-44 0 -75 31t-31 75t31 75.5t75 31.5z" />
    <glyph glyph-name="uni06CE.fina" unicode="&#x6ce;" horiz-adv-x="1509" 
d="M348 602h-98l-156 291l92 37l115 -195l115 195l92 -37zM1550 92l-41 -92q-94 0 -172 35q15 -35 15 -72q0 -79 -46 -151t-132.5 -129t-226 -91t-312.5 -34q-278 0 -410.5 135t-132.5 375q0 205 96 401l129 -39q-57 -154 -57 -336q0 -61 12 -112.5t41 -96.5t73 -76
t111.5 -49t153.5 -18q128 0 235.5 23.5t172 59t100 75.5t35.5 77q0 56 -74.5 98t-275.5 99l80 162q62 -19 166.5 -55t157 -52t129.5 -30.5t149 -14.5z" />
    <glyph glyph-name="uni06CF.fina" unicode="&#x6cf;" horiz-adv-x="1103" 
d="M518 934q-47 0 -79.5 33t-32.5 80t32.5 79.5t79.5 32.5t80 -32.5t33 -79.5t-33 -80t-80 -33zM1145 94l-41 -94h-211q-34 -145 -118.5 -251t-238.5 -183.5t-386 -126.5l-58 178q286 63 437 155t204 228h-155q-213 0 -332 107.5t-119 277.5q0 169 114.5 291.5t278.5 122.5
q174 0 286 -151t112 -410v-54h202zM592 184h176v25q0 204 -67 305.5t-185 101.5q-104 0 -172 -63.5t-68 -159.5q0 -209 316 -209z" />
    <glyph glyph-name="uni06D1.init" unicode="&#x6d1;" horiz-adv-x="598" 
d="M16 184q128 0 192 19t86.5 59.5t22.5 120.5q0 139 -94 410l176 57q41 -123 63.5 -253.5t22.5 -223.5q0 -111 -22.5 -180.5t-80 -114t-148 -61.5t-234.5 -17l-41 92zM117 -190q41 0 72.5 -31t31.5 -74q0 -42 -31 -73t-73 -31q-44 0 -75.5 30.5t-31.5 73.5t31.5 74t75.5 31
zM461 -190q44 0 75 -31t31 -74t-31 -73.5t-75 -30.5q-42 0 -73.5 31t-31.5 73t31.5 73.5t73.5 31.5zM289 -440q41 0 72.5 -31t31.5 -74q0 -42 -31 -73t-73 -31t-73.5 31t-31.5 73t31.5 73.5t73.5 31.5z" />
    <glyph glyph-name="uni06D1.medi" unicode="&#x6d1;" horiz-adv-x="708" 
d="M725 184l25 -92l-41 -92q-139 0 -219 32.5t-132 121.5q-48 -89 -128 -121.5t-230 -32.5l-41 92l59 92q92 0 144.5 11.5t75 46t26.5 64t4 97.5v17v272h172v-272q0 -70 8 -109t37 -71t86 -44t154 -12zM287 -295q0 -42 -31.5 -73t-73.5 -31q-44 0 -75 30.5t-31 73.5t31 74
t75 31q42 0 73.5 -31.5t31.5 -73.5zM526 -190q44 0 75.5 -31t31.5 -74t-31.5 -73.5t-75.5 -30.5q-42 0 -73 31t-31 73q0 43 31 74t73 31zM354 -440q42 0 73.5 -31.5t31.5 -73.5t-31.5 -73t-73.5 -31t-73 31t-31 73q0 43 31 74t73 31z" />
    <glyph glyph-name="uni06D1.fina" unicode="&#x6d1;" horiz-adv-x="1509" 
d="M1550 92l-41 -92q-94 0 -172 35q15 -35 15 -72q0 -79 -46 -151t-132.5 -129t-226 -91t-312.5 -34q-278 0 -410.5 135t-132.5 375q0 205 96 401l129 -39q-57 -154 -57 -336q0 -61 12 -112.5t41 -96.5t73 -76t111.5 -49t153.5 -18q128 0 235.5 23.5t172 59t100 75.5
t35.5 77q0 56 -74.5 98t-275.5 99l80 162q62 -19 166.5 -55t157 -52t129.5 -30.5t149 -14.5zM584 -709q0 -42 -31.5 -73t-73.5 -31q-44 0 -75 30.5t-31 73.5t31 74t75 31q42 0 73.5 -31.5t31.5 -73.5zM823 -604q44 0 75.5 -31t31.5 -74t-31.5 -73.5t-75.5 -30.5
q-42 0 -73 31t-31 73q0 43 31.5 74t72.5 31zM651 -854q42 0 73.5 -31t31.5 -73t-31.5 -73.5t-73.5 -31.5q-41 0 -72.5 31.5t-31.5 73.5t31 73t73 31z" />
    <glyph glyph-name="uni06D5.fina" unicode="&#x6d5;" horiz-adv-x="1050" 
d="M1067 184l25 -94l-41 -90h-39q-227 0 -301 205q-54 -63 -138 -99t-172 -36q-157 0 -253.5 86.5t-96.5 226.5q0 85 43 163.5t122.5 142t202 106t271.5 53.5v194l172 21v-649q0 -131 41 -180.5t125 -49.5h39zM430 242q78 0 145.5 30.5t114.5 79.5v330q-121 -4 -215 -30
t-149.5 -65.5t-84 -86.5t-28.5 -99q0 -159 217 -159z" />
    <glyph glyph-name="uni06EE.fina" unicode="&#x6ee;" horiz-adv-x="1089" 
d="M438 1401l-114 -195l-93 37l156 291h98l160 -291l-92 -37zM1106 184l24 -92l-40 -92q-96 0 -172 47.5t-119 126.5q-111 -203 -422 -203q-164 0 -326 43l55 181q162 -35 283 -35q214 0 352 129l-313 704l182 86l254 -651q29 -73 48 -112.5t47 -73t62.5 -46t84.5 -12.5z
" />
    <glyph glyph-name="uni06FA.init" unicode="&#x6fa;" horiz-adv-x="1710" 
d="M954 1112q-42 0 -73 31t-31 74q0 42 31 73t73 31t73.5 -31t31.5 -73t-31.5 -73.5t-73.5 -31.5zM782 862q-44 0 -75 31t-31 74t31 73.5t75 30.5q42 0 73.5 -31t31.5 -73t-31.5 -73.5t-73.5 -31.5zM1022 967q0 42 31 73t73 31q44 0 75.5 -30.5t31.5 -73.5t-31.5 -74
t-75.5 -31q-42 0 -73 31t-31 74zM1511 850q44 -116 65 -239t21 -214q0 -202 -94.5 -299.5t-259.5 -97.5q-90 0 -164 35.5t-118 101.5q-95 -137 -289 -137q-94 0 -172 34.5t-119 96.5q-53 -72 -147 -101.5t-234 -29.5l-41 94l57 90q139 0 210 44t71 155v309h166v-264
q0 -77 15 -127t46 -74.5t65.5 -33.5t84.5 -9q196 0 196 242v266h168v-264q0 -131 54.5 -187.5t162.5 -56.5q91 0 133 46.5t42 150.5q0 173 -84 414zM979 -201q47 0 80 -32.5t33 -79.5t-33 -80t-80 -33t-80 33t-33 80t33 79.5t80 32.5z" />
    <glyph glyph-name="uni06FA.medi" unicode="&#x6fa;" horiz-adv-x="1902" 
d="M958 1112q-42 0 -73 31t-31 74q0 42 31 73t73 31t73.5 -31t31.5 -73t-31.5 -73.5t-73.5 -31.5zM786 862q-44 0 -75 31t-31 74t31 73.5t75 30.5q42 0 73.5 -31t31.5 -73t-31.5 -73.5t-73.5 -31.5zM1026 967q0 42 31 73t73 31q44 0 75.5 -30.5t31.5 -73.5t-31.5 -74
t-75.5 -31q-42 0 -73 31t-31 74zM1919 184l25 -88l-41 -96q-134 0 -223 37t-124 100q-92 -137 -309 -137q-90 0 -164 35.5t-118 101.5q-95 -137 -289 -137q-94 0 -172 34.5t-119 96.5q-53 -72 -147.5 -101.5t-237.5 -29.5l-41 94l59 90q141 0 212 44t71 155v309h166v-264
q0 -77 15 -127t46 -74.5t65.5 -33.5t84.5 -9q196 0 196 242v266h168v-264q0 -131 55 -187.5t163 -56.5q190 0 190 197v373h172v-355q0 -124 63.5 -169.5t233.5 -45.5zM958 -201q47 0 80 -32.5t33 -79.5t-33 -80t-80 -33t-79.5 33t-32.5 80t32.5 79.5t79.5 32.5z" />
    <glyph glyph-name="uni06FA.fina" unicode="&#x6fa;" horiz-adv-x="2744" 
d="M1800 1112q-42 0 -73 31t-31 74q0 42 31 73t73 31t73.5 -31t31.5 -73t-31.5 -73.5t-73.5 -31.5zM1628 862q-44 0 -75 31t-31 74t31 73.5t75 30.5q42 0 73.5 -31t31.5 -73t-31.5 -73.5t-73.5 -31.5zM1868 967q0 42 31 73t73 31q44 0 75.5 -30.5t31.5 -73.5t-31.5 -74
t-75.5 -31q-42 0 -73 31t-31 74zM2761 184l24 -88l-41 -96q-134 0 -222.5 37t-123.5 100q-92 -137 -309 -137q-90 0 -164.5 35.5t-118.5 101.5q-96 -137 -299 -137h-2q-143 0 -225 76q-6 -170 -49.5 -288t-127.5 -187.5t-197.5 -100t-270.5 -30.5q-278 0 -410.5 135
t-132.5 375q0 205 96 401l129 -39q-57 -154 -57 -336q0 -61 12 -112.5t41 -96.5t73 -76t111.5 -49t153.5 -18q253 0 358 101.5t105 344.5q0 117 -30.5 225t-102.5 267l188 76q8 -33 19.5 -70t27.5 -83.5t23 -68.5q49 -154 113 -208t172 -54q192 0 192 242v266h168v-264
q0 -131 54.5 -187.5t162.5 -56.5q191 0 191 197v389h172v-371q0 -124 63.5 -169.5t233.5 -45.5zM1804 -201q47 0 80 -32.5t33 -79.5t-33 -80t-80 -33t-79.5 33t-32.5 80t32.5 79.5t79.5 32.5z" />
    <glyph glyph-name="uni06FB.init" unicode="&#x6fb;" horiz-adv-x="1914" 
d="M1307 1075q-47 0 -80 33t-33 80t33 79.5t80 32.5t79.5 -32.5t32.5 -79.5t-32.5 -80t-79.5 -33zM1374 940q188 0 308 -129t120 -362q0 -74 -10.5 -132t-37 -104t-61.5 -79t-92.5 -57t-122 -38.5t-158 -23.5t-192 -12t-233.5 -3h-213q-130 0 -208.5 32t-129.5 118
q-48 -87 -125 -118.5t-219 -31.5l-41 92l59 92q59 0 100 5t66.5 20t40 27.5t21 43.5t7.5 51t1 66v17v397h172v-397q0 -58 5.5 -93t24 -65.5t54.5 -46t94 -21.5q117 352 330 552t440 200zM895 184q148 0 249.5 4t192.5 14.5t146 29.5t96 50.5t57.5 75t16.5 103.5
q0 77 -18.5 133t-45 85.5t-65.5 47t-69.5 21.5t-68.5 4q-181 0 -333.5 -130t-290.5 -438h133zM1036 -201q47 0 80 -32.5t33 -79.5t-33 -80t-80 -33t-79.5 33t-32.5 80t32.5 79.5t79.5 32.5z" />
    <glyph glyph-name="uni06FB.medi" unicode="&#x6fb;" horiz-adv-x="1978" 
d="M1307 1075q-47 0 -80 33t-33 80t33 79.5t80 32.5t79.5 -32.5t32.5 -79.5t-32.5 -80t-79.5 -33zM1995 184l24 -92l-41 -92q-81 0 -152.5 40.5t-117.5 106.5q-87 -88 -271.5 -117.5t-541.5 -29.5h-213q-130 0 -208.5 32t-129.5 118q-48 -87 -125 -118.5t-219 -31.5l-41 92
l59 92q59 0 100 5t66.5 20t40 27.5t21 43.5t7.5 51t1 66v17v397h172v-397q0 -58 5.5 -93t24 -65.5t54.5 -46t94 -21.5q117 352 330 552t440 200q188 0 308 -129t120 -362q0 -91 -18 -162q42 -58 93 -80.5t118 -22.5zM895 184q148 0 249.5 4t192.5 14.5t146 29.5t96 50.5
t57.5 75t16.5 103.5q0 77 -18.5 133t-45 85.5t-65.5 47t-69.5 21.5t-68.5 4q-181 0 -333.5 -130t-290.5 -438h133zM1036 -201q47 0 80 -32.5t33 -79.5t-33 -80t-80 -33t-79.5 33t-32.5 80t32.5 79.5t79.5 32.5z" />
    <glyph glyph-name="uni06FB.fina" unicode="&#x6fb;" horiz-adv-x="2803" 
d="M2132 1075q-47 0 -80 33t-33 80t33 79.5t80 32.5t80 -32.5t33 -79.5t-33 -80t-80 -33zM2820 184l25 -92l-41 -92q-81 0 -153 40.5t-118 106.5q-87 -88 -271.5 -117.5t-541.5 -29.5h-213q-143 0 -227 76q-6 -170 -49.5 -288t-127.5 -187.5t-197.5 -100t-270.5 -30.5
q-278 0 -410.5 135t-132.5 375q0 205 96 401l129 -39q-57 -154 -57 -336q0 -61 12 -112.5t41 -96.5t73 -76t111.5 -49t153.5 -18q253 0 358 101.5t105 344.5q0 117 -30.5 225t-102.5 267l188 76q8 -33 19.5 -70t27.5 -83.5t23 -68.5q37 -118 82.5 -175t110.5 -76
q79 233 205.5 404t271 256t291.5 85q188 0 308 -129t120 -362q0 -88 -19 -162q42 -58 93 -80.5t118 -22.5zM1720 184q148 0 249.5 4t192.5 14.5t146 29.5t96 50.5t57.5 75t16.5 103.5q0 77 -18.5 133t-44.5 85.5t-65 47t-69.5 21.5t-68.5 4q-181 0 -334 -130t-291 -438h133z
M1862 -201q47 0 79.5 -32.5t32.5 -79.5t-32.5 -80t-79.5 -33t-80 33t-33 80t33 79.5t80 32.5z" />
    <glyph glyph-name="uni06FC.init" unicode="&#x6fc;" horiz-adv-x="1173" 
d="M618 1085q-47 0 -79.5 33t-32.5 80t32.5 80t79.5 33t80 -33t33 -80t-33 -80t-80 -33zM1120 295l23 -184q-280 -67 -471.5 -89t-407.5 -22h-264l-41 92l57 92h209h131q-100 78 -151 176.5t-51 194.5q0 75 30.5 144.5t87 126t148.5 90.5t205 34q180 0 321 -76l-80 -176
q-117 64 -241 64q-149 0 -224 -64.5t-75 -160.5q0 -195 262 -340q179 17 532 98zM532 -201q47 0 80 -32.5t33 -79.5t-33 -80t-80 -33t-79.5 33t-32.5 80t32.5 79.5t79.5 32.5z" />
    <glyph glyph-name="uni06FC.medi" unicode="&#x6fc;" horiz-adv-x="1226" 
d="M618 1085q-47 0 -79.5 33t-32.5 80t32.5 80t79.5 33t80 -33t33 -80t-33 -80t-80 -33zM1243 184l25 -92l-41 -92h-86q-267 0 -467 164q-142 -76 -301 -120t-293 -44h-80l-41 92l57 92h31q245 0 498 105q-10 11 -57.5 63t-69 73.5t-67 65t-93.5 81.5t-106 79l22 185
q212 86 451 86q235 0 339.5 -72.5t104.5 -214.5q0 -197 -238 -373q69 -46 142 -62t209 -16h61zM338 698q67 -52 183 -166.5t177 -166.5q103 60 162.5 125.5t59.5 125.5q0 64 -71.5 94.5t-223.5 30.5q-115 0 -287 -43zM676 -201q47 0 79.5 -32.5t32.5 -79.5t-32.5 -80
t-79.5 -33t-80 33t-33 80t33 79.5t80 32.5z" />
    <glyph glyph-name="uni06FC.fina" unicode="&#x6fc;" horiz-adv-x="1165" 
d="M610 1083q-47 0 -79.5 33t-32.5 80t32.5 80t79.5 33t80 -33t33 -80t-33 -80t-80 -33zM709 -561q240 0 424 96l71 -162q-203 -123 -514 -123q-129 0 -233 26.5t-175 72t-119 110t-69.5 138.5t-21.5 159q0 383 381 563q-4 4 -28.5 30t-32 33.5t-31.5 32t-37 36.5t-37 35
t-44 40t-46 39.5t-53.5 44t-57.5 43.5l25 185q216 84 456 84q242 0 347.5 -72.5t105.5 -214.5q0 -115 -65.5 -200.5t-200.5 -158.5q76 -56 147.5 -74t214.5 -18h66l24 -90l-41 -94h-88q-141 0 -256 46t-237 149q-200 -93 -280.5 -185t-80.5 -225q0 -157 123.5 -251.5
t362.5 -94.5zM274 698q68 -53 184 -164.5t156 -146.5q134 58 196 109.5t62 121.5q0 64 -72.5 93.5t-232.5 29.5q-134 0 -293 -43zM535 -184q0 47 32.5 79.5t79.5 32.5t80 -32.5t33 -79.5t-33 -80t-80 -33t-79.5 33t-32.5 80z" />
    <glyph glyph-name="uni06FF.init" unicode="&#x6ff;" horiz-adv-x="1312" 
d="M758 1348l-115 -195l-92 37l156 291h98l160 -291l-93 -37zM297 1141q125 -73 209.5 -123.5t173.5 -105.5t145 -92t114.5 -79t92 -71t67 -63.5t49.5 -61.5t29.5 -60t18 -63.5t4.5 -67.5q0 -99 -47 -187.5t-126 -142t-167 -53.5q-217 0 -401 101q-174 -72 -400 -72h-59
l-41 92l57 92h35q121 0 232 19q-156 163 -156 362q0 115 57.5 207.5t153.5 132.5l-135 76zM256 559q0 -86 57.5 -164t157.5 -137q211 95 211 297q0 100 -63.5 168t-153.5 68q-89 0 -149 -66t-60 -166zM860 156q89 0 144 44t55 113q0 73 -55 142t-197 168q4 -40 4 -58
q0 -228 -168 -379q105 -30 217 -30z" />
    <glyph glyph-name="uni06FF.medi" unicode="&#x6ff;" horiz-adv-x="983" 
d="M618 1243l-114 -194l-92 36l155 291h99l159 -291l-92 -36zM1024 92l-41 -92h-227q135 -99 135 -276q0 -129 -78.5 -207t-208.5 -78q-194 0 -332 157.5t-151 403.5h-121l-41 92l57 92h105q8 201 78 369.5t181.5 265t237.5 96.5q135 0 212 -86t77 -249q0 -102 -52 -213.5
t-144 -182.5h288zM592 731q-118 0 -218.5 -152.5t-119.5 -394.5h106q111 0 201 55t137 140t47 180q0 83 -38.5 127.5t-114.5 44.5zM586 -377q74 0 112.5 40.5t38.5 103.5q0 106 -82 169.5t-221 63.5h-180q20 -179 110.5 -278t221.5 -99z" />
    <glyph glyph-name="uni06FF.fina" unicode="&#x6ff;" horiz-adv-x="1196" 
d="M831 1243l-114 -194l-92 36l155 291h99l159 -291l-92 -36zM1237 92l-41 -92h-227q135 -99 135 -276q0 -129 -78.5 -207t-208.5 -78q-127 0 -234 70.5t-173.5 199.5t-75.5 293q-186 9 -283 68l82 161q77 -40 201 -45q8 201 78 369t181.5 264t237.5 96q135 0 212 -86
t77 -249q0 -102 -52 -213.5t-144 -182.5h288zM805 731q-118 0 -218.5 -152.5t-119.5 -394.5h106q111 0 201 55t137 140t47 180q0 83 -38.5 127.5t-114.5 44.5zM799 -377q74 0 112.5 40.5t38.5 103.5q0 106 -82 169.5t-221 63.5h-180q20 -179 110.5 -278t221.5 -99z" />
    <glyph glyph-name="uniFB51" unicode="&#x671;" horiz-adv-x="485" arabic-form="final" 
d="M262 1491q-71 0 -162 27l-37 -78l-94 33l58 172q44 -14 73 -21q96 209 246 209q67 0 113.5 -43.5t46.5 -114.5q0 -66 -36 -109t-88.5 -59t-119.5 -16zM336 1720q-74 0 -148 -114q52 -9 99 -9q114 0 114 68q0 28 -15 41.5t-50 13.5zM502 184l24 -92l-41 -92
q-180 0 -266 105.5t-86 314.5v862l172 21v-871q0 -143 40 -195.5t157 -52.5z" />
    <glyph glyph-name="uniFB53" unicode="&#x67b;" horiz-adv-x="1998" arabic-form="final" 
d="M2015 184l25 -88l-41 -96q-158 0 -245.5 38t-145.5 120q-173 -93 -387.5 -140t-530.5 -47q-220 0 -352 46t-189 137t-57 239q0 171 76 326l129 -43q-43 -133 -43 -256q0 -99 42.5 -155t140.5 -82.5t270 -26.5q266 0 483 45t346 114v377h172v-241q0 -82 10.5 -129
t44 -80.5t93 -45.5t159.5 -12zM774 -377q-43 0 -74.5 31.5t-31.5 75.5t31.5 75t74.5 31q44 0 75.5 -31t31.5 -75t-31.5 -75.5t-75.5 -31.5zM776 -467q43 0 75 -31t32 -75t-32 -75.5t-75 -31.5q-44 0 -75 31.5t-31 75.5t31 75t75 31z" />
    <glyph glyph-name="uniFB54" unicode="&#x67b;" horiz-adv-x="598" arabic-form="initial" 
d="M16 184q128 0 192 19t86.5 59.5t22.5 120.5q0 139 -94 410l176 57q41 -123 63.5 -253.5t22.5 -223.5q0 -111 -22.5 -180.5t-80 -114t-148 -61.5t-234.5 -17l-41 92zM291 -377q-43 0 -75 31.5t-32 75.5t32 75t75 31q44 0 75 -31t31 -75t-31 -75.5t-75 -31.5zM293 -680
q-44 0 -75.5 31.5t-31.5 75.5t31.5 75t75.5 31q43 0 74.5 -31t31.5 -75t-31.5 -75.5t-74.5 -31.5z" />
    <glyph glyph-name="uniFB55" unicode="&#x67b;" horiz-adv-x="708" arabic-form="medial" 
d="M725 184l25 -92l-41 -92q-139 0 -219 32.5t-132 121.5q-48 -89 -128 -121.5t-230 -32.5l-41 92l59 92q92 0 144.5 11.5t75 46t26.5 64t4 97.5v17v272h172v-272q0 -70 8 -109t37 -71t86 -44t154 -12zM356 -377q-43 0 -74.5 31.5t-31.5 75.5t31.5 75t74.5 31q44 0 75.5 -31
t31.5 -75t-31.5 -75.5t-75.5 -31.5zM358 -467q43 0 75 -31t32 -75t-32 -75.5t-75 -31.5q-44 0 -75 31.5t-31 75.5t31 75t75 31z" />
    <glyph glyph-name="uniFB57" unicode="&#x67e;" horiz-adv-x="1998" arabic-form="final" 
d="M2015 184l25 -88l-41 -96q-158 0 -245.5 38t-145.5 120q-173 -93 -387.5 -140t-530.5 -47q-220 0 -352 46t-189 137t-57 239q0 171 76 326l129 -43q-43 -133 -43 -256q0 -99 42.5 -155t140.5 -82.5t270 -26.5q266 0 483 45t346 114v377h172v-241q0 -82 10.5 -129
t44 -80.5t93 -45.5t159.5 -12zM705 -295q0 -42 -31.5 -73t-73.5 -31q-44 0 -75 30.5t-31 73.5t31 74t75 31q42 0 73.5 -31.5t31.5 -73.5zM944 -190q44 0 75.5 -31t31.5 -74t-31.5 -73.5t-75.5 -30.5q-42 0 -73 31t-31 73q0 43 31 74t73 31zM772 -440q42 0 73.5 -31.5
t31.5 -73.5t-31.5 -73t-73.5 -31t-73 31t-31 73q0 43 31 74t73 31z" />
    <glyph glyph-name="uniFB58" unicode="&#x67e;" horiz-adv-x="598" arabic-form="initial" 
d="M16 184q128 0 192 19t86.5 59.5t22.5 120.5q0 139 -94 410l176 57q41 -123 63.5 -253.5t22.5 -223.5q0 -111 -22.5 -180.5t-80 -114t-148 -61.5t-234.5 -17l-41 92zM117 -190q41 0 72.5 -31t31.5 -74q0 -42 -31 -73t-73 -31q-44 0 -75.5 30.5t-31.5 73.5t31.5 74t75.5 31
zM461 -190q44 0 75 -31t31 -74t-31 -73.5t-75 -30.5q-42 0 -73.5 31t-31.5 73t31.5 73.5t73.5 31.5zM289 -440q41 0 72.5 -31t31.5 -74q0 -42 -31 -73t-73 -31t-73.5 31t-31.5 73t31.5 73.5t73.5 31.5z" />
    <glyph glyph-name="uniFB59" unicode="&#x67e;" horiz-adv-x="708" arabic-form="medial" 
d="M725 184l25 -92l-41 -92q-139 0 -219 32.5t-132 121.5q-48 -89 -128 -121.5t-230 -32.5l-41 92l59 92q92 0 144.5 11.5t75 46t26.5 64t4 97.5v17v272h172v-272q0 -70 8 -109t37 -71t86 -44t154 -12zM287 -295q0 -42 -31.5 -73t-73.5 -31q-44 0 -75 30.5t-31 73.5t31 74
t75 31q42 0 73.5 -31.5t31.5 -73.5zM526 -190q44 0 75.5 -31t31.5 -74t-31.5 -73.5t-75.5 -30.5q-42 0 -73 31t-31 73q0 43 31 74t73 31zM354 -440q42 0 73.5 -31.5t31.5 -73.5t-31.5 -73t-73.5 -31t-73 31t-31 73q0 43 31 74t73 31z" />
    <glyph glyph-name="uniFB5B" unicode="&#x680;" horiz-adv-x="1998" arabic-form="final" 
d="M2015 184l25 -88l-41 -96q-158 0 -245.5 38t-145.5 120q-173 -93 -387.5 -140t-530.5 -47q-220 0 -352 46t-189 137t-57 239q0 171 76 326l129 -43q-43 -133 -43 -256q0 -99 42.5 -155t140.5 -82.5t270 -26.5q266 0 483 45t346 114v377h172v-241q0 -82 10.5 -129
t44 -80.5t93 -45.5t159.5 -12zM612 -160q45 0 76 -31.5t31 -78.5q0 -42 -31.5 -72.5t-75.5 -30.5t-75 30.5t-31 72.5q0 47 30.5 78.5t75.5 31.5zM928 -160q45 0 75.5 -31.5t30.5 -78.5q0 -42 -31 -72.5t-75 -30.5t-75.5 30.5t-31.5 72.5q0 47 31 78.5t76 31.5zM612 -461
q44 0 75.5 -30.5t31.5 -73.5q0 -46 -31.5 -77.5t-75.5 -31.5t-75 31.5t-31 77.5q0 43 31 73.5t75 30.5zM928 -461q44 0 75 -30.5t31 -73.5q0 -46 -31 -77.5t-75 -31.5t-75.5 31.5t-31.5 77.5q0 43 31.5 73.5t75.5 30.5z" />
    <glyph glyph-name="uniFB5C" unicode="&#x680;" horiz-adv-x="598" arabic-form="initial" 
d="M16 184q128 0 192 19t86.5 59.5t22.5 120.5q0 139 -94 410l176 57q41 -123 63.5 -253.5t22.5 -223.5q0 -111 -22.5 -180.5t-80 -114t-148 -61.5t-234.5 -17l-41 92zM129 -373q-44 0 -75 30.5t-31 72.5q0 47 30.5 78.5t75.5 31.5t76 -31.5t31 -78.5q0 -42 -31.5 -72.5
t-75.5 -30.5zM444 -373q-44 0 -75 30.5t-31 72.5q0 47 30.5 78.5t75.5 31.5t76 -31.5t31 -78.5q0 -42 -31.5 -72.5t-75.5 -30.5zM129 -674q-44 0 -75 31.5t-31 77.5q0 43 31 73.5t75 30.5t75.5 -30.5t31.5 -73.5q0 -46 -31.5 -77.5t-75.5 -31.5zM444 -674q-44 0 -75 31.5
t-31 77.5q0 43 31 73.5t75 30.5t75.5 -30.5t31.5 -73.5q0 -46 -31.5 -77.5t-75.5 -31.5z" />
    <glyph glyph-name="uniFB5D" unicode="&#x680;" horiz-adv-x="708" arabic-form="medial" 
d="M725 184l25 -92l-41 -92q-139 0 -219 32.5t-132 121.5q-48 -89 -128 -121.5t-230 -32.5l-41 92l59 92q92 0 144.5 11.5t75 46t26.5 64t4 97.5v17v272h172v-272q0 -70 8 -109t37 -71t86 -44t154 -12zM195 -160q45 0 75.5 -31.5t30.5 -78.5q0 -42 -31 -72.5t-75 -30.5
t-75.5 30.5t-31.5 72.5q0 47 31 78.5t76 31.5zM510 -160q45 0 75.5 -31.5t30.5 -78.5q0 -42 -31 -72.5t-75 -30.5t-75.5 30.5t-31.5 72.5q0 47 31 78.5t76 31.5zM195 -461q44 0 75 -30.5t31 -73.5q0 -46 -31 -77.5t-75 -31.5t-75.5 31.5t-31.5 77.5q0 43 31.5 73.5
t75.5 30.5zM510 -461q44 0 75 -30.5t31 -73.5q0 -46 -31 -77.5t-75 -31.5t-75.5 31.5t-31.5 77.5q0 43 31.5 73.5t75.5 30.5z" />
    <glyph glyph-name="uniFB5F" unicode="&#x67a;" horiz-adv-x="1998" arabic-form="final" 
d="M938 1032q-43 0 -75 31.5t-32 75.5t32 75t75 31q44 0 75 -31t31 -75t-31 -75.5t-75 -31.5zM940 942q43 0 75 -31t32 -75t-32 -75.5t-75 -31.5q-44 0 -75 31.5t-31 75.5t31 75t75 31zM2015 184l25 -88l-41 -96q-158 0 -245.5 38t-145.5 120q-173 -93 -387.5 -140
t-530.5 -47q-220 0 -352 46t-189 137t-57 239q0 171 76 326l129 -43q-43 -133 -43 -256q0 -99 42.5 -155t140.5 -82.5t270 -26.5q266 0 483 45t346 114v377h172v-241q0 -82 10.5 -129t44 -80.5t93 -45.5t159.5 -12z" />
    <glyph glyph-name="uniFB60" unicode="&#x67a;" horiz-adv-x="598" arabic-form="initial" 
d="M262 1245q-43 0 -74.5 31.5t-31.5 75.5t31.5 75t74.5 31q44 0 75.5 -31t31.5 -75t-31.5 -75.5t-75.5 -31.5zM264 942q-44 0 -75 31.5t-31 75.5t31 75t75 31q43 0 75 -31t32 -75t-32 -75.5t-75 -31.5zM16 184q128 0 192 19t86.5 59.5t22.5 120.5q0 139 -94 410l176 57
q41 -123 63.5 -253.5t22.5 -223.5q0 -111 -22.5 -180.5t-80 -114t-148 -61.5t-234.5 -17l-41 92z" />
    <glyph glyph-name="uniFB61" unicode="&#x67a;" horiz-adv-x="708" arabic-form="medial" 
d="M356 1114q-43 0 -74.5 31.5t-31.5 75.5t31.5 75t74.5 31q44 0 75.5 -31t31.5 -75t-31.5 -75.5t-75.5 -31.5zM358 1024q43 0 75 -31t32 -75t-32 -75.5t-75 -31.5q-44 0 -75 31.5t-31 75.5t31 75t75 31zM725 184l25 -92l-41 -92q-139 0 -219 32.5t-132 121.5
q-48 -89 -128 -121.5t-230 -32.5l-41 92l59 92q92 0 144.5 11.5t75 46t26.5 64t4 97.5v17v272h172v-272q0 -70 8 -109t37 -71t86 -44t154 -12z" />
    <glyph glyph-name="uniFB63" unicode="&#x67f;" horiz-adv-x="1998" arabic-form="final" 
d="M780 1030q-44 0 -75 30.5t-31 72.5q0 47 30.5 78.5t75.5 31.5t76 -31.5t31 -78.5q0 -42 -31.5 -72.5t-75.5 -30.5zM1096 1030q-44 0 -75.5 30.5t-31.5 72.5q0 47 31 78.5t76 31.5t75.5 -31.5t30.5 -78.5q0 -42 -31 -72.5t-75 -30.5zM780 729q-44 0 -75 31.5t-31 77.5
q0 43 31 73.5t75 30.5t75.5 -30.5t31.5 -73.5q0 -46 -31.5 -77.5t-75.5 -31.5zM1096 729q-44 0 -75.5 31.5t-31.5 77.5q0 43 31.5 73.5t75.5 30.5t75 -30.5t31 -73.5q0 -46 -31 -77.5t-75 -31.5zM2015 184l25 -88l-41 -96q-158 0 -245.5 38t-145.5 120q-173 -93 -387.5 -140
t-530.5 -47q-220 0 -352 46t-189 137t-57 239q0 171 76 326l129 -43q-43 -133 -43 -256q0 -99 42.5 -155t140.5 -82.5t270 -26.5q266 0 483 45t346 114v377h172v-241q0 -82 10.5 -129t44 -80.5t93 -45.5t159.5 -12z" />
    <glyph glyph-name="uniFB64" unicode="&#x67f;" horiz-adv-x="598" arabic-form="initial" 
d="M104 1243q-44 0 -75 30.5t-31 72.5q0 47 30.5 78.5t75.5 31.5t76 -31.5t31 -78.5q0 -42 -31.5 -72.5t-75.5 -30.5zM420 1243q-44 0 -75.5 30.5t-31.5 72.5q0 47 31 78.5t76 31.5t75.5 -31.5t30.5 -78.5q0 -42 -31 -72.5t-75 -30.5zM104 942q-44 0 -75 31.5t-31 77.5
q0 43 31 73.5t75 30.5t75.5 -30.5t31.5 -73.5q0 -46 -31.5 -77.5t-75.5 -31.5zM420 942q-44 0 -75.5 31.5t-31.5 77.5q0 43 31.5 73.5t75.5 30.5t75 -30.5t31 -73.5q0 -46 -31 -77.5t-75 -31.5zM16 184q128 0 192 19t86.5 59.5t22.5 120.5q0 139 -94 410l176 57
q41 -123 63.5 -253.5t22.5 -223.5q0 -111 -22.5 -180.5t-80 -114t-148 -61.5t-234.5 -17l-41 92z" />
    <glyph glyph-name="uniFB65" unicode="&#x67f;" horiz-adv-x="708" arabic-form="medial" 
d="M199 1112q-44 0 -75.5 30.5t-31.5 71.5q0 47 31 79t76 32q44 0 75 -32t31 -79q0 -42 -31 -72t-75 -30zM514 1112q-44 0 -75 30t-31 72q0 47 31 79t75 32q45 0 76 -32t31 -79q0 -41 -31.5 -71.5t-75.5 -30.5zM199 811q-44 0 -75.5 31.5t-31.5 77.5q0 43 31.5 73.5
t75.5 30.5t75 -30.5t31 -73.5q0 -46 -31 -77.5t-75 -31.5zM514 811q-44 0 -75 31.5t-31 77.5q0 43 31 73.5t75 30.5t75.5 -30.5t31.5 -73.5q0 -46 -31.5 -77.5t-75.5 -31.5zM725 184l25 -92l-41 -92q-139 0 -219 32.5t-132 121.5q-48 -89 -128 -121.5t-230 -32.5l-41 92
l59 92q92 0 144.5 11.5t75 46t26.5 64t4 97.5v17v272h172v-272q0 -70 8 -109t37 -71t86 -44t154 -12z" />
    <glyph glyph-name="uniFB67" unicode="&#x679;" horiz-adv-x="1998" arabic-form="final" 
d="M1192 961q0 -31 -11 -61t-33.5 -58t-64 -45t-96.5 -17h-315l12 103h53q18 27 23 37v290h100v-153q78 86 164 86q74 0 121 -52t47 -130zM823 883h146q67 0 96 18.5t29 61.5q0 75 -78 75q-91 0 -193 -155zM2015 184l25 -88l-41 -96q-158 0 -245.5 38t-145.5 120
q-173 -93 -387.5 -140t-530.5 -47q-220 0 -352 46t-189 137t-57 239q0 171 76 326l129 -43q-43 -133 -43 -256q0 -99 42.5 -155t140.5 -82.5t270 -26.5q266 0 483 45t346 114v377h172v-241q0 -82 10.5 -129t44 -80.5t93 -45.5t159.5 -12z" />
    <glyph glyph-name="uniFB68" unicode="&#x679;" horiz-adv-x="598" arabic-form="initial" 
d="M516 1174q0 -31 -11 -61t-33.5 -58t-64 -45t-96.5 -17h-315l12 103h53q18 27 23 37v290h100v-153q78 86 164 86q74 0 121 -52t47 -130zM147 1096h146q67 0 96 18.5t29 61.5q0 75 -78 75q-91 0 -193 -155zM223 793l176 57q41 -123 63.5 -253.5t22.5 -223.5
q0 -111 -22.5 -180.5t-80 -114t-148 -61.5t-234.5 -17l-41 92l57 92q128 0 192 19t86.5 59.5t22.5 120.5q0 139 -94 410z" />
    <glyph glyph-name="uniFB69" unicode="&#x679;" horiz-adv-x="708" arabic-form="medial" 
d="M610 1042q0 -31 -10.5 -60.5t-33 -57.5t-64 -45t-96.5 -17h-316l12 103h54q16 24 22 36v291h101v-153q78 86 163 86q74 0 121 -52.5t47 -130.5zM242 965h145q68 0 96.5 18t28.5 61q0 76 -78 76q-90 0 -192 -155zM725 184l25 -92l-41 -92q-139 0 -219 32.5t-132 121.5
q-48 -89 -128 -121.5t-230 -32.5l-41 92l59 92q92 0 144.5 11.5t75 46t26.5 64t4 97.5v17v272h172v-272q0 -70 8 -109t37 -71t86 -44t154 -12z" />
    <glyph glyph-name="uniFB6B" unicode="&#x6a4;" horiz-adv-x="1974" arabic-form="final" 
d="M1452 1386q-42 0 -73 31t-31 74q0 42 31 73t73 31t73 -31t31 -73q0 -43 -31 -74t-73 -31zM1280 1137q-44 0 -75 30.5t-31 73.5t31 74t75 31q42 0 73 -31t31 -74q0 -42 -31 -73t-73 -31zM1520 1241q0 43 31 74t73 31q44 0 75.5 -31t31.5 -74t-31.5 -73.5t-75.5 -30.5
q-42 0 -73 31t-31 73zM1987 184l28 -92l-41 -92h-100q-209 0 -410 92q-288 -121 -774 -121q-220 0 -352 46t-189 137t-57 239q0 171 76 326l129 -43q-43 -133 -43 -256q0 -146 99 -205t352 -59q339 0 571 51q-199 161 -199 366q0 107 50 204.5t136.5 158.5t186.5 61
q115 0 206 -61.5t138 -157.5t47 -205q0 -219 -184 -368q108 -21 217 -21h113zM1229 573q0 -102 61.5 -179.5t167.5 -127.5q232 107 232 307q0 98 -66.5 169t-163.5 71q-98 0 -164.5 -71t-66.5 -169z" />
    <glyph glyph-name="uniFB6C" unicode="&#x6a4;" horiz-adv-x="968" arabic-form="initial" 
d="M455 1554q-42 0 -73.5 31.5t-31.5 73.5t31.5 73t73.5 31t73 -31t31 -73q0 -43 -31.5 -74t-72.5 -31zM283 1305q-44 0 -75.5 30.5t-31.5 73.5t31.5 73.5t75.5 30.5q42 0 73 -31t31 -73t-31 -73t-73 -31zM522 1409q0 42 31.5 73t73.5 31q44 0 75 -30.5t31 -73.5t-31 -73.5
t-75 -30.5q-42 0 -73.5 31t-31.5 73zM455 1163q175 0 288 -155.5t113 -432.5q0 -101 -16 -179.5t-47 -139.5t-83.5 -104.5t-118 -73t-157.5 -46.5t-195.5 -24.5t-238.5 -7.5l-41 94l57 90q257 0 401.5 27t205 78.5t75.5 142.5q-75 -63 -235 -63q-181 0 -291.5 106.5
t-110.5 272.5q0 171 114.5 293t279.5 122zM211 758q0 -108 80 -172t235 -64q96 0 181 29q-1 221 -68.5 326.5t-183.5 105.5q-107 0 -175.5 -64t-68.5 -161z" />
    <glyph glyph-name="uniFB6D" unicode="&#x6a4;" horiz-adv-x="1050" arabic-form="medial" 
d="M528 1386q-42 0 -73 31t-31 74q0 42 31 73t73 31t73.5 -31t31.5 -73t-31.5 -73.5t-73.5 -31.5zM356 1137q-44 0 -75 30.5t-31 73.5t31 74t75 31q42 0 73.5 -31.5t31.5 -73.5t-31.5 -73t-73.5 -31zM596 1241q0 43 31 74t73 31q44 0 75.5 -31t31.5 -74t-31.5 -73.5
t-75.5 -30.5q-42 0 -73 31t-31 73zM1063 184l29 -92l-41 -92h-101q-210 0 -411 92q-202 -92 -453 -92h-86l-41 92l57 92h90q118 0 246 23q-198 160 -198 366q0 107 49.5 204.5t136 158.5t186.5 61q115 0 206 -61.5t138.5 -157.5t47.5 -205q0 -95 -51.5 -191t-145.5 -175
q122 -23 229 -23h113zM305 573q0 -103 63 -181t173 -128q225 105 225 309q0 98 -66 169t-163 71q-98 0 -165 -71t-67 -169z" />
    <glyph glyph-name="uniFB6F" unicode="&#x6a6;" horiz-adv-x="1974" arabic-form="final" 
d="M1296 1386q-44 0 -75 30.5t-31 72.5q0 47 30.5 78.5t75.5 31.5t76 -31.5t31 -78.5q0 -42 -31.5 -72.5t-75.5 -30.5zM1612 1386q-44 0 -75.5 30.5t-31.5 72.5q0 47 31 78.5t76 31.5t75.5 -31.5t30.5 -78.5q0 -42 -31 -72.5t-75 -30.5zM1296 1085q-44 0 -75 31.5t-31 77.5
q0 43 31 73.5t75 30.5t75.5 -30.5t31.5 -73.5q0 -46 -31.5 -77.5t-75.5 -31.5zM1612 1085q-44 0 -75.5 31.5t-31.5 77.5q0 43 31.5 73.5t75.5 30.5t75 -30.5t31 -73.5q0 -46 -31 -77.5t-75 -31.5zM1987 184l28 -92l-41 -92h-100q-209 0 -410 92q-288 -121 -774 -121
q-220 0 -352 46t-189 137t-57 239q0 171 76 326l129 -43q-43 -133 -43 -256q0 -146 99 -205t352 -59q339 0 571 51q-199 161 -199 366q0 107 50 204.5t136.5 158.5t186.5 61q115 0 206 -61.5t138 -157.5t47 -205q0 -219 -184 -368q108 -21 217 -21h113zM1229 573
q0 -102 61.5 -179.5t167.5 -127.5q232 107 232 307q0 98 -66.5 169t-163.5 71q-98 0 -164.5 -71t-66.5 -169z" />
    <glyph glyph-name="uniFB70" unicode="&#x6a6;" horiz-adv-x="968" arabic-form="initial" 
d="M299 1554q-44 0 -75 30.5t-31 72.5q0 47 30.5 78.5t75.5 31.5t76 -31.5t31 -78.5q0 -42 -31.5 -72.5t-75.5 -30.5zM614 1554q-44 0 -75 30.5t-31 72.5q0 47 30.5 78.5t75.5 31.5t76 -31.5t31 -78.5q0 -42 -31.5 -72.5t-75.5 -30.5zM299 1253q-44 0 -75 31.5t-31 77.5
q0 43 31 73.5t75 30.5t75.5 -30.5t31.5 -73.5q0 -46 -31.5 -77.5t-75.5 -31.5zM614 1253q-44 0 -75 31.5t-31 77.5q0 43 31 73.5t75 30.5t75.5 -30.5t31.5 -73.5q0 -46 -31.5 -77.5t-75.5 -31.5zM455 1163q175 0 288 -155.5t113 -432.5q0 -101 -16 -179.5t-47 -139.5
t-83.5 -104.5t-118 -73t-157.5 -46.5t-195.5 -24.5t-238.5 -7.5l-41 94l57 90q257 0 401.5 27t205 78.5t75.5 142.5q-75 -63 -235 -63q-181 0 -291.5 106.5t-110.5 272.5q0 171 114.5 293t279.5 122zM211 758q0 -108 80 -172t235 -64q96 0 181 29q-1 221 -68.5 326.5
t-183.5 105.5q-107 0 -175.5 -64t-68.5 -161z" />
    <glyph glyph-name="uniFB71" unicode="&#x6a6;" horiz-adv-x="1050" arabic-form="medial" 
d="M373 1386q-44 0 -75.5 30.5t-31.5 72.5q0 47 31 78.5t76 31.5t75.5 -31.5t30.5 -78.5q0 -42 -31 -72.5t-75 -30.5zM688 1386q-44 0 -75 30.5t-31 72.5q0 47 30.5 78.5t75.5 31.5t76 -31.5t31 -78.5q0 -42 -31.5 -72.5t-75.5 -30.5zM373 1085q-44 0 -75.5 31.5t-31.5 77.5
q0 43 31.5 73.5t75.5 30.5t75 -30.5t31 -73.5q0 -46 -31 -77.5t-75 -31.5zM688 1085q-44 0 -75 31.5t-31 77.5q0 43 31 73.5t75 30.5t75.5 -30.5t31.5 -73.5q0 -46 -31.5 -77.5t-75.5 -31.5zM1063 184l29 -92l-41 -92h-101q-210 0 -411 92q-202 -92 -453 -92h-86l-41 92
l57 92h90q118 0 246 23q-198 160 -198 366q0 107 49.5 204.5t136 158.5t186.5 61q115 0 206 -61.5t138.5 -157.5t47.5 -205q0 -95 -51.5 -191t-145.5 -175q122 -23 229 -23h113zM305 573q0 -103 63 -181t173 -128q225 105 225 309q0 98 -66 169t-163 71q-98 0 -165 -71
t-67 -169z" />
    <glyph glyph-name="uniFB73" unicode="&#x684;" horiz-adv-x="1357" arabic-form="final" 
d="M1358 0q-203 0 -308 94.5t-122 290.5h2q-146 -15 -263 -52t-195 -88.5t-130 -117t-75 -135t-23 -144.5q0 -200 144.5 -304.5t422.5 -104.5q259 0 446 96l70 -162q-200 -123 -534 -123q-177 0 -311.5 40.5t-219 116t-126.5 179t-42 232.5q0 142 50.5 262.5t151.5 216
t263.5 158.5t374.5 84q-64 29 -132.5 73.5t-110.5 75t-104 53.5t-132 23q-136 0 -267 -78l-86 160q167 104 367 104q73 0 136.5 -18.5t113 -49t95.5 -67.5t92.5 -77t95 -75t113 -63t136.5 -39l-20 -160l-164 -6q15 -70 35.5 -111t58.5 -63.5t85 -29.5t128 -7l25 -92z
M848 -14q0 -44 -31.5 -75.5t-75.5 -31.5q-43 0 -74.5 31.5t-31.5 75.5t31.5 75t74.5 31q44 0 75.5 -31t31.5 -75zM743 -424q-44 0 -75 31.5t-31 75.5t31 75t75 31q43 0 75 -31t32 -75t-32 -75.5t-75 -31.5z" />
    <glyph glyph-name="uniFB74" unicode="&#x684;" horiz-adv-x="1445" arabic-form="initial" 
d="M483 950q98 0 174 -18t128 -49t96 -69.5t89.5 -83t95.5 -85t127.5 -79.5t172.5 -64l-25 -160l-206 -16q-131 -10 -255.5 -47.5t-223 -83.5t-197 -90.5t-216.5 -74.5t-243 -30l-41 92l57 92q109 0 213 25.5t193 64t179.5 79t209 76t244.5 48.5q-75 32 -138.5 76t-103 79
t-84.5 66.5t-107.5 49.5t-148.5 18q-117 0 -248 -76l-86 160q171 100 344 100zM629 -377q-43 0 -75 31.5t-32 75.5t32 75t75 31q44 0 75 -31t31 -75t-31 -75.5t-75 -31.5zM631 -467q43 0 74.5 -31t31.5 -75t-31.5 -75.5t-74.5 -31.5q-44 0 -75.5 31.5t-31.5 75.5t31.5 75
t75.5 31z" />
    <glyph glyph-name="uniFB75" unicode="&#x684;" horiz-adv-x="1458" arabic-form="medial" 
d="M1475 184l24 -92l-41 -92q-209 0 -332.5 92t-144.5 283q-90 -22 -191.5 -70.5t-188.5 -98.5t-180 -97.5t-202 -78t-219 -30.5l-41 92l57 92q106 0 209 29t193 73.5t179.5 91t206 90t236.5 62.5q-72 24 -135.5 58t-105.5 63.5t-87.5 56.5t-104.5 42.5t-134 15.5
q-117 0 -248 -76l-86 160q171 100 336 100q93 0 165 -15t123 -41t95 -58t91.5 -70t100.5 -73.5t134.5 -70.5t181.5 -59l-25 -160l-213 -8h-10q13 -58 35 -97t49 -61.5t72 -34.5t88 -15t113 -3zM813 -274q-43 0 -74.5 31t-31.5 75t31.5 75.5t74.5 31.5q44 0 75.5 -31.5
t31.5 -75.5t-31.5 -75t-75.5 -31zM815 -365q43 0 75 -31t32 -75t-32 -75.5t-75 -31.5q-44 0 -75 31.5t-31 75.5t31 75t75 31z" />
    <glyph glyph-name="uniFB77" unicode="&#x683;" horiz-adv-x="1357" arabic-form="final" 
d="M1358 0q-203 0 -308 94.5t-122 290.5h2q-146 -15 -263 -52t-195 -88.5t-130 -117t-75 -135t-23 -144.5q0 -200 144.5 -304.5t422.5 -104.5q259 0 446 96l70 -162q-200 -123 -534 -123q-177 0 -311.5 40.5t-219 116t-126.5 179t-42 232.5q0 142 50.5 262.5t151.5 216
t263.5 158.5t374.5 84q-64 29 -132.5 73.5t-110.5 75t-104 53.5t-132 23q-136 0 -267 -78l-86 160q167 104 367 104q73 0 136.5 -18.5t113 -49t95.5 -67.5t92.5 -77t95 -75t113 -63t136.5 -39l-20 -160l-164 -6q15 -70 35.5 -111t58.5 -63.5t85 -29.5t128 -7l25 -92z
M471 -127q0 44 32 75.5t75 31.5q44 0 75 -31.5t31 -75.5t-31 -75t-75 -31q-43 0 -75 31t-32 75zM788 -127q0 44 31.5 75.5t75.5 31.5q43 0 74.5 -31.5t31.5 -75.5t-31.5 -75t-74.5 -31q-44 0 -75.5 31t-31.5 75z" />
    <glyph glyph-name="uniFB78" unicode="&#x683;" horiz-adv-x="1445" arabic-form="initial" 
d="M483 950q98 0 174 -18t128 -49t96 -69.5t89.5 -83t95.5 -85t127.5 -79.5t172.5 -64l-25 -160l-206 -16q-131 -10 -255.5 -47.5t-223 -83.5t-197 -90.5t-216.5 -74.5t-243 -30l-41 92l57 92q109 0 213 25.5t193 64t179.5 79t209 76t244.5 48.5q-75 32 -138.5 76t-103 79
t-84.5 66.5t-107.5 49.5t-148.5 18q-117 0 -248 -76l-86 160q171 100 344 100zM467 -186q44 0 75 -31.5t31 -75.5t-31 -75t-75 -31q-43 0 -75 31t-32 75t32 75.5t75 31.5zM784 -186q43 0 75 -31.5t32 -75.5t-32 -75t-75 -31q-44 0 -75 31t-31 75t31 75.5t75 31.5z" />
    <glyph glyph-name="uniFB79" unicode="&#x683;" horiz-adv-x="1458" arabic-form="medial" 
d="M1475 184l24 -92l-41 -92q-209 0 -332.5 92t-144.5 283q-90 -22 -191.5 -70.5t-188.5 -98.5t-180 -97.5t-202 -78t-219 -30.5l-41 92l57 92q106 0 209 29t193 73.5t179.5 91t206 90t236.5 62.5q-72 24 -135.5 58t-105.5 63.5t-87.5 56.5t-104.5 42.5t-134 15.5
q-117 0 -248 -76l-86 160q171 100 336 100q93 0 165 -15t123 -41t95 -58t91.5 -70t100.5 -73.5t134.5 -70.5t181.5 -59l-25 -160l-213 -8h-10q13 -58 35 -97t49 -61.5t72 -34.5t88 -15t113 -3zM651 -84q44 0 75.5 -31t31.5 -75t-31.5 -75.5t-75.5 -31.5q-43 0 -74.5 31.5
t-31.5 75.5t31.5 75t74.5 31zM969 -84q43 0 74.5 -31t31.5 -75t-31.5 -75.5t-74.5 -31.5q-44 0 -75.5 31.5t-31.5 75.5t31.5 75t75.5 31z" />
    <glyph glyph-name="uniFB7B" unicode="&#x686;" horiz-adv-x="1357" arabic-form="final" 
d="M1358 0q-203 0 -308 94.5t-122 290.5h2q-146 -15 -263 -52t-195 -88.5t-130 -117t-75 -135t-23 -144.5q0 -200 144.5 -304.5t422.5 -104.5q259 0 446 96l70 -162q-200 -123 -534 -123q-177 0 -311.5 40.5t-219 116t-126.5 179t-42 232.5q0 142 50.5 262.5t151.5 216
t263.5 158.5t374.5 84q-64 29 -132.5 73.5t-110.5 75t-104 53.5t-132 23q-136 0 -267 -78l-86 160q167 104 367 104q73 0 136.5 -18.5t113 -49t95.5 -67.5t92.5 -77t95 -75t113 -63t136.5 -39l-20 -160l-164 -6q15 -70 35.5 -111t58.5 -63.5t85 -29.5t128 -7l25 -92zM565 72
q42 0 73.5 -31.5t31.5 -73.5t-31.5 -73t-73.5 -31q-44 0 -75 30.5t-31 73.5t31 74t75 31zM1016 -33q0 -43 -31.5 -73.5t-75.5 -30.5q-42 0 -73 31t-31 73q0 43 31.5 74t72.5 31q44 0 75.5 -31t31.5 -74zM737 -387q-42 0 -73 31t-31 73q0 43 31.5 74t72.5 31q42 0 73.5 -31.5
t31.5 -73.5t-31.5 -73t-73.5 -31z" />
    <glyph glyph-name="uniFB7C" unicode="&#x686;" horiz-adv-x="1445" arabic-form="initial" 
d="M483 950q98 0 174 -18t128 -49t96 -69.5t89.5 -83t95.5 -85t127.5 -79.5t172.5 -64l-25 -160l-206 -16q-131 -10 -255.5 -47.5t-223 -83.5t-197 -90.5t-216.5 -74.5t-243 -30l-41 92l57 92q109 0 213 25.5t193 64t179.5 79t209 76t244.5 48.5q-75 32 -138.5 76t-103 79
t-84.5 66.5t-107.5 49.5t-148.5 18q-117 0 -248 -76l-86 160q171 100 344 100zM559 -295q0 -42 -31 -73t-73 -31q-44 0 -75.5 30.5t-31.5 73.5t31.5 74t75.5 31q41 0 72.5 -31t31.5 -74zM799 -190q44 0 75 -31t31 -74t-31 -73.5t-75 -30.5q-42 0 -73.5 31t-31.5 73
t31.5 73.5t73.5 31.5zM627 -440q41 0 72.5 -31t31.5 -74q0 -42 -31 -73t-73 -31t-73.5 31t-31.5 73t31.5 73.5t73.5 31.5z" />
    <glyph glyph-name="uniFB7D" unicode="&#x686;" horiz-adv-x="1458" arabic-form="medial" 
d="M1475 184l24 -92l-41 -92q-209 0 -332.5 92t-144.5 283q-90 -22 -191.5 -70.5t-188.5 -98.5t-180 -97.5t-202 -78t-219 -30.5l-41 92l57 92q106 0 209 29t193 73.5t179.5 91t206 90t236.5 62.5q-72 24 -135.5 58t-105.5 63.5t-87.5 56.5t-104.5 42.5t-134 15.5
q-117 0 -248 -76l-86 160q171 100 336 100q93 0 165 -15t123 -41t95 -58t91.5 -70t100.5 -73.5t134.5 -70.5t181.5 -59l-25 -160l-213 -8h-10q13 -58 35 -97t49 -61.5t72 -34.5t88 -15t113 -3zM743 -193q0 -42 -31 -73t-73 -31q-44 0 -75.5 30.5t-31.5 73.5t31.5 74t75.5 31
q41 0 72.5 -31t31.5 -74zM983 -88q44 0 75.5 -31t31.5 -74t-31.5 -73.5t-75.5 -30.5q-42 0 -73 31t-31 73q0 43 31.5 74t72.5 31zM811 -338q42 0 73 -31t31 -73t-31.5 -73.5t-72.5 -31.5t-72.5 31.5t-31.5 73.5t31 73t73 31z" />
    <glyph glyph-name="uniFB7F" unicode="&#x687;" horiz-adv-x="1357" arabic-form="final" 
d="M1358 0q-203 0 -308 94.5t-122 290.5h2q-146 -15 -263 -52t-195 -88.5t-130 -117t-75 -135t-23 -144.5q0 -200 144.5 -304.5t422.5 -104.5q259 0 446 96l70 -162q-200 -123 -534 -123q-177 0 -311.5 40.5t-219 116t-126.5 179t-42 232.5q0 142 50.5 262.5t151.5 216
t263.5 158.5t374.5 84q-64 29 -132.5 73.5t-110.5 75t-104 53.5t-132 23q-136 0 -267 -78l-86 160q167 104 367 104q73 0 136.5 -18.5t113 -49t95.5 -67.5t92.5 -77t95 -75t113 -63t136.5 -39l-20 -160l-164 -6q15 -70 35.5 -111t58.5 -63.5t85 -29.5t128 -7l25 -92z
M582 129q44 0 75 -32t31 -79q0 -42 -31 -72t-75 -30t-75.5 30.5t-31.5 71.5q0 47 31 79t76 32zM897 129q45 0 76 -32t31 -79q0 -41 -31.5 -71.5t-75.5 -30.5t-75 30t-31 72q0 47 31 79t75 32zM582 -172q44 0 75 -30.5t31 -73.5q0 -46 -31 -77.5t-75 -31.5t-75.5 31.5
t-31.5 77.5q0 43 31.5 73.5t75.5 30.5zM897 -172q44 0 75.5 -30.5t31.5 -73.5q0 -46 -31.5 -77.5t-75.5 -31.5t-75 31.5t-31 77.5q0 43 31 73.5t75 30.5z" />
    <glyph glyph-name="uniFB80" unicode="&#x687;" horiz-adv-x="1445" arabic-form="initial" 
d="M483 950q98 0 174 -18t128 -49t96 -69.5t89.5 -83t95.5 -85t127.5 -79.5t172.5 -64l-25 -160l-206 -16q-131 -10 -255.5 -47.5t-223 -83.5t-197 -90.5t-216.5 -74.5t-243 -30l-41 92l57 92q109 0 213 25.5t193 64t179.5 79t209 76t244.5 48.5q-75 32 -138.5 76t-103 79
t-84.5 66.5t-107.5 49.5t-148.5 18q-117 0 -248 -76l-86 160q171 100 344 100zM467 -160q45 0 75.5 -31.5t30.5 -78.5q0 -42 -31 -72.5t-75 -30.5t-75.5 30.5t-31.5 72.5q0 47 31 78.5t76 31.5zM782 -160q45 0 76 -31.5t31 -78.5q0 -42 -31.5 -72.5t-75.5 -30.5t-75 30.5
t-31 72.5q0 47 30.5 78.5t75.5 31.5zM467 -461q44 0 75 -30.5t31 -73.5q0 -46 -31 -77.5t-75 -31.5t-75.5 31.5t-31.5 77.5q0 43 31.5 73.5t75.5 30.5zM782 -461q44 0 75.5 -30.5t31.5 -73.5q0 -46 -31.5 -77.5t-75.5 -31.5t-75 31.5t-31 77.5q0 43 31 73.5t75 30.5z" />
    <glyph glyph-name="uniFB81" unicode="&#x687;" horiz-adv-x="1458" arabic-form="medial" 
d="M1475 184l24 -92l-41 -92q-209 0 -332.5 92t-144.5 283q-90 -22 -191.5 -70.5t-188.5 -98.5t-180 -97.5t-202 -78t-219 -30.5l-41 92l57 92q106 0 209 29t193 73.5t179.5 91t206 90t236.5 62.5q-72 24 -135.5 58t-105.5 63.5t-87.5 56.5t-104.5 42.5t-134 15.5
q-117 0 -248 -76l-86 160q171 100 336 100q93 0 165 -15t123 -41t95 -58t91.5 -70t100.5 -73.5t134.5 -70.5t181.5 -59l-25 -160l-213 -8h-10q13 -58 35 -97t49 -61.5t72 -34.5t88 -15t113 -3zM651 -57q45 0 76 -32t31 -79q0 -41 -31.5 -71.5t-75.5 -30.5t-75 30t-31 72
q0 47 31 79t75 32zM967 -57q44 0 75 -32t31 -79q0 -42 -31 -72t-75 -30t-75.5 30.5t-31.5 71.5q0 47 31 79t76 32zM651 -358q44 0 75.5 -31t31.5 -74q0 -45 -31 -76.5t-76 -31.5q-44 0 -75 31t-31 77q0 43 31 74t75 31zM967 -358q44 0 75 -31t31 -74q0 -46 -31 -77t-75 -31
q-45 0 -76 31.5t-31 76.5q0 43 31.5 74t75.5 31z" />
    <glyph glyph-name="uniFB83" unicode="&#x68d;" horiz-adv-x="1089" arabic-form="final" 
d="M1106 184l24 -92l-40 -92q-96 0 -172 47.5t-119 126.5q-111 -203 -422 -203q-164 0 -326 43l55 181q162 -35 283 -35q214 0 352 129l-313 704l182 86l254 -651q29 -73 48 -112.5t47 -73t62.5 -46t84.5 -12.5zM272 -186q44 0 75.5 -31.5t31.5 -75.5t-31.5 -75t-75.5 -31
q-43 0 -74.5 31t-31.5 75t31.5 75.5t74.5 31.5zM590 -186q43 0 74.5 -31.5t31.5 -75.5t-31.5 -75t-74.5 -31q-44 0 -75.5 31t-31.5 75t31.5 75.5t75.5 31.5z" />
    <glyph glyph-name="uniFB85" unicode="&#x68c;" horiz-adv-x="1089" arabic-form="final" 
d="M279 1264q-43 0 -75 31t-32 75t32 75.5t75 31.5q44 0 75 -31.5t31 -75.5t-31 -75t-75 -31zM596 1264q-44 0 -75.5 31t-31.5 75t31.5 75.5t75.5 31.5q43 0 74.5 -31.5t31.5 -75.5t-31.5 -75t-74.5 -31zM1106 184l24 -92l-40 -92q-96 0 -172 47.5t-119 126.5
q-111 -203 -422 -203q-164 0 -326 43l55 181q162 -35 283 -35q214 0 352 129l-313 704l182 86l254 -651q29 -73 48 -112.5t47 -73t62.5 -46t84.5 -12.5z" />
    <glyph glyph-name="uniFB87" unicode="&#x68e;" horiz-adv-x="1089" arabic-form="final" 
d="M438 1464q-42 0 -73 31t-31 74q0 42 31 73t73 31t73.5 -31t31.5 -73t-31.5 -73.5t-73.5 -31.5zM266 1214q-44 0 -75 31t-31 74t31 73.5t75 30.5q42 0 73.5 -31t31.5 -73t-31.5 -73.5t-73.5 -31.5zM506 1319q0 42 31 73t73 31q44 0 75.5 -30.5t31.5 -73.5t-31.5 -74
t-75.5 -31q-42 0 -73 31t-31 74zM1106 184l24 -92l-40 -92q-96 0 -172 47.5t-119 126.5q-111 -203 -422 -203q-164 0 -326 43l55 181q162 -35 283 -35q214 0 352 129l-313 704l182 86l254 -651q29 -73 48 -112.5t47 -73t62.5 -46t84.5 -12.5z" />
    <glyph glyph-name="uniFB89" unicode="&#x688;" horiz-adv-x="1089" arabic-form="final" 
d="M694 1395q0 -31 -11 -61t-33.5 -58t-64 -45t-96.5 -17h-315l12 103h54q14 21 22 37v291h100v-154q78 86 164 86q74 0 121 -52t47 -130zM326 1317h145q67 0 96 18.5t29 61.5q0 76 -78 76q-90 0 -192 -156zM1106 184l24 -92l-40 -92q-96 0 -172 47.5t-119 126.5
q-111 -203 -422 -203q-164 0 -326 43l55 181q162 -35 283 -35q214 0 352 129l-313 704l182 86l254 -651q29 -73 48 -112.5t47 -73t62.5 -46t84.5 -12.5z" />
    <glyph glyph-name="uniFB8B" unicode="&#x698;" horiz-adv-x="845" arabic-form="final" 
d="M371 1163q-42 0 -73.5 31.5t-31.5 73.5t31.5 73t73.5 31t73 -31t31 -73t-31.5 -73.5t-72.5 -31.5zM199 913q-44 0 -75.5 31t-31.5 74t31.5 73.5t75.5 30.5q42 0 73 -31t31 -73t-31.5 -73.5t-72.5 -31.5zM438 1018q0 42 31.5 73t73.5 31q44 0 75 -30.5t31 -73.5t-31 -74
t-75 -31q-42 0 -73.5 31.5t-31.5 73.5zM862 184l25 -92l-41 -92q-159 0 -223 100q-26 -230 -181.5 -384t-427.5 -230l-75 178q145 40 252 98t168.5 125.5t90.5 138t29 146.5q0 162 -160 498l195 61q18 -50 80 -262q42 -162 98 -223.5t170 -61.5z" />
    <glyph glyph-name="uniFB8D" unicode="&#x691;" horiz-adv-x="845" arabic-form="final" 
d="M627 1094q0 -31 -11 -61t-33.5 -58t-64 -45t-96.5 -17h-316l13 103h53q18 27 23 37v290h100v-153q78 86 164 86q74 0 121 -52t47 -130zM258 1016h145q67 0 96 18.5t29 61.5q0 75 -77 75q-91 0 -193 -155zM862 184l25 -92l-41 -92q-159 0 -223 100q-26 -230 -181.5 -384
t-427.5 -230l-75 178q145 40 252 98t168.5 125.5t90.5 138t29 146.5q0 162 -160 498l195 61q18 -50 80 -262q42 -162 98 -223.5t170 -61.5z" />
    <glyph glyph-name="uniFB8F" unicode="&#x6a9;" horiz-adv-x="2043" arabic-form="final" 
d="M2060 184l25 -88l-41 -96q-185 0 -314 73.5t-264 272.5q-4 -64 -30 -117.5t-84 -102t-144 -82t-218 -53.5t-300 -20q-220 0 -352 46t-189 137t-57 239q0 171 76 326l129 -43q-43 -133 -43 -256q0 -99 42.5 -155t140.5 -82.5t270 -26.5q147 0 258 13t178 35t108.5 54.5
t56.5 66.5t15 76q0 129 -139 304l-164 204l37 166l823 502l-10 -195l-688 -405l377 -475q61 -77 97.5 -120.5t78 -84t70.5 -58.5t70.5 -33t82.5 -18.5t102 -3.5z" />
    <glyph glyph-name="uniFB90" unicode="&#x6a9;" horiz-adv-x="954" arabic-form="initial" 
d="M862 1577l-10 -195l-659 -389q166 -74 273.5 -141t165.5 -134.5t79.5 -131t21.5 -146.5q0 -215 -182 -327.5t-551 -112.5l-41 92l57 92q164 0 276 20t172 58.5t84.5 86t24.5 112.5q0 49 -20.5 91t-79 95t-175.5 116.5t-298 139.5l39 174z" />
    <glyph glyph-name="uniFB91" unicode="&#x6a9;" horiz-adv-x="1124" arabic-form="medial" 
d="M1141 184l24 -88l-41 -96q-185 0 -313.5 73.5t-263.5 272.5q-11 -156 -153 -251t-394 -95l-41 92l57 92q195 0 291 57.5t96 159.5q0 129 -139 304l-164 204l37 166l824 502l-11 -195l-688 -405l377 -475q61 -76 97.5 -120t78.5 -84.5t71 -59t70.5 -33t82.5 -18t102 -3.5z
" />
    <glyph glyph-name="uniFB93" unicode="&#x6af;" horiz-adv-x="2043" arabic-form="final" 
d="M1880 1808l-8 -137l-805 -485l35 147zM2060 184l25 -88l-41 -96q-185 0 -314 73.5t-264 272.5q-4 -64 -30 -117.5t-84 -102t-144 -82t-218 -53.5t-300 -20q-220 0 -352 46t-189 137t-57 239q0 171 76 326l129 -43q-43 -133 -43 -256q0 -99 42.5 -155t140.5 -82.5
t270 -26.5q147 0 258 13t178 35t108.5 54.5t56.5 66.5t15 76q0 129 -139 304l-164 204l37 166l823 502l-10 -195l-688 -405l377 -475q61 -77 97.5 -120.5t78 -84t70.5 -58.5t70.5 -33t82.5 -18.5t102 -3.5z" />
    <glyph glyph-name="uniFB94" unicode="&#x6af;" horiz-adv-x="954" arabic-form="initial" 
d="M856 1808l-8 -137l-805 -485l35 147zM862 1577l-10 -195l-659 -389q166 -74 273.5 -141t165.5 -134.5t79.5 -131t21.5 -146.5q0 -215 -182 -327.5t-551 -112.5l-41 92l57 92q164 0 276 20t172 58.5t84.5 86t24.5 112.5q0 49 -20.5 91t-79 95t-175.5 116.5t-298 139.5
l39 174z" />
    <glyph glyph-name="uniFB95" unicode="&#x6af;" horiz-adv-x="1124" arabic-form="medial" 
d="M938 1808l-8 -137l-805 -485l35 147zM1141 184l24 -88l-41 -96q-185 0 -313.5 73.5t-263.5 272.5q-11 -156 -153 -251t-394 -95l-41 92l57 92q195 0 291 57.5t96 159.5q0 129 -139 304l-164 204l37 166l824 502l-11 -195l-688 -405l377 -475q61 -76 97.5 -120t78.5 -84.5
t71 -59t70.5 -33t82.5 -18t102 -3.5z" />
    <glyph glyph-name="uniFB97" unicode="&#x6b3;" horiz-adv-x="2043" arabic-form="final" 
d="M1880 1808l-8 -137l-805 -485l35 147zM2060 184l25 -88l-41 -96q-185 0 -314 73.5t-264 272.5q-4 -64 -30 -117.5t-84 -102t-144 -82t-218 -53.5t-300 -20q-220 0 -352 46t-189 137t-57 239q0 171 76 326l129 -43q-43 -133 -43 -256q0 -99 42.5 -155t140.5 -82.5
t270 -26.5q147 0 258 13t178 35t108.5 54.5t56.5 66.5t15 76q0 129 -139 304l-164 204l37 166l823 502l-10 -195l-688 -405l377 -475q61 -77 97.5 -120.5t78 -84t70.5 -58.5t70.5 -33t82.5 -18.5t102 -3.5zM778 -377q-43 0 -74.5 31.5t-31.5 75.5t31.5 75t74.5 31
q44 0 75.5 -31t31.5 -75t-31.5 -75.5t-75.5 -31.5zM780 -467q43 0 75 -31t32 -75t-32 -75.5t-75 -31.5q-44 0 -75 31.5t-31 75.5t31 75t75 31z" />
    <glyph glyph-name="uniFB98" unicode="&#x6b3;" horiz-adv-x="954" arabic-form="initial" 
d="M856 1808l-8 -137l-805 -485l35 147zM862 1577l-10 -195l-659 -389q166 -74 273.5 -141t165.5 -134.5t79.5 -131t21.5 -146.5q0 -215 -182 -327.5t-551 -112.5l-41 92l57 92q164 0 276 20t172 58.5t84.5 86t24.5 112.5q0 49 -20.5 91t-79 95t-175.5 116.5t-298 139.5
l39 174zM231 -377q-43 0 -74.5 31.5t-31.5 75.5t31.5 75t74.5 31q44 0 75.5 -31t31.5 -75t-31.5 -75.5t-75.5 -31.5zM233 -467q43 0 75 -31t32 -75t-32 -75.5t-75 -31.5q-44 0 -75 31.5t-31 75.5t31 75t75 31z" />
    <glyph glyph-name="uniFB99" unicode="&#x6b3;" horiz-adv-x="1124" arabic-form="medial" 
d="M938 1808l-8 -137l-805 -485l35 147zM1141 184l24 -88l-41 -96q-185 0 -313.5 73.5t-263.5 272.5q-11 -156 -153 -251t-394 -95l-41 92l57 92q195 0 291 57.5t96 159.5q0 129 -139 304l-164 204l37 166l824 502l-11 -195l-688 -405l377 -475q61 -76 97.5 -120t78.5 -84.5
t71 -59t70.5 -33t82.5 -18t102 -3.5zM590 -377q-43 0 -75 31.5t-32 75.5t32 75t75 31q44 0 75 -31t31 -75t-31 -75.5t-75 -31.5zM592 -467q43 0 74.5 -31t31.5 -75t-31.5 -75.5t-74.5 -31.5q-44 0 -75.5 31.5t-31.5 75.5t31.5 75t75.5 31z" />
    <glyph glyph-name="uniFB9B" unicode="&#x6b1;" horiz-adv-x="2043" arabic-form="final" 
d="M961 1630q-43 0 -75 31.5t-32 75.5t32 75t75 31q44 0 75 -31t31 -75t-31 -75.5t-75 -31.5zM1278 1630q-44 0 -75.5 31.5t-31.5 75.5t31.5 75t75.5 31q43 0 74.5 -31t31.5 -75t-31.5 -75.5t-74.5 -31.5zM1872 1671l-805 -485l35 147l778 475zM2060 184l25 -88l-41 -96
q-185 0 -314 73.5t-264 272.5q-4 -64 -30 -117.5t-84 -102t-144 -82t-218 -53.5t-300 -20q-220 0 -352 46t-189 137t-57 239q0 171 76 326l129 -43q-43 -133 -43 -256q0 -99 42.5 -155t140.5 -82.5t270 -26.5q147 0 258 13t178 35t108.5 54.5t56.5 66.5t15 76
q0 129 -139 304l-164 204l37 166l823 502l-10 -195l-688 -405l377 -475q61 -77 97.5 -120.5t78 -84t70.5 -58.5t70.5 -33t82.5 -18.5t102 -3.5z" />
    <glyph glyph-name="uniFB9C" unicode="&#x6b1;" horiz-adv-x="954" arabic-form="initial" 
d="M45 1737q0 -44 -31 -75.5t-75 -31.5q-43 0 -75 31.5t-32 75.5t32 75t75 31q44 0 75 -31t31 -75zM256 1630q-44 0 -75 31.5t-31 75.5t31 75t75 31q43 0 74.5 -31t31.5 -75t-31.5 -75.5t-74.5 -31.5zM848 1671l-805 -485l35 147l778 475zM862 1577l-10 -195l-659 -389
q166 -74 273.5 -141t165.5 -134.5t79.5 -131t21.5 -146.5q0 -215 -182 -327.5t-551 -112.5l-41 92l57 92q164 0 276 20t172 58.5t84.5 86t24.5 112.5q0 49 -20.5 91t-79 95t-175.5 116.5t-298 139.5l39 174z" />
    <glyph glyph-name="uniFB9D" unicode="&#x6b1;" horiz-adv-x="1124" arabic-form="medial" 
d="M133 1737q0 -44 -31 -75.5t-75 -31.5q-43 0 -75 31.5t-32 75.5t32 75t75 31q44 0 75 -31t31 -75zM344 1630q-44 0 -75 31.5t-31 75.5t31 75t75 31q43 0 75 -31t32 -75t-32 -75.5t-75 -31.5zM930 1671l-805 -485l35 147l778 475zM1141 184l24 -88l-41 -96
q-185 0 -313.5 73.5t-263.5 272.5q-11 -156 -153 -251t-394 -95l-41 92l57 92q195 0 291 57.5t96 159.5q0 129 -139 304l-164 204l37 166l824 502l-11 -195l-688 -405l377 -475q61 -76 97.5 -120t78.5 -84.5t71 -59t70.5 -33t82.5 -18t102 -3.5z" />
    <glyph glyph-name="uniFB9F" unicode="&#x6ba;" horiz-adv-x="1507" arabic-form="final" 
d="M1548 92l-41 -92q-143 0 -227 76q-6 -170 -49.5 -288t-127.5 -187.5t-197.5 -100t-270.5 -30.5q-278 0 -410.5 135t-132.5 375q0 205 96 401l129 -39q-57 -154 -57 -336q0 -61 12 -112.5t41 -96.5t73 -76t111.5 -49t153.5 -18q253 0 358 101.5t105 344.5q0 117 -30.5 225
t-102.5 267l188 76q8 -33 19.5 -70t27.5 -83.5t23 -68.5q49 -154 113 -208t172 -54z" />
    <glyph glyph-name="uniFBA1" unicode="&#x6bb;" horiz-adv-x="1507" arabic-form="final" 
d="M901 862q0 -31 -11 -60.5t-33.5 -57.5t-64 -45t-96.5 -17h-315l12 102h53q18 27 23 37v291h100v-154q78 86 164 86q74 0 121 -52t47 -130zM532 784h146q67 0 96 18.5t29 61.5q0 76 -78 76q-91 0 -193 -156zM1548 92l-41 -92q-143 0 -227 76q-6 -170 -49.5 -288
t-127.5 -187.5t-197.5 -100t-270.5 -30.5q-278 0 -410.5 135t-132.5 375q0 205 96 401l129 -39q-57 -154 -57 -336q0 -61 12 -112.5t41 -96.5t73 -76t111.5 -49t153.5 -18q253 0 358 101.5t105 344.5q0 117 -30.5 225t-102.5 267l188 76q8 -33 19.5 -70t27.5 -83.5t23 -68.5
q49 -154 113 -208t172 -54z" />
    <glyph glyph-name="uniFBA2" unicode="&#x6bb;" horiz-adv-x="598" arabic-form="initial" 
d="M516 1174q0 -31 -11 -61t-33.5 -58t-64 -45t-96.5 -17h-315l12 103h53q18 27 23 37v290h100v-153q78 86 164 86q74 0 121 -52t47 -130zM147 1096h146q67 0 96 18.5t29 61.5q0 75 -78 75q-91 0 -193 -155zM223 793l176 57q41 -123 63.5 -253.5t22.5 -223.5
q0 -111 -22.5 -180.5t-80 -114t-148 -61.5t-234.5 -17l-41 92l57 92q128 0 192 19t86.5 59.5t22.5 120.5q0 139 -94 410z" />
    <glyph glyph-name="uniFBA3" unicode="&#x6bb;" horiz-adv-x="708" arabic-form="medial" 
d="M610 1042q0 -31 -10.5 -60.5t-33 -57.5t-64 -45t-96.5 -17h-316l12 103h54q16 24 22 36v291h101v-153q78 86 163 86q74 0 121 -52.5t47 -130.5zM242 965h145q68 0 96.5 18t28.5 61q0 76 -78 76q-90 0 -192 -155zM725 184l25 -92l-41 -92q-139 0 -219 32.5t-132 121.5
q-48 -89 -128 -121.5t-230 -32.5l-41 92l59 92q92 0 144.5 11.5t75 46t26.5 64t4 97.5v17v272h172v-272q0 -70 8 -109t37 -71t86 -44t154 -12z" />
    <glyph glyph-name="uniFBA5" unicode="&#x6c0;" horiz-adv-x="1050" arabic-form="final" 
d="M563 1171l-12 103l131 22q-86 77 -86 148q0 80 55.5 132t159.5 52q71 0 156 -45l-64 -100q-57 33 -106 33q-47 0 -67.5 -23t-20.5 -53q0 -55 86 -125l190 33l14 -105zM1067 184l25 -94l-41 -90h-39q-227 0 -301 205q-54 -63 -138 -99t-172 -36q-157 0 -253.5 86.5
t-96.5 226.5q0 85 43 163.5t122.5 142t202 106t271.5 53.5v194l172 21v-649q0 -131 41 -180.5t125 -49.5h39zM430 242q78 0 145.5 30.5t114.5 79.5v330q-121 -4 -215 -30t-149.5 -65.5t-84 -86.5t-28.5 -99q0 -159 217 -159z" />
    <glyph glyph-name="uniFBA7" unicode="&#x6c1;" horiz-adv-x="1222" arabic-form="final" 
d="M227 -94l-176 35q85 367 213.5 529.5t296.5 162.5q75 0 132 -25t92.5 -64.5t66 -87.5t62.5 -95.5t72 -87t104 -64.5t149 -25l25 -92l-41 -92q-103 0 -186 25t-135 64.5t-93 87t-69 95.5t-53.5 87.5t-56.5 64.5t-69 25q-48 0 -89.5 -26t-74.5 -70.5t-64 -115t-55.5 -149
t-50.5 -182.5z" />
    <glyph glyph-name="uniFBA8" unicode="&#x6c1;" horiz-adv-x="598" arabic-form="initial" 
d="M16 184q128 0 192 19t86.5 59.5t22.5 120.5q0 139 -94 410l176 57q41 -123 63.5 -253.5t22.5 -223.5q0 -111 -22.5 -180.5t-80 -114t-148 -61.5t-234.5 -17l-41 92zM266 -520q-52 0 -84 31t-32 88q0 56 43 157l61 142h70l-31 -205q82 -19 82 -109q0 -44 -31 -74t-78 -30z
" />
    <glyph glyph-name="uniFBA9" unicode="&#x6c1;" horiz-adv-x="1208" arabic-form="medial" 
d="M1225 184l24 -92l-41 -92h-57q-156 0 -242 -81t-86 -249q0 -122 31 -254l-156 -51q-315 352 -321 772q-118 -137 -316 -137h-61l-41 92l57 92h64q134 0 221 108.5t160 348.5l18 61l160 -43q-86 -307 -86 -475q0 -147 27 -260t104 -258q-2 20 -2 55q0 230 124.5 346.5
t364.5 116.5h54z" />
    <glyph glyph-name="uniFBAB" unicode="&#x6be;" horiz-adv-x="1196" arabic-form="final" 
d="M1237 92l-41 -92h-227q135 -99 135 -276q0 -129 -78.5 -207t-208.5 -78q-127 0 -234 70.5t-173.5 199.5t-75.5 293q-186 9 -283 68l82 161q77 -40 201 -45q8 201 78 369t181.5 264t237.5 96q135 0 212 -86t77 -249q0 -102 -52 -213.5t-144 -182.5h288zM805 731
q-118 0 -218.5 -152.5t-119.5 -394.5h106q111 0 201 55t137 140t47 180q0 83 -38.5 127.5t-114.5 44.5zM799 -377q74 0 112.5 40.5t38.5 103.5q0 106 -82 169.5t-221 63.5h-180q20 -179 110.5 -278t221.5 -99z" />
    <glyph glyph-name="uniFBAC" unicode="&#x6be;" horiz-adv-x="1312" arabic-form="initial" 
d="M297 1141q125 -73 209.5 -123.5t173.5 -105.5t145 -92t114.5 -79t92 -71t67 -63.5t49.5 -61.5t29.5 -60t18 -63.5t4.5 -67.5q0 -99 -47 -187.5t-126 -142t-167 -53.5q-217 0 -401 101q-174 -72 -400 -72h-59l-41 92l57 92h35q121 0 232 19q-156 163 -156 362
q0 115 57.5 207.5t153.5 132.5l-135 76zM256 559q0 -86 57.5 -164t157.5 -137q211 95 211 297q0 100 -63.5 168t-153.5 68q-89 0 -149 -66t-60 -166zM860 156q89 0 144 44t55 113q0 73 -55 142t-197 168q4 -40 4 -58q0 -228 -168 -379q105 -30 217 -30z" />
    <glyph glyph-name="uniFBAD" unicode="&#x6be;" horiz-adv-x="983" arabic-form="medial" 
d="M1024 92l-41 -92h-227q135 -99 135 -276q0 -129 -78.5 -207t-208.5 -78q-194 0 -332 157.5t-151 403.5h-121l-41 92l57 92h105q8 201 78 369.5t181.5 265t237.5 96.5q135 0 212 -86t77 -249q0 -102 -52 -213.5t-144 -182.5h288zM592 731q-118 0 -218.5 -152.5
t-119.5 -394.5h106q111 0 201 55t137 140t47 180q0 83 -38.5 127.5t-114.5 44.5zM586 -377q74 0 112.5 40.5t38.5 103.5q0 106 -82 169.5t-221 63.5h-180q20 -179 110.5 -278t221.5 -99z" />
    <glyph glyph-name="uniFBAF" unicode="&#x6d2;" horiz-adv-x="1593" arabic-form="final" 
d="M1509 -563h-1075q-182 0 -277.5 75.5t-95.5 186.5q0 70 25.5 138t82 131.5t138 111.5t203 77t266.5 29h834l24 -94l-41 -92h-854q-135 0 -239 -24t-163.5 -64t-89.5 -87.5t-30 -98.5q0 -105 176 -105h1176z" />
    <glyph glyph-name="uniFBB1" unicode="&#x6d3;" horiz-adv-x="1593" arabic-form="final" 
d="M735 553l15 -104l-437 -72l-12 102l131 23q-86 77 -86 147q0 80 55.5 132.5t159.5 52.5q69 0 156 -46l-64 -100q-57 33 -106 33q-47 0 -67.5 -23t-20.5 -53q0 -55 86 -125zM1509 -563h-1075q-182 0 -277.5 75.5t-95.5 186.5q0 70 25.5 138t82 131.5t138 111.5t203 77
t266.5 29h834l24 -94l-41 -92h-854q-135 0 -239 -24t-163.5 -64t-89.5 -87.5t-30 -98.5q0 -105 176 -105h1176z" />
    <glyph glyph-name="uniFBD4" unicode="&#x6ad;" horiz-adv-x="1708" arabic-form="final" 
d="M1442 1968q-42 0 -73.5 31.5t-31.5 73.5t31.5 73t73.5 31t73 -31t31 -73q0 -43 -31 -74t-73 -31zM1270 1718q-44 0 -75.5 31t-31.5 74t31.5 73.5t75.5 30.5q42 0 73 -31t31 -73q0 -43 -31 -74t-73 -31zM1509 1823q0 42 31.5 73t73.5 31q44 0 75 -30.5t31 -73.5t-31 -74
t-75 -31q-42 0 -73.5 31.5t-31.5 73.5zM1724 184l25 -88l-41 -96q-95 0 -160 37t-121 117q-143 -93 -315 -138t-422 -45q-220 0 -352 46t-189 137t-57 239q0 171 76 326l129 -43q-43 -133 -43 -256q0 -99 42.5 -155t140.5 -82.5t270 -26.5q378 0 649 159v1239l172 23v-1174
q0 -58 7.5 -95.5t28 -67t60 -43t100.5 -13.5zM594 668q291 0 291 67q0 31 -45 52.5t-185 50.5l23 123l340 200l-8 -131l-209 -119q111 -32 157 -72.5t46 -103.5q0 -182 -392 -182z" />
    <glyph glyph-name="uniFBD5" unicode="&#x6ad;" horiz-adv-x="954" arabic-form="initial" 
d="M121 1686q-42 0 -73.5 31t-31.5 73t31.5 73t73.5 31t73 -31t31 -73t-31 -73t-73 -31zM53 1540q0 -42 -31 -73t-73 -31q-44 0 -75.5 30.5t-31.5 73.5t31.5 74t75.5 31q41 0 72.5 -31.5t31.5 -73.5zM188 1540q0 42 31.5 73.5t73.5 31.5q44 0 75 -31t31 -74t-31 -73.5
t-75 -30.5q-42 0 -73.5 31t-31.5 73zM862 1577l-10 -195l-659 -389q166 -74 273.5 -141t165.5 -134.5t79.5 -131t21.5 -146.5q0 -215 -182 -327.5t-551 -112.5l-41 92l57 92q164 0 276 20t172 58.5t84.5 86t24.5 112.5q0 49 -20.5 91t-79 95t-175.5 116.5t-298 139.5l39 174
z" />
    <glyph glyph-name="uniFBD6" unicode="&#x6ad;" horiz-adv-x="1124" arabic-form="medial" 
d="M203 1686q-42 0 -73.5 31t-31.5 73t31.5 73t73.5 31t73 -31t31 -73t-31 -73t-73 -31zM135 1540q0 -42 -31 -73t-73 -31q-44 0 -75.5 30.5t-31.5 73.5t31.5 74t75.5 31q41 0 72.5 -31.5t31.5 -73.5zM270 1540q0 42 31.5 73.5t73.5 31.5q44 0 75 -31t31 -74t-31 -73.5
t-75 -30.5q-42 0 -73.5 31t-31.5 73zM1141 184l24 -88l-41 -96q-185 0 -313.5 73.5t-263.5 272.5q-11 -156 -153 -251t-394 -95l-41 92l57 92q195 0 291 57.5t96 159.5q0 129 -139 304l-164 204l37 166l824 502l-11 -195l-688 -405l377 -475q61 -76 97.5 -120t78.5 -84.5
t71 -59t70.5 -33t82.5 -18t102 -3.5z" />
    <glyph glyph-name="uniFBD8" unicode="&#x6c7;" horiz-adv-x="1103" arabic-form="final" 
d="M389 860l-47 96q100 32 164 76q-133 59 -133 166q0 83 53 131.5t125 48.5q80 0 124 -51t44 -125q0 -96 -83 -189t-247 -153zM477 1196q0 -29 25 -50.5t84 -39.5q32 43 32 86q0 30 -19 51t-50 21q-32 0 -52 -17.5t-20 -50.5zM1145 94l-41 -94h-211q-34 -145 -118.5 -251
t-238.5 -183.5t-386 -126.5l-58 178q286 63 437 155t204 228h-155q-213 0 -332 107.5t-119 277.5q0 169 114.5 291.5t278.5 122.5q174 0 286 -151t112 -410v-54h202zM592 184h176v25q0 204 -67 305.5t-185 101.5q-104 0 -172 -63.5t-68 -159.5q0 -209 316 -209z" />
    <glyph glyph-name="uniFBDA" unicode="&#x6c6;" horiz-adv-x="1103" arabic-form="final" 
d="M571 881h-98l-156 290l93 37l114 -194l115 194l92 -37zM1145 94l-41 -94h-211q-34 -145 -118.5 -251t-238.5 -183.5t-386 -126.5l-58 178q286 63 437 155t204 228h-155q-213 0 -332 107.5t-119 277.5q0 169 114.5 291.5t278.5 122.5q174 0 286 -151t112 -410v-54h202z
M592 184h176v25q0 204 -67 305.5t-185 101.5q-104 0 -172 -63.5t-68 -159.5q0 -209 316 -209z" />
    <glyph glyph-name="uniFBDC" unicode="&#x6c8;" horiz-adv-x="1103" arabic-form="final" 
d="M582 1276v-375h-117v361zM1145 94l-41 -94h-211q-34 -145 -118.5 -251t-238.5 -183.5t-386 -126.5l-58 178q286 63 437 155t204 228h-155q-213 0 -332 107.5t-119 277.5q0 169 114.5 291.5t278.5 122.5q174 0 286 -151t112 -410v-54h202zM592 184h176v25q0 204 -67 305.5
t-185 101.5q-104 0 -172 -63.5t-68 -159.5q0 -209 316 -209z" />
    <glyph glyph-name="uniFBDF" unicode="&#x6cb;" horiz-adv-x="1103" arabic-form="final" 
d="M524 1190q-42 0 -73 31t-31 73t31 73.5t73 31.5t73.5 -31.5t31.5 -73.5t-31.5 -73t-73.5 -31zM352 940q-44 0 -75 30.5t-31 73.5t31 74t75 31q42 0 73.5 -31.5t31.5 -73.5t-31.5 -73t-73.5 -31zM592 1044q0 42 31 73.5t73 31.5q44 0 75.5 -31t31.5 -74t-31.5 -73.5
t-75.5 -30.5q-42 0 -73 31t-31 73zM1145 94l-41 -94h-211q-34 -145 -118.5 -251t-238.5 -183.5t-386 -126.5l-58 178q286 63 437 155t204 228h-155q-213 0 -332 107.5t-119 277.5q0 169 114.5 291.5t278.5 122.5q174 0 286 -151t112 -410v-54h202zM592 184h176v25
q0 204 -67 305.5t-185 101.5q-104 0 -172 -63.5t-68 -159.5q0 -209 316 -209z" />
    <glyph glyph-name="uniFBE1" unicode="&#x6c5;" horiz-adv-x="1103" arabic-form="final" 
d="M1145 94l-41 -94h-211q-34 -145 -118.5 -251t-238.5 -183.5t-386 -126.5l-58 178q274 62 420 145l-358 9l-66 108l551 -24q63 63 94 145h-155q-213 0 -332 107.5t-119 277.5q0 169 114.5 291.5t278.5 122.5q174 0 286 -151t112 -410v-54h202zM592 184h176v25
q0 204 -67 305.5t-185 101.5q-104 0 -172 -63.5t-68 -159.5q0 -209 316 -209z" />
    <glyph glyph-name="uniFBE3" unicode="&#x6c9;" horiz-adv-x="1103" arabic-form="final" 
d="M524 1126l-114 -194l-93 37l156 291h98l160 -291l-92 -37zM1145 94l-41 -94h-211q-34 -145 -118.5 -251t-238.5 -183.5t-386 -126.5l-58 178q286 63 437 155t204 228h-155q-213 0 -332 107.5t-119 277.5q0 169 114.5 291.5t278.5 122.5q174 0 286 -151t112 -410v-54h202z
M592 184h176v25q0 204 -67 305.5t-185 101.5q-104 0 -172 -63.5t-68 -159.5q0 -209 316 -209z" />
    <glyph glyph-name="uniFBE5" unicode="&#x6d0;" horiz-adv-x="1509" arabic-form="final" 
d="M1550 92l-41 -92q-94 0 -172 35q15 -35 15 -72q0 -79 -46 -151t-132.5 -129t-226 -91t-312.5 -34q-278 0 -410.5 135t-132.5 375q0 205 96 401l129 -39q-57 -154 -57 -336q0 -61 12 -112.5t41 -96.5t73 -76t111.5 -49t153.5 -18q128 0 235.5 23.5t172 59t100 75.5
t35.5 77q0 56 -74.5 98t-275.5 99l80 162q62 -19 166.5 -55t157 -52t129.5 -30.5t149 -14.5zM653 -791q-43 0 -74.5 31.5t-31.5 75.5t31.5 75t74.5 31q44 0 75.5 -31t31.5 -75t-31.5 -75.5t-75.5 -31.5zM655 -881q43 0 75 -31t32 -75t-32 -75.5t-75 -31.5q-44 0 -75 31.5
t-31 75.5t31 75t75 31z" />
    <glyph glyph-name="uniFBE6" unicode="&#x6d0;" horiz-adv-x="598" arabic-form="initial" 
d="M16 184q128 0 192 19t86.5 59.5t22.5 120.5q0 139 -94 410l176 57q41 -123 63.5 -253.5t22.5 -223.5q0 -111 -22.5 -180.5t-80 -114t-148 -61.5t-234.5 -17l-41 92zM291 -377q-43 0 -75 31.5t-32 75.5t32 75t75 31q44 0 75 -31t31 -75t-31 -75.5t-75 -31.5zM293 -680
q-44 0 -75.5 31.5t-31.5 75.5t31.5 75t75.5 31q43 0 74.5 -31t31.5 -75t-31.5 -75.5t-74.5 -31.5z" />
    <glyph glyph-name="uniFBE7" unicode="&#x6d0;" horiz-adv-x="708" arabic-form="medial" 
d="M725 184l25 -92l-41 -92q-139 0 -219 32.5t-132 121.5q-48 -89 -128 -121.5t-230 -32.5l-41 92l59 92q92 0 144.5 11.5t75 46t26.5 64t4 97.5v17v272h172v-272q0 -70 8 -109t37 -71t86 -44t154 -12zM356 -377q-43 0 -74.5 31.5t-31.5 75.5t31.5 75t74.5 31q44 0 75.5 -31
t31.5 -75t-31.5 -75.5t-75.5 -31.5zM358 -467q43 0 75 -31t32 -75t-32 -75.5t-75 -31.5q-44 0 -75 31.5t-31 75.5t31 75t75 31z" />
    <glyph glyph-name="uniFBE8" unicode="&#x649;" horiz-adv-x="598" arabic-form="initial" 
d="M16 184q128 0 192 19t86.5 59.5t22.5 120.5q0 139 -94 410l176 57q41 -123 63.5 -253.5t22.5 -223.5q0 -111 -22.5 -180.5t-80 -114t-148 -61.5t-234.5 -17l-41 92z" />
    <glyph glyph-name="uniFBE9" unicode="&#x649;" horiz-adv-x="708" arabic-form="medial" 
d="M725 184l25 -92l-41 -92q-139 0 -219 32.5t-132 121.5q-48 -89 -128 -121.5t-230 -32.5l-41 92l59 92q92 0 144.5 11.5t75 46t26.5 64t4 97.5v17v272h172v-272q0 -70 8 -109t37 -71t86 -44t154 -12z" />
    <glyph glyph-name="uniFBFD" unicode="&#x6cc;" horiz-adv-x="1509" arabic-form="final" 
d="M1550 92l-41 -92q-94 0 -172 35q15 -35 15 -72q0 -79 -46 -151t-132.5 -129t-226 -91t-312.5 -34q-278 0 -410.5 135t-132.5 375q0 205 96 401l129 -39q-57 -154 -57 -336q0 -61 12 -112.5t41 -96.5t73 -76t111.5 -49t153.5 -18q128 0 235.5 23.5t172 59t100 75.5
t35.5 77q0 56 -74.5 98t-275.5 99l80 162q62 -19 166.5 -55t157 -52t129.5 -30.5t149 -14.5z" />
    <glyph glyph-name="uniFBFE" unicode="&#x6cc;" horiz-adv-x="598" arabic-form="initial" 
d="M16 184q128 0 192 19t86.5 59.5t22.5 120.5q0 139 -94 410l176 57q41 -123 63.5 -253.5t22.5 -223.5q0 -111 -22.5 -180.5t-80 -114t-148 -61.5t-234.5 -17l-41 92zM129 -399q-43 0 -74.5 31t-31.5 75t31.5 75.5t74.5 31.5q44 0 75.5 -31.5t31.5 -75.5t-31.5 -75
t-75.5 -31zM446 -399q-44 0 -75 31t-31 75t31 75.5t75 31.5q43 0 75 -31.5t32 -75.5t-32 -75t-75 -31z" />
    <glyph glyph-name="uniFBFF" unicode="&#x6cc;" horiz-adv-x="708" arabic-form="medial" 
d="M725 184l25 -92l-41 -92q-139 0 -219 32.5t-132 121.5q-48 -89 -128 -121.5t-230 -32.5l-41 92l59 92q92 0 144.5 11.5t75 46t26.5 64t4 97.5v17v272h172v-272q0 -70 8 -109t37 -71t86 -44t154 -12zM195 -186q44 0 75 -31.5t31 -75.5t-31 -75t-75 -31q-43 0 -75 31
t-32 75t32 75.5t75 31.5zM512 -186q43 0 74.5 -31.5t31.5 -75.5t-31.5 -75t-74.5 -31q-44 0 -75 31t-31 75t31 75.5t75 31.5z" />
    <glyph glyph-name="uniFC5B" unicode="&#xfc5b;" horiz-adv-x="978" arabic-form="isolated" 
d="M281 1929l116 15v-375h-116v360zM338 1202q-47 0 -80 33t-33 80t33 79.5t80 32.5t80 -32.5t33 -79.5t-33 -80t-80 -33zM381 -29q-203 0 -330 43l55 181q144 -35 275 -35q54 0 111 9t113.5 27.5t92 54.5t35.5 83q0 75 -39.5 165t-105.5 177.5t-127.5 156t-128.5 132.5
l135 120q57 -55 108.5 -111t111 -135t101.5 -156t70.5 -169.5t28.5 -179.5q0 -72 -26 -131t-70 -97t-96.5 -66t-112 -42t-108 -20.5t-93.5 -6.5z" />
    <glyph glyph-name="uniFC5C" unicode="&#xfc5c;" horiz-adv-x="743" arabic-form="isolated" 
d="M324 1235l116 14v-375h-116v361zM14 -514l-75 178q117 32 209 76.5t153 94t101 106.5t57.5 114t17.5 117q0 107 -33 212t-114 282l192 69q109 -300 109 -549q0 -255 -161.5 -434.5t-455.5 -265.5z" />
    <glyph glyph-name="uniFC61" unicode="&#xfc61;" arabic-form="isolated" 
d="M137 1599l-47 97q100 32 164 76q-133 59 -133 165q0 83 53 132t125 49q80 0 124 -51t44 -125q0 -96 -83 -189.5t-247 -153.5zM225 1935q0 -29 25 -50.5t84 -39.5q33 45 33 86q0 30 -19.5 51t-50.5 21q-32 0 -52 -17.5t-20 -50.5zM494 1608q36 -85 36 -176
q0 -77 -41.5 -118.5t-107.5 -41.5q-72 0 -105 49q-41 -59 -114 -59q-53 0 -98.5 40t-45.5 117q0 52 27 135l92 -20q-12 -46 -12 -92q0 -27 11.5 -46.5t33.5 -19.5q25 0 41 21t16 59v76h97v-84q0 -30 13 -48t36 -18q51 0 51 80q0 57 -25 115z" />
    <glyph glyph-name="uniFC63" unicode="&#xfc63;" arabic-form="isolated" 
d="M330 2015v-375h-117v361zM494 1608q36 -85 36 -176q0 -77 -41.5 -118.5t-107.5 -41.5q-72 0 -105 49q-41 -59 -114 -59q-53 0 -98.5 40t-45.5 117q0 52 27 135l92 -20q-12 -46 -12 -92q0 -27 11.5 -46.5t33.5 -19.5q25 0 41 21t16 59v76h97v-84q0 -30 13 -48t36 -18
q51 0 51 80q0 57 -25 115z" />
    <glyph glyph-name="uniFD3C" unicode="&#xfd3c;" horiz-adv-x="485" arabic-form="final" 
d="M-4 1583l4 115l446 86l-4 -115zM-4 1409l4 115l446 86l-4 -115zM133 420v862l172 21v-871q0 -143 40 -195.5t157 -52.5l24 -92l-41 -92q-180 0 -266 105.5t-86 314.5z" />
    <glyph glyph-name="uniFD3D" unicode="&#xfd3d;" horiz-adv-x="458" arabic-form="isolated" 
d="M2 1583l4 115l447 86l-4 -115zM2 1409l4 115l447 86l-4 -115zM315 0h-172v1282l172 21v-1303z" />
    <glyph glyph-name="uniFE70" unicode="&#xfe70;" horiz-adv-x="1228" arabic-form="isolated" 
d="M68 1380l4 115l446 86l-4 -115zM68 1206l4 115l446 86l-4 -115z" />
    <glyph glyph-name="uniFE72" unicode="&#xfe72;" horiz-adv-x="1228" arabic-form="isolated" 
d="M498 1708q77 0 118 -51t41 -125q0 -90 -77 -184.5t-209 -161.5l-99 43q0 58 -8.5 84t-34.5 26q-31 0 -79 -51l-58 68q78 88 144 88q109 0 126 -148q52 32 93 64q-136 60 -136 170q0 84 53 131t126 47zM422 1522q0 -58 102 -92q37 50 37 92q0 30 -18 50.5t-47 20.5
q-33 0 -53.5 -18t-20.5 -53z" />
    <glyph glyph-name="uniFE74" unicode="&#xfe74;" horiz-adv-x="1228" arabic-form="isolated" 
d="M68 -322l4 115l446 86l-4 -115zM70 -481l4 114l446 86l-4 -114z" />
    <glyph glyph-name="uniFE76" unicode="&#xfe76;" horiz-adv-x="1228" arabic-form="isolated" 
d="M68 1214l4 115l446 86l-4 -115z" />
    <glyph glyph-name="uniFE78" unicode="&#xfe78;" horiz-adv-x="1228" arabic-form="isolated" 
d="M231 1688q80 0 124 -51.5t44 -125.5q0 -96 -82.5 -189t-246.5 -153l-47 97q100 32 163 75q-133 59 -133 166q0 83 53 132t125 49zM158 1505q0 -29 25 -50.5t83 -39.5q33 45 33 86q0 30 -19.5 51t-50.5 21q-32 0 -51.5 -17.5t-19.5 -50.5z" />
    <glyph glyph-name="uniFE7C" unicode="&#xfe7c;" horiz-adv-x="1228" arabic-form="isolated" 
d="M494 1608q36 -85 36 -176q0 -77 -41.5 -118.5t-107.5 -41.5q-72 0 -105 49q-41 -59 -114 -59q-53 0 -98.5 40t-45.5 117q0 52 27 135l92 -20q-12 -46 -12 -92q0 -27 11.5 -46.5t33.5 -19.5q25 0 41 21t16 59v76h97v-84q0 -30 13 -48t36 -18q51 0 51 80q0 57 -25 115z" />
    <glyph glyph-name="uniFE7E" unicode="&#xfe7e;" horiz-adv-x="1228" arabic-form="isolated" 
d="M401 1378q0 -86 -56 -139t-140 -53t-140.5 53t-56.5 139t56.5 139.5t140.5 53.5t140 -53.5t56 -139.5zM297 1378q0 39 -24.5 63.5t-67.5 24.5t-67.5 -24.5t-24.5 -63.5t24.5 -63.5t67.5 -24.5t67.5 24.5t24.5 63.5z" />
    <glyph glyph-name="uniFE82" unicode="&#x622;" horiz-adv-x="485" arabic-form="final" 
d="M84 1421l-98 29q24 76 73 126t107 50q46 0 103 -29.5t87 -29.5q26 0 39.5 6t42.5 26l47 -81q-43 -37 -76.5 -51.5t-74.5 -14.5q-33 0 -87 27.5t-79 27.5q-29 0 -50.5 -25t-33.5 -61zM133 420v862l172 21v-871q0 -143 40 -195.5t157 -52.5l24 -92l-41 -92
q-180 0 -266 105.5t-86 314.5z" />
    <glyph glyph-name="uniFE84" unicode="&#x623;" horiz-adv-x="485" arabic-form="final" 
d="M432 1577l14 -104l-436 -72l-12 102l131 23q-86 77 -86 147q0 80 55.5 132.5t159.5 52.5q69 0 156 -46l-64 -100q-57 33 -106 33q-47 0 -67.5 -23t-20.5 -53q0 -55 86 -125zM502 184l24 -92l-41 -92q-180 0 -266 105.5t-86 314.5v862l172 21v-871q0 -143 40 -195.5
t157 -52.5z" />
    <glyph glyph-name="uniFE86" unicode="&#x624;" horiz-adv-x="1103" arabic-form="final" 
d="M311 889l-12 102l131 23q-86 77 -86 147q0 80 55.5 132.5t159.5 52.5q69 0 156 -46l-64 -100q-57 33 -106 33q-47 0 -67.5 -23t-20.5 -53q0 -55 86 -125l190 33l15 -104zM1145 94l-41 -94h-211q-34 -145 -118.5 -251t-238.5 -183.5t-386 -126.5l-58 178q286 63 437 155
t204 228h-155q-213 0 -332 107.5t-119 277.5q0 169 114.5 291.5t278.5 122.5q174 0 286 -151t112 -410v-54h202zM592 184h176v25q0 204 -67 305.5t-185 101.5q-104 0 -172 -63.5t-68 -159.5q0 -209 316 -209z" />
    <glyph glyph-name="uniFE88" unicode="&#x625;" horiz-adv-x="485" arabic-form="final" 
d="M502 184l24 -92l-41 -92q-180 0 -266 105.5t-86 314.5v1128l172 21v-1137q0 -143 40 -195.5t157 -52.5zM272 -395l191 33l14 -105l-436 -72l-12 103l131 22q-86 77 -86 148q0 80 55.5 132t159.5 52q70 0 155 -45l-63 -100q-56 32 -107 32q-47 0 -67.5 -22.5t-20.5 -52.5
q0 -55 86 -125z" />
    <glyph glyph-name="uniFE8A" unicode="&#x626;" horiz-adv-x="1509" arabic-form="final" 
d="M510 786l14 -104l-436 -72l-12 103l131 22q-86 77 -86 148q0 80 55.5 132t159.5 52q71 0 156 -45l-64 -100q-56 32 -106 32q-48 0 -68.5 -22.5t-20.5 -52.5q0 -55 86 -125zM1550 92l-41 -92q-94 0 -172 35q15 -35 15 -72q0 -79 -46 -151t-132.5 -129t-226 -91t-312.5 -34
q-278 0 -410.5 135t-132.5 375q0 205 96 401l129 -39q-57 -154 -57 -336q0 -61 12 -112.5t41 -96.5t73 -76t111.5 -49t153.5 -18q128 0 235.5 23.5t172 59t100 75.5t35.5 77q0 56 -74.5 98t-275.5 99l80 162q62 -19 166.5 -55t157 -52t129.5 -30.5t149 -14.5z" />
    <glyph glyph-name="uniFE8B" unicode="&#x626;" horiz-adv-x="598" arabic-form="initial" 
d="M47 942l-12 102l131 23q-86 77 -86 147q0 80 55.5 132.5t159.5 52.5q71 0 156 -45l-64 -101q-57 33 -106 33q-47 0 -67.5 -23t-20.5 -53q0 -55 86 -125l190 33l14 -104zM399 850q41 -123 63.5 -253.5t22.5 -223.5q0 -111 -22.5 -180.5t-80 -114t-148 -61.5t-234.5 -17
l-41 92l57 92q128 0 192 19t86.5 59.5t22.5 120.5q0 139 -94 410z" />
    <glyph glyph-name="uniFE8C" unicode="&#x626;" horiz-adv-x="708" arabic-form="medial" 
d="M141 811l-12 102l131 23q-86 77 -86 147q0 80 55.5 132.5t159.5 52.5q71 0 156 -45l-64 -101q-57 33 -106 33q-47 0 -67.5 -23t-20.5 -53q0 -55 86 -125l190 33l15 -104zM725 184l25 -92l-41 -92q-139 0 -219 32.5t-132 121.5q-48 -89 -128 -121.5t-230 -32.5l-41 92
l59 92q92 0 144.5 11.5t75 46t26.5 64t4 97.5v17v272h172v-272q0 -70 8 -109t37 -71t86 -44t154 -12z" />
    <glyph glyph-name="uniFE8E" unicode="&#x627;" horiz-adv-x="485" arabic-form="final" 
d="M133 420v1128l172 21v-1137q0 -143 40 -195.5t157 -52.5l24 -92l-41 -92q-180 0 -266 105.5t-86 314.5z" />
    <glyph glyph-name="uniFE90" unicode="&#x628;" horiz-adv-x="1998" arabic-form="final" 
d="M2015 184l25 -88l-41 -96q-158 0 -245.5 38t-145.5 120q-173 -93 -387.5 -140t-530.5 -47q-220 0 -352 46t-189 137t-57 239q0 171 76 326l129 -43q-43 -133 -43 -256q0 -99 42.5 -155t140.5 -82.5t270 -26.5q266 0 483 45t346 114v377h172v-241q0 -82 10.5 -129
t44 -80.5t93 -45.5t159.5 -12zM772 -201q47 0 80 -32.5t33 -79.5t-33 -80t-80 -33t-80 33t-33 80t33 79.5t80 32.5z" />
    <glyph glyph-name="uniFE91" unicode="&#x628;" horiz-adv-x="598" arabic-form="initial" 
d="M16 184q128 0 192 19t86.5 59.5t22.5 120.5q0 139 -94 410l176 57q41 -123 63.5 -253.5t22.5 -223.5q0 -111 -22.5 -180.5t-80 -114t-148 -61.5t-234.5 -17l-41 92zM289 -426q-47 0 -80 33t-33 80t33 79.5t80 32.5t79.5 -32.5t32.5 -79.5t-32.5 -80t-79.5 -33z" />
    <glyph glyph-name="uniFE92" unicode="&#x628;" horiz-adv-x="708" arabic-form="medial" 
d="M725 184l25 -92l-41 -92q-139 0 -219 32.5t-132 121.5q-48 -89 -128 -121.5t-230 -32.5l-41 92l59 92q92 0 144.5 11.5t75 46t26.5 64t4 97.5v17v272h172v-272q0 -70 8 -109t37 -71t86 -44t154 -12zM354 -201q47 0 80 -32.5t33 -79.5t-33 -80t-80 -33t-79.5 33t-32.5 80
t32.5 79.5t79.5 32.5z" />
    <glyph glyph-name="uniFE94" unicode="&#x629;" horiz-adv-x="1050" arabic-form="final" 
d="M616 1272q-43 0 -74.5 31t-31.5 75t31.5 75.5t74.5 31.5q44 0 75.5 -31.5t31.5 -75.5t-31.5 -75t-75.5 -31zM934 1272q-44 0 -75.5 31t-31.5 75t31.5 75.5t75.5 31.5q43 0 74.5 -31.5t31.5 -75.5t-31.5 -75t-74.5 -31zM1067 184l25 -94l-41 -90h-39q-227 0 -301 205
q-54 -63 -138 -99t-172 -36q-157 0 -253.5 86.5t-96.5 226.5q0 85 43 163.5t122.5 142t202 106t271.5 53.5v194l172 21v-649q0 -131 41 -180.5t125 -49.5h39zM430 242q78 0 145.5 30.5t114.5 79.5v330q-121 -4 -215 -30t-149.5 -65.5t-84 -86.5t-28.5 -99q0 -159 217 -159z
" />
    <glyph glyph-name="uniFE96" unicode="&#x62a;" horiz-adv-x="1998" arabic-form="final" 
d="M776 829q-43 0 -74.5 31.5t-31.5 75.5t31.5 75t74.5 31q44 0 75.5 -31t31.5 -75t-31.5 -75.5t-75.5 -31.5zM1094 829q-44 0 -75.5 31.5t-31.5 75.5t31.5 75t75.5 31q43 0 74.5 -31t31.5 -75t-31.5 -75.5t-74.5 -31.5zM2015 184l25 -88l-41 -96q-158 0 -245.5 38
t-145.5 120q-173 -93 -387.5 -140t-530.5 -47q-220 0 -352 46t-189 137t-57 239q0 171 76 326l129 -43q-43 -133 -43 -256q0 -99 42.5 -155t140.5 -82.5t270 -26.5q266 0 483 45t346 114v377h172v-241q0 -82 10.5 -129t44 -80.5t93 -45.5t159.5 -12z" />
    <glyph glyph-name="uniFE97" unicode="&#x62a;" horiz-adv-x="598" arabic-form="initial" 
d="M100 1042q-43 0 -74.5 31.5t-31.5 75.5t31.5 75t74.5 31q44 0 75.5 -31t31.5 -75t-31.5 -75.5t-75.5 -31.5zM418 1042q-44 0 -75.5 31.5t-31.5 75.5t31.5 75t75.5 31q43 0 74.5 -31t31.5 -75t-31.5 -75.5t-74.5 -31.5zM16 184q128 0 192 19t86.5 59.5t22.5 120.5
q0 139 -94 410l176 57q41 -123 63.5 -253.5t22.5 -223.5q0 -111 -22.5 -180.5t-80 -114t-148 -61.5t-234.5 -17l-41 92z" />
    <glyph glyph-name="uniFE98" unicode="&#x62a;" horiz-adv-x="708" arabic-form="medial" 
d="M195 911q-43 0 -75 31.5t-32 75.5t32 75t75 31q44 0 75 -31t31 -75t-31 -75.5t-75 -31.5zM512 911q-44 0 -75 31.5t-31 75.5t31 75t75 31q43 0 74.5 -31t31.5 -75t-31.5 -75.5t-74.5 -31.5zM725 184l25 -92l-41 -92q-139 0 -219 32.5t-132 121.5q-48 -89 -128 -121.5
t-230 -32.5l-41 92l59 92q92 0 144.5 11.5t75 46t26.5 64t4 97.5v17v272h172v-272q0 -70 8 -109t37 -71t86 -44t154 -12z" />
    <glyph glyph-name="uniFE9A" unicode="&#x62b;" horiz-adv-x="1998" arabic-form="final" 
d="M936 1030q-42 0 -73.5 31.5t-31.5 73.5t31.5 73t73.5 31t73 -31t31 -73q0 -43 -31 -74t-73 -31zM764 780q-44 0 -75.5 31t-31.5 74t31.5 73.5t75.5 30.5q42 0 73 -31t31 -73q0 -43 -31 -74t-73 -31zM1004 885q0 42 31 73t73 31q44 0 75 -30.5t31 -73.5t-31 -74t-75 -31
q-42 0 -73 31t-31 74zM2015 184l25 -88l-41 -96q-158 0 -245.5 38t-145.5 120q-173 -93 -387.5 -140t-530.5 -47q-220 0 -352 46t-189 137t-57 239q0 171 76 326l129 -43q-43 -133 -43 -256q0 -99 42.5 -155t140.5 -82.5t270 -26.5q266 0 483 45t346 114v377h172v-241
q0 -82 10.5 -129t44 -80.5t93 -45.5t159.5 -12z" />
    <glyph glyph-name="uniFE9B" unicode="&#x62b;" horiz-adv-x="598" arabic-form="initial" 
d="M260 1243q-42 0 -73 31.5t-31 73.5t31 73t73 31t73.5 -31t31.5 -73t-31.5 -73.5t-73.5 -31.5zM88 993q-44 0 -75 31t-31 74t31 73.5t75 30.5q42 0 73.5 -31t31.5 -73t-31.5 -73.5t-73.5 -31.5zM432 993q-42 0 -73 31.5t-31 73.5t31 73t73 31q44 0 75.5 -30.5t31.5 -73.5
t-31.5 -74t-75.5 -31zM16 184q128 0 192 19t86.5 59.5t22.5 120.5q0 139 -94 410l176 57q41 -123 63.5 -253.5t22.5 -223.5q0 -111 -22.5 -180.5t-80 -114t-148 -61.5t-234.5 -17l-41 92z" />
    <glyph glyph-name="uniFE9C" unicode="&#x62b;" horiz-adv-x="708" arabic-form="medial" 
d="M354 1112q-42 0 -73 31t-31 74q0 42 31 73t73 31t73.5 -31t31.5 -73t-31.5 -73.5t-73.5 -31.5zM182 862q-44 0 -75 31t-31 74t31 73.5t75 30.5q42 0 73.5 -31t31.5 -73t-31.5 -73.5t-73.5 -31.5zM422 967q0 42 31 73t73 31q44 0 75.5 -30.5t31.5 -73.5t-31.5 -74
t-75.5 -31q-42 0 -73 31t-31 74zM725 184l25 -92l-41 -92q-139 0 -219 32.5t-132 121.5q-48 -89 -128 -121.5t-230 -32.5l-41 92l59 92q92 0 144.5 11.5t75 46t26.5 64t4 97.5v17v272h172v-272q0 -70 8 -109t37 -71t86 -44t154 -12z" />
    <glyph glyph-name="uniFE9E" unicode="&#x62c;" horiz-adv-x="1357" arabic-form="final" 
d="M1358 0q-203 0 -308 94.5t-122 290.5h2q-146 -15 -263 -52t-195 -88.5t-130 -117t-75 -135t-23 -144.5q0 -200 144.5 -304.5t422.5 -104.5q259 0 446 96l70 -162q-200 -123 -534 -123q-177 0 -311.5 40.5t-219 116t-126.5 179t-42 232.5q0 142 50.5 262.5t151.5 216
t263.5 158.5t374.5 84q-64 29 -132.5 73.5t-110.5 75t-104 53.5t-132 23q-136 0 -267 -78l-86 160q167 104 367 104q73 0 136.5 -18.5t113 -49t95.5 -67.5t92.5 -77t95 -75t113 -63t136.5 -39l-20 -160l-164 -6q15 -70 35.5 -111t58.5 -63.5t85 -29.5t128 -7l25 -92z
M625 -137q0 47 32.5 79.5t79.5 32.5t80 -32.5t33 -79.5t-33 -80t-80 -33t-79.5 33t-32.5 80z" />
    <glyph glyph-name="uniFE9F" unicode="&#x62c;" horiz-adv-x="1445" arabic-form="initial" 
d="M483 950q98 0 174 -18t128 -49t96 -69.5t89.5 -83t95.5 -85t127.5 -79.5t172.5 -64l-25 -160l-206 -16q-131 -10 -255.5 -47.5t-223 -83.5t-197 -90.5t-216.5 -74.5t-243 -30l-41 92l57 92q109 0 213 25.5t193 64t179.5 79t209 76t244.5 48.5q-75 32 -138.5 76t-103 79
t-84.5 66.5t-107.5 49.5t-148.5 18q-117 0 -248 -76l-86 160q171 100 344 100zM627 -201q47 0 79.5 -32.5t32.5 -79.5t-32.5 -80t-79.5 -33t-80 33t-33 80t33 79.5t80 32.5z" />
    <glyph glyph-name="uniFEA0" unicode="&#x62c;" horiz-adv-x="1458" arabic-form="medial" 
d="M1475 184l24 -92l-41 -92q-209 0 -332.5 92t-144.5 283q-90 -22 -191.5 -70.5t-188.5 -98.5t-180 -97.5t-202 -78t-219 -30.5l-41 92l57 92q106 0 209 29t193 73.5t179.5 91t206 90t236.5 62.5q-72 24 -135.5 58t-105.5 63.5t-87.5 56.5t-104.5 42.5t-134 15.5
q-117 0 -248 -76l-86 160q171 100 336 100q93 0 165 -15t123 -41t95 -58t91.5 -70t100.5 -73.5t134.5 -70.5t181.5 -59l-25 -160l-213 -8h-10q13 -58 35 -97t49 -61.5t72 -34.5t88 -15t113 -3zM811 -98q47 0 80 -33t33 -80t-33 -80t-80 -33t-80 33t-33 80t33 80t80 33z" />
    <glyph glyph-name="uniFEA2" unicode="&#x62d;" horiz-adv-x="1357" arabic-form="final" 
d="M1358 0q-203 0 -308 94.5t-122 290.5h2q-146 -15 -263 -52t-195 -88.5t-130 -117t-75 -135t-23 -144.5q0 -200 144.5 -304.5t422.5 -104.5q259 0 446 96l70 -162q-200 -123 -534 -123q-177 0 -311.5 40.5t-219 116t-126.5 179t-42 232.5q0 142 50.5 262.5t151.5 216
t263.5 158.5t374.5 84q-64 29 -132.5 73.5t-110.5 75t-104 53.5t-132 23q-136 0 -267 -78l-86 160q167 104 367 104q73 0 136.5 -18.5t113 -49t95.5 -67.5t92.5 -77t95 -75t113 -63t136.5 -39l-20 -160l-164 -6q15 -70 35.5 -111t58.5 -63.5t85 -29.5t128 -7l25 -92z" />
    <glyph glyph-name="uniFEA3" unicode="&#x62d;" horiz-adv-x="1445" arabic-form="initial" 
d="M483 950q98 0 174 -18t128 -49t96 -69.5t89.5 -83t95.5 -85t127.5 -79.5t172.5 -64l-25 -160l-206 -16q-131 -10 -255.5 -47.5t-223 -83.5t-197 -90.5t-216.5 -74.5t-243 -30l-41 92l57 92q109 0 213 25.5t193 64t179.5 79t209 76t244.5 48.5q-75 32 -138.5 76t-103 79
t-84.5 66.5t-107.5 49.5t-148.5 18q-117 0 -248 -76l-86 160q171 100 344 100z" />
    <glyph glyph-name="uniFEA4" unicode="&#x62d;" horiz-adv-x="1458" arabic-form="medial" 
d="M1475 184l24 -92l-41 -92q-209 0 -332.5 92t-144.5 283q-90 -22 -191.5 -70.5t-188.5 -98.5t-180 -97.5t-202 -78t-219 -30.5l-41 92l57 92q106 0 209 29t193 73.5t179.5 91t206 90t236.5 62.5q-72 24 -135.5 58t-105.5 63.5t-87.5 56.5t-104.5 42.5t-134 15.5
q-117 0 -248 -76l-86 160q171 100 336 100q93 0 165 -15t123 -41t95 -58t91.5 -70t100.5 -73.5t134.5 -70.5t181.5 -59l-25 -160l-213 -8h-10q13 -58 35 -97t49 -61.5t72 -34.5t88 -15t113 -3z" />
    <glyph glyph-name="uniFEA6" unicode="&#x62e;" horiz-adv-x="1357" arabic-form="final" 
d="M467 1085q-47 0 -80 33t-33 80t33 80t80 33t80 -33t33 -80t-33 -80t-80 -33zM1358 0q-203 0 -308 94.5t-122 290.5h2q-146 -15 -263 -52t-195 -88.5t-130 -117t-75 -135t-23 -144.5q0 -200 144.5 -304.5t422.5 -104.5q259 0 446 96l70 -162q-200 -123 -534 -123
q-177 0 -311.5 40.5t-219 116t-126.5 179t-42 232.5q0 142 50.5 262.5t151.5 216t263.5 158.5t374.5 84q-64 29 -132.5 73.5t-110.5 75t-104 53.5t-132 23q-136 0 -267 -78l-86 160q167 104 367 104q73 0 136.5 -18.5t113 -49t95.5 -67.5t92.5 -77t95 -75t113 -63t136.5 -39
l-20 -160l-164 -6q15 -70 35.5 -111t58.5 -63.5t85 -29.5t128 -7l25 -92z" />
    <glyph glyph-name="uniFEA7" unicode="&#x62e;" horiz-adv-x="1445" arabic-form="initial" 
d="M477 1085q-47 0 -79.5 33t-32.5 80t32.5 80t79.5 33t80 -33t33 -80t-33 -80t-80 -33zM483 950q98 0 174 -18t128 -49t96 -69.5t89.5 -83t95.5 -85t127.5 -79.5t172.5 -64l-25 -160l-206 -16q-131 -10 -255.5 -47.5t-223 -83.5t-197 -90.5t-216.5 -74.5t-243 -30l-41 92
l57 92q109 0 213 25.5t193 64t179.5 79t209 76t244.5 48.5q-75 32 -138.5 76t-103 79t-84.5 66.5t-107.5 49.5t-148.5 18q-117 0 -248 -76l-86 160q171 100 344 100z" />
    <glyph glyph-name="uniFEA8" unicode="&#x62e;" horiz-adv-x="1458" arabic-form="medial" 
d="M469 1085q-47 0 -80 33t-33 80t33 80t80 33t80 -33t33 -80t-33 -80t-80 -33zM1475 184l24 -92l-41 -92q-209 0 -332.5 92t-144.5 283q-90 -22 -191.5 -70.5t-188.5 -98.5t-180 -97.5t-202 -78t-219 -30.5l-41 92l57 92q106 0 209 29t193 73.5t179.5 91t206 90t236.5 62.5
q-72 24 -135.5 58t-105.5 63.5t-87.5 56.5t-104.5 42.5t-134 15.5q-117 0 -248 -76l-86 160q171 100 336 100q93 0 165 -15t123 -41t95 -58t91.5 -70t100.5 -73.5t134.5 -70.5t181.5 -59l-25 -160l-213 -8h-10q13 -58 35 -97t49 -61.5t72 -34.5t88 -15t113 -3z" />
    <glyph glyph-name="uniFEAA" unicode="&#x62f;" horiz-adv-x="1089" arabic-form="final" 
d="M1106 184l24 -92l-40 -92q-96 0 -172 47.5t-119 126.5q-111 -203 -422 -203q-164 0 -326 43l55 181q162 -35 283 -35q214 0 352 129l-313 704l182 86l254 -651q29 -73 48 -112.5t47 -73t62.5 -46t84.5 -12.5z" />
    <glyph glyph-name="uniFEAC" unicode="&#x630;" horiz-adv-x="1089" arabic-form="final" 
d="M432 1208q-47 0 -80 33t-33 80t33 80t80 33t80 -33t33 -80t-33 -80t-80 -33zM1106 184l24 -92l-40 -92q-96 0 -172 47.5t-119 126.5q-111 -203 -422 -203q-164 0 -326 43l55 181q162 -35 283 -35q214 0 352 129l-313 704l182 86l254 -651q29 -73 48 -112.5t47 -73
t62.5 -46t84.5 -12.5z" />
    <glyph glyph-name="uniFEAE" unicode="&#x631;" horiz-adv-x="845" arabic-form="final" 
d="M862 184l25 -92l-41 -92q-159 0 -223 100q-26 -230 -181.5 -384t-427.5 -230l-75 178q145 40 252 98t168.5 125.5t90.5 138t29 146.5q0 162 -160 498l195 61q18 -50 80 -262q42 -162 98 -223.5t170 -61.5z" />
    <glyph glyph-name="uniFEB0" unicode="&#x632;" horiz-adv-x="845" arabic-form="final" 
d="M365 907q-47 0 -80 33t-33 80t33 80t80 33t79.5 -33t32.5 -80t-32.5 -80t-79.5 -33zM862 184l25 -92l-41 -92q-159 0 -223 100q-26 -230 -181.5 -384t-427.5 -230l-75 178q145 40 252 98t168.5 125.5t90.5 138t29 146.5q0 162 -160 498l195 61q18 -50 80 -262
q42 -162 98 -223.5t170 -61.5z" />
    <glyph glyph-name="uniFEB2" unicode="&#x633;" horiz-adv-x="2744" arabic-form="final" 
d="M2761 184l24 -88l-41 -96q-134 0 -222.5 37t-123.5 100q-92 -137 -309 -137q-90 0 -164.5 35.5t-118.5 101.5q-96 -137 -299 -137h-2q-143 0 -225 76q-6 -170 -49.5 -288t-127.5 -187.5t-197.5 -100t-270.5 -30.5q-278 0 -410.5 135t-132.5 375q0 205 96 401l129 -39
q-57 -154 -57 -336q0 -61 12 -112.5t41 -96.5t73 -76t111.5 -49t153.5 -18q253 0 358 101.5t105 344.5q0 117 -30.5 225t-102.5 267l188 76q8 -33 19.5 -70t27.5 -83.5t23 -68.5q49 -154 113 -208t172 -54q192 0 192 242v266h168v-264q0 -131 54.5 -187.5t162.5 -56.5
q191 0 191 197v389h172v-371q0 -124 63.5 -169.5t233.5 -45.5z" />
    <glyph glyph-name="uniFEB3" unicode="&#x633;" horiz-adv-x="1710" arabic-form="initial" 
d="M1511 850q44 -116 65 -239t21 -214q0 -202 -94.5 -299.5t-259.5 -97.5q-90 0 -164 35.5t-118 101.5q-95 -137 -289 -137q-94 0 -172 34.5t-119 96.5q-53 -72 -147 -101.5t-234 -29.5l-41 94l57 90q139 0 210 44t71 155v309h166v-264q0 -77 15 -127t46 -74.5t65.5 -33.5
t84.5 -9q196 0 196 242v266h168v-264q0 -131 54.5 -187.5t162.5 -56.5q91 0 133 46.5t42 150.5q0 173 -84 414z" />
    <glyph glyph-name="uniFEB4" unicode="&#x633;" horiz-adv-x="1902" arabic-form="medial" 
d="M1919 184l25 -88l-41 -96q-134 0 -223 37t-124 100q-92 -137 -309 -137q-90 0 -164 35.5t-118 101.5q-95 -137 -289 -137q-94 0 -172 34.5t-119 96.5q-53 -72 -147.5 -101.5t-237.5 -29.5l-41 94l59 90q141 0 212 44t71 155v309h166v-264q0 -77 15 -127t46 -74.5
t65.5 -33.5t84.5 -9q196 0 196 242v266h168v-264q0 -131 55 -187.5t163 -56.5q190 0 190 197v373h172v-355q0 -124 63.5 -169.5t233.5 -45.5z" />
    <glyph glyph-name="uniFEB6" unicode="&#x634;" horiz-adv-x="2744" arabic-form="final" 
d="M1800 1112q-42 0 -73 31t-31 74q0 42 31 73t73 31t73.5 -31t31.5 -73t-31.5 -73.5t-73.5 -31.5zM1628 862q-44 0 -75 31t-31 74t31 73.5t75 30.5q42 0 73.5 -31t31.5 -73t-31.5 -73.5t-73.5 -31.5zM1868 967q0 42 31 73t73 31q44 0 75.5 -30.5t31.5 -73.5t-31.5 -74
t-75.5 -31q-42 0 -73 31t-31 74zM2761 184l24 -88l-41 -96q-134 0 -222.5 37t-123.5 100q-92 -137 -309 -137q-90 0 -164.5 35.5t-118.5 101.5q-96 -137 -299 -137h-2q-143 0 -225 76q-6 -170 -49.5 -288t-127.5 -187.5t-197.5 -100t-270.5 -30.5q-278 0 -410.5 135
t-132.5 375q0 205 96 401l129 -39q-57 -154 -57 -336q0 -61 12 -112.5t41 -96.5t73 -76t111.5 -49t153.5 -18q253 0 358 101.5t105 344.5q0 117 -30.5 225t-102.5 267l188 76q8 -33 19.5 -70t27.5 -83.5t23 -68.5q49 -154 113 -208t172 -54q192 0 192 242v266h168v-264
q0 -131 54.5 -187.5t162.5 -56.5q191 0 191 197v389h172v-371q0 -124 63.5 -169.5t233.5 -45.5z" />
    <glyph glyph-name="uniFEB7" unicode="&#x634;" horiz-adv-x="1710" arabic-form="initial" 
d="M954 1112q-42 0 -73 31t-31 74q0 42 31 73t73 31t73.5 -31t31.5 -73t-31.5 -73.5t-73.5 -31.5zM782 862q-44 0 -75 31t-31 74t31 73.5t75 30.5q42 0 73.5 -31t31.5 -73t-31.5 -73.5t-73.5 -31.5zM1022 967q0 42 31 73t73 31q44 0 75.5 -30.5t31.5 -73.5t-31.5 -74
t-75.5 -31q-42 0 -73 31t-31 74zM1511 850q44 -116 65 -239t21 -214q0 -202 -94.5 -299.5t-259.5 -97.5q-90 0 -164 35.5t-118 101.5q-95 -137 -289 -137q-94 0 -172 34.5t-119 96.5q-53 -72 -147 -101.5t-234 -29.5l-41 94l57 90q139 0 210 44t71 155v309h166v-264
q0 -77 15 -127t46 -74.5t65.5 -33.5t84.5 -9q196 0 196 242v266h168v-264q0 -131 54.5 -187.5t162.5 -56.5q91 0 133 46.5t42 150.5q0 173 -84 414z" />
    <glyph glyph-name="uniFEB8" unicode="&#x634;" horiz-adv-x="1902" arabic-form="medial" 
d="M958 1112q-42 0 -73 31t-31 74q0 42 31 73t73 31t73.5 -31t31.5 -73t-31.5 -73.5t-73.5 -31.5zM786 862q-44 0 -75 31t-31 74t31 73.5t75 30.5q42 0 73.5 -31t31.5 -73t-31.5 -73.5t-73.5 -31.5zM1026 967q0 42 31 73t73 31q44 0 75.5 -30.5t31.5 -73.5t-31.5 -74
t-75.5 -31q-42 0 -73 31t-31 74zM1919 184l25 -88l-41 -96q-134 0 -223 37t-124 100q-92 -137 -309 -137q-90 0 -164 35.5t-118 101.5q-95 -137 -289 -137q-94 0 -172 34.5t-119 96.5q-53 -72 -147.5 -101.5t-237.5 -29.5l-41 94l59 90q141 0 212 44t71 155v309h166v-264
q0 -77 15 -127t46 -74.5t65.5 -33.5t84.5 -9q196 0 196 242v266h168v-264q0 -131 55 -187.5t163 -56.5q190 0 190 197v373h172v-355q0 -124 63.5 -169.5t233.5 -45.5z" />
    <glyph glyph-name="uniFEBA" unicode="&#x635;" horiz-adv-x="2803" arabic-form="final" 
d="M2820 184l25 -92l-41 -92q-81 0 -153 40.5t-118 106.5q-87 -88 -271.5 -117.5t-541.5 -29.5h-213q-143 0 -227 76q-6 -170 -49.5 -288t-127.5 -187.5t-197.5 -100t-270.5 -30.5q-278 0 -410.5 135t-132.5 375q0 205 96 401l129 -39q-57 -154 -57 -336q0 -61 12 -112.5
t41 -96.5t73 -76t111.5 -49t153.5 -18q253 0 358 101.5t105 344.5q0 117 -30.5 225t-102.5 267l188 76q8 -33 19.5 -70t27.5 -83.5t23 -68.5q37 -118 82.5 -175t110.5 -76q79 233 205.5 404t271 256t291.5 85q188 0 308 -129t120 -362q0 -88 -19 -162q42 -58 93 -80.5
t118 -22.5zM1720 184q148 0 249.5 4t192.5 14.5t146 29.5t96 50.5t57.5 75t16.5 103.5q0 77 -18.5 133t-44.5 85.5t-65 47t-69.5 21.5t-68.5 4q-181 0 -334 -130t-291 -438h133z" />
    <glyph glyph-name="uniFEBB" unicode="&#x635;" horiz-adv-x="1914" arabic-form="initial" 
d="M1374 940q188 0 308 -129t120 -362q0 -74 -10.5 -132t-37 -104t-61.5 -79t-92.5 -57t-122 -38.5t-158 -23.5t-192 -12t-233.5 -3h-213q-130 0 -208.5 32t-129.5 118q-48 -87 -125 -118.5t-219 -31.5l-41 92l59 92q59 0 100 5t66.5 20t40 27.5t21 43.5t7.5 51t1 66v17v397
h172v-397q0 -58 5.5 -93t24 -65.5t54.5 -46t94 -21.5q117 352 330 552t440 200zM895 184q148 0 249.5 4t192.5 14.5t146 29.5t96 50.5t57.5 75t16.5 103.5q0 77 -18.5 133t-45 85.5t-65.5 47t-69.5 21.5t-68.5 4q-181 0 -333.5 -130t-290.5 -438h133z" />
    <glyph glyph-name="uniFEBC" unicode="&#x635;" horiz-adv-x="1978" arabic-form="medial" 
d="M1995 184l24 -92l-41 -92q-81 0 -152.5 40.5t-117.5 106.5q-87 -88 -271.5 -117.5t-541.5 -29.5h-213q-130 0 -208.5 32t-129.5 118q-48 -87 -125 -118.5t-219 -31.5l-41 92l59 92q59 0 100 5t66.5 20t40 27.5t21 43.5t7.5 51t1 66v17v397h172v-397q0 -58 5.5 -93
t24 -65.5t54.5 -46t94 -21.5q117 352 330 552t440 200q188 0 308 -129t120 -362q0 -91 -18 -162q42 -58 93 -80.5t118 -22.5zM895 184q148 0 249.5 4t192.5 14.5t146 29.5t96 50.5t57.5 75t16.5 103.5q0 77 -18.5 133t-45 85.5t-65.5 47t-69.5 21.5t-68.5 4
q-181 0 -333.5 -130t-290.5 -438h133z" />
    <glyph glyph-name="uniFEBE" unicode="&#x636;" horiz-adv-x="2803" arabic-form="final" 
d="M2132 1075q-47 0 -80 33t-33 80t33 79.5t80 32.5t80 -32.5t33 -79.5t-33 -80t-80 -33zM2820 184l25 -92l-41 -92q-81 0 -153 40.5t-118 106.5q-87 -88 -271.5 -117.5t-541.5 -29.5h-213q-143 0 -227 76q-6 -170 -49.5 -288t-127.5 -187.5t-197.5 -100t-270.5 -30.5
q-278 0 -410.5 135t-132.5 375q0 205 96 401l129 -39q-57 -154 -57 -336q0 -61 12 -112.5t41 -96.5t73 -76t111.5 -49t153.5 -18q253 0 358 101.5t105 344.5q0 117 -30.5 225t-102.5 267l188 76q8 -33 19.5 -70t27.5 -83.5t23 -68.5q37 -118 82.5 -175t110.5 -76
q79 233 205.5 404t271 256t291.5 85q188 0 308 -129t120 -362q0 -88 -19 -162q42 -58 93 -80.5t118 -22.5zM1720 184q148 0 249.5 4t192.5 14.5t146 29.5t96 50.5t57.5 75t16.5 103.5q0 77 -18.5 133t-44.5 85.5t-65 47t-69.5 21.5t-68.5 4q-181 0 -334 -130t-291 -438h133z
" />
    <glyph glyph-name="uniFEBF" unicode="&#x636;" horiz-adv-x="1914" arabic-form="initial" 
d="M1307 1075q-47 0 -80 33t-33 80t33 79.5t80 32.5t79.5 -32.5t32.5 -79.5t-32.5 -80t-79.5 -33zM1374 940q188 0 308 -129t120 -362q0 -74 -10.5 -132t-37 -104t-61.5 -79t-92.5 -57t-122 -38.5t-158 -23.5t-192 -12t-233.5 -3h-213q-130 0 -208.5 32t-129.5 118
q-48 -87 -125 -118.5t-219 -31.5l-41 92l59 92q59 0 100 5t66.5 20t40 27.5t21 43.5t7.5 51t1 66v17v397h172v-397q0 -58 5.5 -93t24 -65.5t54.5 -46t94 -21.5q117 352 330 552t440 200zM895 184q148 0 249.5 4t192.5 14.5t146 29.5t96 50.5t57.5 75t16.5 103.5
q0 77 -18.5 133t-45 85.5t-65.5 47t-69.5 21.5t-68.5 4q-181 0 -333.5 -130t-290.5 -438h133z" />
    <glyph glyph-name="uniFEC0" unicode="&#x636;" horiz-adv-x="1978" arabic-form="medial" 
d="M1307 1075q-47 0 -80 33t-33 80t33 79.5t80 32.5t79.5 -32.5t32.5 -79.5t-32.5 -80t-79.5 -33zM1995 184l24 -92l-41 -92q-81 0 -152.5 40.5t-117.5 106.5q-87 -88 -271.5 -117.5t-541.5 -29.5h-213q-130 0 -208.5 32t-129.5 118q-48 -87 -125 -118.5t-219 -31.5l-41 92
l59 92q59 0 100 5t66.5 20t40 27.5t21 43.5t7.5 51t1 66v17v397h172v-397q0 -58 5.5 -93t24 -65.5t54.5 -46t94 -21.5q117 352 330 552t440 200q188 0 308 -129t120 -362q0 -91 -18 -162q42 -58 93 -80.5t118 -22.5zM895 184q148 0 249.5 4t192.5 14.5t146 29.5t96 50.5
t57.5 75t16.5 103.5q0 77 -18.5 133t-45 85.5t-65.5 47t-69.5 21.5t-68.5 4q-181 0 -333.5 -130t-290.5 -438h133z" />
    <glyph glyph-name="uniFEC2" unicode="&#x637;" horiz-adv-x="1699" arabic-form="final" 
d="M1716 184l25 -92l-41 -92q-81 0 -152.5 40.5t-117.5 106.5q-87 -88 -272 -117.5t-542 -29.5h-555l37 184h226l43 115v1249l172 23v-965q120 161 265.5 247.5t291.5 86.5q188 0 308 -129t120 -362q0 -88 -19 -162q42 -58 93 -80.5t118 -22.5zM616 184q148 0 249.5 4
t192.5 14.5t146 29.5t96 50.5t57.5 75t16.5 103.5q0 77 -18.5 133t-44.5 85.5t-65 47t-69.5 21.5t-68.5 4q-181 0 -334 -130t-291 -438h133z" />
    <glyph glyph-name="uniFEC3" unicode="&#x637;" horiz-adv-x="1570" arabic-form="initial" 
d="M1030 940q188 0 308 -129t120 -362q0 -74 -10.5 -132t-37 -104t-61.5 -79t-92.5 -57t-122 -38.5t-158 -23.5t-192 -12t-233.5 -3h-555l2 6l-39 88l57 90h242l43 115v1249l172 23v-965q120 161 265.5 247.5t291.5 86.5zM551 184q148 0 249.5 4t192.5 14.5t146 29.5
t96 50.5t57.5 75t16.5 103.5q0 77 -18.5 133t-45 85.5t-65.5 47t-69.5 21.5t-68.5 4q-181 0 -333.5 -130t-290.5 -438h133z" />
    <glyph glyph-name="uniFEC4" unicode="&#x637;" horiz-adv-x="1634" arabic-form="medial" 
d="M1651 184l24 -92l-41 -92q-81 0 -152.5 40.5t-117.5 106.5q-87 -88 -271.5 -117.5t-541.5 -29.5h-555l2 6l-39 88l57 90h242l43 115v1249l172 23v-965q120 161 265.5 247.5t291.5 86.5q188 0 308 -129t120 -362q0 -91 -18 -162q42 -58 93 -80.5t118 -22.5zM551 184
q148 0 249.5 4t192.5 14.5t146 29.5t96 50.5t57.5 75t16.5 103.5q0 77 -18.5 133t-45 85.5t-65.5 47t-69.5 21.5t-68.5 4q-181 0 -333.5 -130t-290.5 -438h133z" />
    <glyph glyph-name="uniFEC6" unicode="&#x638;" horiz-adv-x="1699" arabic-form="final" 
d="M1716 184l25 -92l-41 -92q-81 0 -152.5 40.5t-117.5 106.5q-87 -88 -272 -117.5t-542 -29.5h-555l37 184h226l43 115v1249l172 23v-965q120 161 265.5 247.5t291.5 86.5q188 0 308 -129t120 -362q0 -88 -19 -162q42 -58 93 -80.5t118 -22.5zM1028 1075q-47 0 -80 33
t-33 80t33 79.5t80 32.5t80 -32.5t33 -79.5t-33 -80t-80 -33zM616 184q148 0 249.5 4t192.5 14.5t146 29.5t96 50.5t57.5 75t16.5 103.5q0 77 -18.5 133t-44.5 85.5t-65 47t-69.5 21.5t-68.5 4q-181 0 -334 -130t-291 -438h133z" />
    <glyph glyph-name="uniFEC7" unicode="&#x638;" horiz-adv-x="1570" arabic-form="initial" 
d="M1030 940q188 0 308 -129t120 -362q0 -74 -10.5 -132t-37 -104t-61.5 -79t-92.5 -57t-122 -38.5t-158 -23.5t-192 -12t-233.5 -3h-555l2 6l-39 88l57 90h242l43 115v1249l172 23v-965q120 161 265.5 247.5t291.5 86.5zM963 1075q-47 0 -80 33t-33 80t33 79.5t80 32.5
t79.5 -32.5t32.5 -79.5t-32.5 -80t-79.5 -33zM551 184q148 0 249.5 4t192.5 14.5t146 29.5t96 50.5t57.5 75t16.5 103.5q0 77 -18.5 133t-45 85.5t-65.5 47t-69.5 21.5t-68.5 4q-181 0 -333.5 -130t-290.5 -438h133z" />
    <glyph glyph-name="uniFEC8" unicode="&#x638;" horiz-adv-x="1634" arabic-form="medial" 
d="M1651 184l24 -92l-41 -92q-81 0 -152.5 40.5t-117.5 106.5q-87 -88 -271.5 -117.5t-541.5 -29.5h-555l2 6l-39 88l57 90h242l43 115v1249l172 23v-965q120 161 265.5 247.5t291.5 86.5q188 0 308 -129t120 -362q0 -91 -18 -162q42 -58 93 -80.5t118 -22.5zM963 1075
q-47 0 -80 33t-33 80t33 79.5t80 32.5t79.5 -32.5t32.5 -79.5t-32.5 -80t-79.5 -33zM551 184q148 0 249.5 4t192.5 14.5t146 29.5t96 50.5t57.5 75t16.5 103.5q0 77 -18.5 133t-45 85.5t-65.5 47t-69.5 21.5t-68.5 4q-181 0 -333.5 -130t-290.5 -438h133z" />
    <glyph glyph-name="uniFECA" unicode="&#x639;" horiz-adv-x="1165" arabic-form="final" 
d="M709 -561q240 0 424 96l71 -162q-203 -123 -514 -123q-129 0 -233 26.5t-175 72t-119 110t-69.5 138.5t-21.5 159q0 383 381 563q-4 4 -28.5 30t-32 33.5t-31.5 32t-37 36.5t-37 35t-44 40t-46 39.5t-53.5 44t-57.5 43.5l25 185q216 84 456 84q242 0 347.5 -72.5
t105.5 -214.5q0 -115 -65.5 -200.5t-200.5 -158.5q76 -56 147.5 -74t214.5 -18h66l24 -90l-41 -94h-88q-141 0 -256 46t-237 149q-200 -93 -280.5 -185t-80.5 -225q0 -157 123.5 -251.5t362.5 -94.5zM274 698q68 -53 184 -164.5t156 -146.5q134 58 196 109.5t62 121.5
q0 64 -72.5 93.5t-232.5 29.5q-134 0 -293 -43z" />
    <glyph glyph-name="uniFECB" unicode="&#x639;" horiz-adv-x="1173" arabic-form="initial" 
d="M1120 295l23 -184q-280 -67 -471.5 -89t-407.5 -22h-264l-41 92l57 92h209h131q-100 78 -151 176.5t-51 194.5q0 75 30.5 144.5t87 126t148.5 90.5t205 34q180 0 321 -76l-80 -176q-117 64 -241 64q-149 0 -224 -64.5t-75 -160.5q0 -195 262 -340q179 17 532 98z" />
    <glyph glyph-name="uniFECC" unicode="&#x639;" horiz-adv-x="1226" arabic-form="medial" 
d="M1243 184l25 -92l-41 -92h-86q-267 0 -467 164q-142 -76 -301 -120t-293 -44h-80l-41 92l57 92h31q245 0 498 105q-10 11 -57.5 63t-69 73.5t-67 65t-93.5 81.5t-106 79l22 185q212 86 451 86q235 0 339.5 -72.5t104.5 -214.5q0 -197 -238 -373q69 -46 142 -62t209 -16
h61zM338 698q67 -52 183 -166.5t177 -166.5q103 60 162.5 125.5t59.5 125.5q0 64 -71.5 94.5t-223.5 30.5q-115 0 -287 -43z" />
    <glyph glyph-name="uniFECE" unicode="&#x63a;" horiz-adv-x="1165" arabic-form="final" 
d="M610 1083q-47 0 -79.5 33t-32.5 80t32.5 80t79.5 33t80 -33t33 -80t-33 -80t-80 -33zM709 -561q240 0 424 96l71 -162q-203 -123 -514 -123q-129 0 -233 26.5t-175 72t-119 110t-69.5 138.5t-21.5 159q0 383 381 563q-4 4 -28.5 30t-32 33.5t-31.5 32t-37 36.5t-37 35
t-44 40t-46 39.5t-53.5 44t-57.5 43.5l25 185q216 84 456 84q242 0 347.5 -72.5t105.5 -214.5q0 -115 -65.5 -200.5t-200.5 -158.5q76 -56 147.5 -74t214.5 -18h66l24 -90l-41 -94h-88q-141 0 -256 46t-237 149q-200 -93 -280.5 -185t-80.5 -225q0 -157 123.5 -251.5
t362.5 -94.5zM274 698q68 -53 184 -164.5t156 -146.5q134 58 196 109.5t62 121.5q0 64 -72.5 93.5t-232.5 29.5q-134 0 -293 -43z" />
    <glyph glyph-name="uniFECF" unicode="&#x63a;" horiz-adv-x="1173" arabic-form="initial" 
d="M618 1085q-47 0 -79.5 33t-32.5 80t32.5 80t79.5 33t80 -33t33 -80t-33 -80t-80 -33zM1120 295l23 -184q-280 -67 -471.5 -89t-407.5 -22h-264l-41 92l57 92h209h131q-100 78 -151 176.5t-51 194.5q0 75 30.5 144.5t87 126t148.5 90.5t205 34q180 0 321 -76l-80 -176
q-117 64 -241 64q-149 0 -224 -64.5t-75 -160.5q0 -195 262 -340q179 17 532 98z" />
    <glyph glyph-name="uniFED0" unicode="&#x63a;" horiz-adv-x="1226" arabic-form="medial" 
d="M618 1085q-47 0 -79.5 33t-32.5 80t32.5 80t79.5 33t80 -33t33 -80t-33 -80t-80 -33zM1243 184l25 -92l-41 -92h-86q-267 0 -467 164q-142 -76 -301 -120t-293 -44h-80l-41 92l57 92h31q245 0 498 105q-10 11 -57.5 63t-69 73.5t-67 65t-93.5 81.5t-106 79l22 185
q212 86 451 86q235 0 339.5 -72.5t104.5 -214.5q0 -197 -238 -373q69 -46 142 -62t209 -16h61zM338 698q67 -52 183 -166.5t177 -166.5q103 60 162.5 125.5t59.5 125.5q0 64 -71.5 94.5t-223.5 30.5q-115 0 -287 -43z" />
    <glyph glyph-name="uniFED2" unicode="&#x641;" horiz-adv-x="1974" arabic-form="final" 
d="M1446 1130q-47 0 -80 33t-33 80t33 80t80 33t80 -33t33 -80t-33 -80t-80 -33zM1987 184l28 -92l-41 -92h-100q-209 0 -410 92q-288 -121 -774 -121q-220 0 -352 46t-189 137t-57 239q0 171 76 326l129 -43q-43 -133 -43 -256q0 -146 99 -205t352 -59q339 0 571 51
q-199 161 -199 366q0 107 50 204.5t136.5 158.5t186.5 61q115 0 206 -61.5t138 -157.5t47 -205q0 -219 -184 -368q108 -21 217 -21h113zM1229 573q0 -102 61.5 -179.5t167.5 -127.5q232 107 232 307q0 98 -66.5 169t-163.5 71q-98 0 -164.5 -71t-66.5 -169z" />
    <glyph glyph-name="uniFED3" unicode="&#x641;" horiz-adv-x="968" arabic-form="initial" 
d="M449 1298q-47 0 -80 33t-33 80t33 80t80 33t79.5 -33t32.5 -80t-32.5 -80t-79.5 -33zM455 1163q175 0 288 -155.5t113 -432.5q0 -101 -16 -179.5t-47 -139.5t-83.5 -104.5t-118 -73t-157.5 -46.5t-195.5 -24.5t-238.5 -7.5l-41 94l57 90q257 0 401.5 27t205 78.5
t75.5 142.5q-75 -63 -235 -63q-181 0 -291.5 106.5t-110.5 272.5q0 171 114.5 293t279.5 122zM211 758q0 -108 80 -172t235 -64q96 0 181 29q-1 221 -68.5 326.5t-183.5 105.5q-107 0 -175.5 -64t-68.5 -161z" />
    <glyph glyph-name="uniFED4" unicode="&#x641;" horiz-adv-x="1050" arabic-form="medial" 
d="M522 1130q-47 0 -79.5 33t-32.5 80t32.5 80t79.5 33t80 -33t33 -80t-33 -80t-80 -33zM1063 184l29 -92l-41 -92h-101q-210 0 -411 92q-202 -92 -453 -92h-86l-41 92l57 92h90q118 0 246 23q-198 160 -198 366q0 107 49.5 204.5t136 158.5t186.5 61q115 0 206 -61.5
t138.5 -157.5t47.5 -205q0 -95 -51.5 -191t-145.5 -175q122 -23 229 -23h113zM305 573q0 -103 63 -181t173 -128q225 105 225 309q0 98 -66 169t-163 71q-98 0 -165 -71t-67 -169z" />
    <glyph glyph-name="uniFED6" unicode="&#x642;" horiz-adv-x="1599" arabic-form="final" 
d="M891 985q-43 0 -75 31.5t-32 75.5t32 75t75 31q44 0 75 -31t31 -75t-31 -75.5t-75 -31.5zM1208 985q-44 0 -75 31.5t-31 75.5t31 75t75 31q43 0 75 -31t32 -75t-32 -75.5t-75 -31.5zM1640 94l-41 -94h-161q-17 -131 -61 -226.5t-122.5 -165t-200.5 -104t-290 -34.5
q-353 0 -512.5 131t-159.5 379q0 205 96 401l129 -39q-57 -154 -57 -336q0 -83 26 -145t84.5 -109.5t161.5 -72.5t248 -25q108 0 191.5 18.5t138.5 49t93 76t57.5 94t29.5 108.5h-129q-263 0 -383.5 101.5t-120.5 277.5q0 171 114.5 293.5t279.5 122.5q175 0 287 -155.5
t112 -432.5v-23h166zM1122 184h181q-1 219 -69 324.5t-183 105.5q-107 0 -176.5 -64t-69.5 -161q0 -104 78.5 -154.5t238.5 -50.5z" />
    </font>
</defs>
</svg>
