<?xml version="1.0" standalone="no"?>
<!DOCTYPE svg PUBLIC "-//W3C//DTD SVG 1.1//EN" "http://www.w3.org/Graphics/SVG/1.1/DTD/svg11.dtd" >
<svg xmlns="http://www.w3.org/2000/svg" xmlns:xlink="http://www.w3.org/1999/xlink" version="1.1">
<metadata>
Created by FontForge 20170731 at Tue Mar 20 17:39:40 2018
 By Aleksey,,,
Digitized data copyright 2012-2018 for FiraGO, bBox Type GmbH and HERE Europe B.V. All rights reserved, with Reserved Font Name "Fira" / Digitized data copyright 2012-2018 for Fira Sans The Mozilla Foundation, Telefonica S.A., Carrois Corporate GbR and bBox Type GmbH, with Reserved Font Name "Fira"
</metadata>
<defs>
<font id="FiraGO-Light" horiz-adv-x="0" >
  <font-face 
    font-family="FiraGO Light"
    font-weight="300"
    font-stretch="normal"
    units-per-em="1000"
    panose-1="2 11 4 3 5 0 0 2 0 4"
    ascent="800"
    descent="-200"
    x-height="523"
    cap-height="685"
    bbox="-733 -708 2412 1266"
    underline-thickness="50"
    underline-position="-150"
    unicode-range="U+000D-FEFF"
  />
<missing-glyph horiz-adv-x="666" 
d="M543 -350h-420v1400h420v-1400zM178 998v-1296h311v1296h-311zM409.5 419q25.5 -32 25.5 -83q0 -53 -22.5 -82t-72.5 -36v-45q0 -11 -7.5 -17.5t-17.5 -6.5t-17.5 6.5t-7.5 17.5v84q53 3 72 19.5t19 57.5q0 33 -13 51t-48 18q-29 0 -52 -11q-8 -3 -13 -3q-11 0 -17.5 6.5
t-6.5 16.5q0 19 29.5 29t63.5 10q60 0 85.5 -32zM340 110q10 -10 10 -25q0 -16 -10 -26.5t-25 -10.5t-25 10.5t-10 26.5q0 15 10 25t25 10t25 -10z" />
    <glyph glyph-name="fi" unicode="fi" horiz-adv-x="562" 
d="M407 706l-21 -42q-64 30 -124 30q-51 0 -74 -20.5t-23 -68.5v-82h292v-523h-58v476h-234v-476h-58v476h-86v47h86v85q0 64 39.5 99.5t113.5 35.5q78 0 147 -37z" />
    <glyph glyph-name="fl" unicode="fl" horiz-adv-x="591" 
d="M552 3q-31 -14 -62 -14q-43 0 -66.5 25t-23.5 76v583q-37 12 -67 17t-66 5q-53 0 -77.5 -21t-24.5 -67v-84h138l-7 -47h-131v-476h-58v476h-86v47h86v86q0 63 40.5 98.5t115.5 35.5q38 0 68.5 -5.5t68.5 -17.5l58 8v-638q0 -26 10 -38.5t33 -12.5q20 0 35 7z" />
    <glyph glyph-name="uniFDF2" unicode="&#x627;&#xfedf;&#xfee0;&#xfeea;" horiz-adv-x="1107" arabic-form="isolated" 
d="M583 741h-38v164l38 4v-168zM464.5 611q-19.5 19 -19.5 55q0 29 11 62l31 -7q-7 -23 -7 -48q0 -19 8.5 -30.5t23.5 -11.5q16 0 26 13t10 34v41h33v-43q0 -19 8.5 -31t23.5 -12q34 0 34 47q0 32 -13 62l31 11q18 -42 18 -83q0 -36 -18 -55t-48 -19q-37 0 -52 29
q-18 -33 -56 -33q-25 0 -44.5 19zM1026 750v-750h-54v743zM762 640l53 6v-483q0 -87 -34.5 -125t-99.5 -38q-42 0 -71.5 18t-43.5 50q-12 -32 -40.5 -50t-71.5 -18q-113 0 -131 109q-22 -33 -60.5 -52.5t-87.5 -19.5q-69 0 -108.5 36t-39.5 95q0 77 75.5 130.5t211.5 68.5
v90l54 7v-286q0 -67 19.5 -94t65.5 -27q45 0 65.5 24.5t20.5 84.5v377l53 6v-383q0 -59 20.5 -84t66.5 -25q43 0 63 25.5t20 82.5v475zM314 318q-114 -8 -175 -48.5t-61 -96.5q0 -39 26 -62.5t75 -23.5q46 0 80.5 20t54.5 54v157z" />
    <glyph glyph-name="uniFEF5" unicode="&#xfedf;&#xfe82;" horiz-adv-x="628" arabic-form="isolated" 
d="M528.5 234.5q23.5 -44.5 23.5 -88.5q0 -74 -52.5 -110t-167.5 -36h-230l4 53q114 79 182.5 141t108.5 127l-3 3l-311 300l66 10l272 -268q24 52 35 113.5t11 139.5v125l53 6v-135q0 -165 -63 -285q48 -51 71.5 -95.5zM464.5 75.5q41.5 19.5 41.5 70.5q0 60 -75 140
q-41 -62 -102 -118t-146 -112h145q95 0 136.5 19.5zM11 709q11 32 31.5 52.5t45.5 20.5q15 0 25.5 -4t24.5 -12q12 -7 21 -10.5t21 -3.5q10 0 19.5 4t25.5 15l16 -27q-37 -30 -68 -30q-13 0 -22.5 3.5t-23.5 11.5q-12 7 -20.5 10.5t-18.5 3.5q-26 0 -45 -44z" />
    <glyph glyph-name="uniFEF6" unicode="&#xfee0;&#xfe82;" horiz-adv-x="666" arabic-form="final" 
d="M686 29l-20 -29q-53 0 -88 24.5t-46 76.5q-28 -53 -90 -77t-167 -24h-186l-6 57h199q92 0 146 20l-289 481l61 9l164 -283q36 -61 56 -100.5t42 -89.5q30 21 42 54.5t12 84.5v511l53 7v-562q0 -74 24 -103t78 -29zM62 650q11 32 31.5 52.5t45.5 20.5q15 0 25.5 -4
t24.5 -12q12 -7 21 -10.5t21 -3.5q10 0 19.5 4t25.5 15l16 -27q-37 -30 -68 -30q-13 0 -22.5 3.5t-23.5 11.5q-12 7 -20.5 10.5t-18.5 3.5q-26 0 -45 -44z" />
    <glyph glyph-name="uniFEF7" unicode="&#xfedf;&#xfe84;" horiz-adv-x="628" arabic-form="isolated" 
d="M528.5 234.5q23.5 -44.5 23.5 -88.5q0 -74 -52.5 -110t-167.5 -36h-230l4 53q114 79 182.5 141t108.5 127l-3 3l-311 300l66 10l272 -268q24 52 35 113.5t11 139.5v125l53 6v-135q0 -165 -63 -285q48 -51 71.5 -95.5zM464.5 75.5q41.5 19.5 41.5 70.5q0 60 -75 140
q-41 -62 -102 -118t-146 -112h145q95 0 136.5 19.5zM223 719l-198 -32l-5 34l68 11q-23 17 -35.5 37t-12.5 39q0 35 24.5 58t71.5 23q34 0 68 -19l-19 -32q-29 15 -52 15q-29 0 -42.5 -13t-13.5 -32q0 -34 51 -69l90 15z" />
    <glyph glyph-name="uniFEF8" unicode="&#xfee0;&#xfe84;" horiz-adv-x="666" arabic-form="final" 
d="M686 29l-20 -29q-53 0 -88 24.5t-46 76.5q-28 -53 -90 -77t-167 -24h-186l-6 57h199q92 0 146 20l-289 481l61 9l164 -283q36 -61 56 -100.5t42 -89.5q30 21 42 54.5t12 84.5v511l53 7v-562q0 -74 24 -103t78 -29zM273 660l-198 -32l-5 34l68 11q-23 17 -35.5 37
t-12.5 39q0 35 24.5 58t71.5 23q34 0 68 -19l-19 -32q-29 15 -52 15q-29 0 -42.5 -13t-13.5 -32q0 -34 51 -69l90 15z" />
    <glyph glyph-name="uniFEF9" unicode="&#xfedf;&#xfe88;" horiz-adv-x="628" arabic-form="isolated" 
d="M528.5 234.5q23.5 -44.5 23.5 -88.5q0 -74 -52.5 -110t-167.5 -36h-230l4 53q114 79 182.5 141t108.5 127l-3 3l-311 300l66 10l272 -268q24 52 35 113.5t11 139.5v125l53 6v-135q0 -165 -63 -285q48 -51 71.5 -95.5zM464.5 75.5q41.5 19.5 41.5 70.5q0 60 -75 140
q-41 -62 -102 -118t-146 -112h145q95 0 136.5 19.5zM294 -220l-198 -32l-5 34l68 11q-23 17 -35.5 37t-12.5 39q0 35 24.5 58t71.5 23q34 0 68 -19l-19 -32q-29 15 -52 15q-29 0 -42.5 -13t-13.5 -32q0 -34 51 -69l90 15z" />
    <glyph glyph-name="uniFEFA" unicode="&#xfee0;&#xfe88;" horiz-adv-x="666" arabic-form="final" 
d="M686 29l-20 -29q-53 0 -88 24.5t-46 76.5q-28 -53 -90 -77t-167 -24h-186l-6 57h199q92 0 146 20l-289 481l61 9l164 -283q36 -61 56 -100.5t42 -89.5q30 21 42 54.5t12 84.5v511l53 7v-562q0 -74 24 -103t78 -29zM295 -220l-198 -32l-5 34l68 11q-23 17 -35.5 37
t-12.5 39q0 35 24.5 58t71.5 23q34 0 68 -19l-19 -32q-29 15 -52 15q-29 0 -42.5 -13t-13.5 -32q0 -34 51 -69l90 15z" />
    <glyph glyph-name="uniFEFB" unicode="&#xfedf;&#xfe8e;" horiz-adv-x="628" arabic-form="isolated" 
d="M528.5 234.5q23.5 -44.5 23.5 -88.5q0 -74 -52.5 -110t-167.5 -36h-230l4 53q114 79 182.5 141t108.5 127l-3 3l-311 300l66 10l272 -268q24 52 35 113.5t11 139.5v125l53 6v-135q0 -165 -63 -285q48 -51 71.5 -95.5zM464.5 75.5q41.5 19.5 41.5 70.5q0 60 -75 140
q-41 -62 -102 -118t-146 -112h145q95 0 136.5 19.5z" />
    <glyph glyph-name="uniFEFC" unicode="&#xfee0;&#xfe8e;" horiz-adv-x="666" arabic-form="final" 
d="M686 29l-20 -29q-53 0 -88 24.5t-46 76.5q-28 -53 -90 -77t-167 -24h-186l-6 57h199q92 0 146 20l-289 481l61 9l164 -283q36 -61 56 -100.5t42 -89.5q30 21 42 54.5t12 84.5v511l53 7v-562q0 -74 24 -103t78 -29z" />
    <glyph glyph-name="f_f" unicode="ff" horiz-adv-x="601" 
d="M472.5 674q-22.5 -21 -22.5 -67v-84h137l-7 -47h-130v-476h-58v476h-227v-476h-58v476h-86v47h86v76q0 63 40.5 98.5t115.5 35.5q41 0 77 -8t82 -27q39 45 115 45q62 0 121 -28l-19 -43q-52 23 -99 23q-45 0 -67.5 -21zM392 609q0 25 8 49q-38 15 -68 21t-65 6
q-53 0 -77.5 -21t-24.5 -67v-74h227v86z" />
    <glyph glyph-name="f_f_i" unicode="ffi" horiz-adv-x="846" 
d="M741 523v-523h-58v476h-233v-476h-58v476h-227v-476h-58v476h-86v47h86v76q0 63 40.5 98.5t115.5 35.5q42 0 77.5 -8t80.5 -27q40 45 124 45q76 0 147 -37l-21 -42q-65 30 -125 30q-50 0 -73 -20.5t-23 -68.5v-82h291zM392 608q0 29 7 50q-37 15 -67 21t-65 6
q-53 0 -77.5 -21t-24.5 -67v-74h227v85z" />
    <glyph glyph-name="f_f_j" unicode="ffj" horiz-adv-x="846" 
d="M741 19q0 -68 -14.5 -108t-43.5 -64.5t-82 -49.5l-17 43q38 19 58.5 37.5t30.5 51t10 88.5v459h-233v-476h-58v476h-227v-476h-58v476h-86v47h86v76q0 63 40.5 98.5t115.5 35.5q42 0 77.5 -8t80.5 -27q40 45 124 45q76 0 147 -37l-21 -42q-65 30 -125 30q-50 0 -73 -20.5
t-23 -68.5v-82h291v-504zM392 608q0 29 7 50q-37 15 -67 21t-65 6q-53 0 -77.5 -21t-24.5 -67v-74h227v85z" />
    <glyph glyph-name="f_f_l" unicode="ffl" horiz-adv-x="875" 
d="M837 3q-33 -14 -62 -14q-44 0 -67.5 25t-23.5 76v583q-37 12 -67 17t-66 5q-53 0 -77 -21t-24 -67v-84h137l-7 -47h-130v-476h-58v476h-227v-476h-58v476h-86v47h86v76q0 63 40.5 98.5t115.5 35.5q41 0 77 -8t82 -27q40 45 125 45q38 0 68.5 -5.5t68.5 -17.5l58 8v-638
q0 -26 10 -38.5t33 -12.5q21 0 36 7zM392 609q0 23 7 49q-37 15 -67 21t-65 6q-53 0 -77.5 -21t-24.5 -67v-74h227v86z" />
    <glyph glyph-name="f_j" unicode="fj" horiz-adv-x="562" 
d="M457 19q0 -68 -15 -108t-44 -64.5t-81 -49.5l-17 43q38 19 58.5 37.5t30.5 51t10 88.5v459h-234v-476h-58v476h-86v47h86v85q0 64 39.5 99.5t113.5 35.5q78 0 147 -37l-21 -42q-64 30 -124 30q-51 0 -74 -20.5t-23 -68.5v-82h292v-504z" />
    <glyph glyph-name="uni0E240E45" unicode="&#xe24;&#xe45;" horiz-adv-x="920" 
d="M769 539.5q48 -41.5 48 -124.5v-602l-58 8v591q0 62 -34.5 90.5t-112.5 28.5q-60 0 -134 -20q44 -49 44 -133v-575l-58 8v565q0 75 -38.5 111t-114.5 36q-114 0 -184 -82q83 -13 150 -44v-47q-61 -5 -90.5 -36t-29.5 -94v-126q0 -55 51 -55q14 0 26.5 3.5t23.5 7.5
l13 -43q-20 -8 -36.5 -13t-37.5 -5q-47 0 -71.5 26.5t-24.5 79.5v125q0 67 32.5 107t90.5 49q-76 27 -152 35v40q35 45 94.5 82.5t146.5 37.5q77 0 127 -29q93 39 179 39q102 0 150 -41.5z" />
    <glyph glyph-name="uni0E260E45" unicode="&#xe26;&#xe45;" horiz-adv-x="913" 
d="M761.5 540q47.5 -41 47.5 -125v-602l-58 8v591q0 62 -34 90.5t-113 28.5q-59 0 -133 -20q44 -49 44 -133v-575l-58 8v565q0 75 -37.5 111t-112.5 36q-111 0 -181 -82q83 -13 150 -44v-47q-50 -7 -75.5 -38.5t-25.5 -97.5v-99q0 -60 -19 -90.5t-76 -30.5q-11 0 -21 1
l-2 43h10q25 0 35.5 9t12.5 24t2 53v99q0 65 29 102t82 49q-81 30 -157 37v40q35 46 93.5 83t143.5 37q76 0 125 -29q94 39 179 39q102 0 149.5 -41z" />
    <glyph glyph-name="uni06440671" unicode="&#xfedf;&#xfb51;" horiz-adv-x="628" 
d="M528.5 234.5q23.5 -44.5 23.5 -88.5q0 -74 -52.5 -110t-167.5 -36h-230l4 53q114 79 182.5 141t108.5 127l-3 3l-311 300l66 10l272 -268q24 52 35 113.5t11 139.5v125l53 6v-135q0 -165 -63 -285q48 -51 71.5 -95.5zM464.5 75.5q41.5 19.5 41.5 70.5q0 60 -75 140
q-41 -62 -102 -118t-146 -112h145q95 0 136.5 19.5zM232.5 845.5q19.5 -18.5 19.5 -48.5q0 -40 -30 -59t-79 -19q-35 0 -85 16l-18 -41l-31 11l24 72q28 -9 34 -11q24 50 53.5 74t61.5 24q31 0 50.5 -18.5zM199 763.5q18 9.5 18 30.5q0 33 -38 33q-23 0 -44.5 -18t-38.5 -49
q28 -6 54 -6q31 0 49 9.5z" />
    <glyph glyph-name="uni06440671.fina" unicode="&#xfee0;&#xfb51;" horiz-adv-x="666" 
d="M686 29l-20 -29q-53 0 -88 24.5t-46 76.5q-28 -53 -90 -77t-167 -24h-186l-6 57h199q92 0 146 20l-289 481l61 9l164 -283q36 -61 56 -100.5t42 -89.5q30 21 42 54.5t12 84.5v511l53 7v-562q0 -74 24 -103t78 -29zM282.5 786.5q19.5 -18.5 19.5 -48.5q0 -40 -30 -59
t-79 -19q-35 0 -85 16l-18 -41l-31 11l24 72q28 -9 34 -11q24 50 53.5 74t61.5 24q31 0 50.5 -18.5zM249 704.5q18 9.5 18 30.5q0 33 -38 33q-23 0 -44.5 -18t-38.5 -49q28 -6 54 -6q31 0 49 9.5z" />
    <glyph glyph-name="uni0E1B0E31" unicode="&#xe1b;&#xe31;" horiz-adv-x="607" 
d="M503 662v-460q0 -97 -52 -154.5t-153 -57.5q-99 0 -149 56t-50 156v199q0 53 -6.5 87.5t-19.5 68.5l55 7q13 -26 21 -59t8 -67v-232q0 -80 35 -124t106 -44q75 0 111 44t36 124v452q-9 -1 -25 -1q-67 0 -100 19.5t-33 65.5q0 24 7 52h45q-6 -26 -6 -43q0 -29 20 -40.5
t75 -11.5h17v81l58 -7v-69q72 7 127 23l9 -39q-59 -17 -136 -26z" />
    <glyph glyph-name="uni0E1B0E49" unicode="&#xe1b;&#xe49;" horiz-adv-x="607" 
d="M503 773v-571q0 -97 -52 -154.5t-153 -57.5q-99 0 -149 56t-50 156v199q0 53 -6.5 87.5t-19.5 68.5l55 7q13 -26 21 -59t8 -67v-232q0 -80 35 -124t106 -44q75 0 111 44t36 124v516q-38 -35 -98.5 -50.5t-158.5 -17.5l-14 20q29 36 29 65q0 46 -47 46q-19 0 -39 -5l-5 36
q23 9 53 9q38 0 63 -19t25 -55q0 -30 -19 -57q83 3 131.5 23t78.5 63h1z" />
    <glyph glyph-name="uni0E1B0E4A" unicode="&#xe1b;&#xe4a;" horiz-adv-x="607" 
d="M503 773v-571q0 -97 -52 -154.5t-153 -57.5q-99 0 -149 56t-50 156v199q0 53 -6.5 87.5t-19.5 68.5l55 7q13 -26 21 -59t8 -67v-232q0 -80 35 -124t106 -44q75 0 111 44t36 124v505q-25 -30 -60.5 -42t-81.5 -12q-23 0 -35 2q8 38 8 70q0 27 -13 41.5t-35 14.5
q-25 0 -40.5 -22t-15.5 -58v-29l-47 -4v33q0 37 -14.5 58.5t-40.5 21.5q-22 0 -34.5 -14.5t-12.5 -42.5q0 -29 8 -69h-46q-4 13 -7 33.5t-3 38.5q0 42 23.5 68t65.5 26q38 0 58.5 -20.5t26.5 -48.5q5 28 26.5 48.5t60.5 20.5q41 0 64 -24t23 -62q0 -25 -8 -47q48 1 81 24.5
t49 63.5z" />
    <glyph glyph-name="uni0E1B0E4B" unicode="&#xe1b;&#xe4b;" horiz-adv-x="607" 
d="M503 773v-571q0 -97 -52 -154.5t-153 -57.5q-99 0 -149 56t-50 156v199q0 53 -6.5 87.5t-19.5 68.5l55 7q13 -26 21 -59t8 -67v-232q0 -80 35 -124t106 -44q75 0 111 44t36 124v574zM388 725l-74 1v-67h-48l1 67l-77 -1l5 40h72l-1 57l48 6v-63h74v-40z" />
    <glyph glyph-name="uni0E1B0E4C" unicode="&#xe1b;&#xe4c;" horiz-adv-x="607" 
d="M593 705h-90v-503q0 -97 -52 -154.5t-153 -57.5q-99 0 -149 56t-50 156v199q0 53 -6.5 87.5t-19.5 68.5l55 7q13 -26 21 -59t8 -67v-232q0 -80 35 -124t106 -44q75 0 111 44t36 124v499h-66q-26 0 -36 -11t-10 -37q0 -13 2 -39h-48q-4 28 -4 48q0 80 91 80h71v34l58 -7
v-27h90v-41z" />
    <glyph glyph-name="uni0E1B0E4D" unicode="&#xe1b;&#xe4d;" horiz-adv-x="607" 
d="M503 773v-571q0 -97 -52 -154.5t-153 -57.5q-99 0 -149 56t-50 156v199q0 53 -6.5 87.5t-19.5 68.5l55 7q13 -26 21 -59t8 -67v-232q0 -80 35 -124t106 -44q75 0 111 44t36 124v574zM366 803.5q25 -24.5 25 -62.5t-25 -62t-65 -24t-65 24t-25 62t25 62.5t65 24.5
t65 -24.5zM267 776.5q-12 -12.5 -12 -35.5t12 -35.5t34 -12.5t33.5 12.5t11.5 35.5t-11.5 35.5t-33.5 12.5t-34 -12.5z" />
    <glyph glyph-name="uni0E1D0E31" unicode="&#xe1d;&#xe31;" horiz-adv-x="731" 
d="M628 662v-457q0 -115 -41 -165.5t-105 -50.5q-109 0 -125 120q-10 -62 -42 -91t-86 -29q-66 0 -104.5 52.5t-38.5 165.5v94q0 104 17 163t49 83t82 24q33 0 61 -14l-10 -41q-24 8 -44 8q-49 0 -73 -50t-24 -174v-90q0 -94 24 -133t69 -39q43 0 67 31.5t24 109.5v121l57 7
v-128q0 -141 90 -141q43 0 69 36t26 131v453q-9 -1 -25 -1q-67 0 -100.5 19.5t-33.5 65.5q0 20 8 52h45q-6 -19 -6 -43q0 -29 19.5 -40.5t74.5 -11.5h18v81l58 -7v-69q63 6 127 23l9 -39q-66 -18 -136 -26z" />
    <glyph glyph-name="uni0E1D0E49" unicode="&#xe1d;&#xe49;" horiz-adv-x="731" 
d="M628 773v-568q0 -115 -41 -165.5t-105 -50.5q-109 0 -125 120q-10 -62 -42 -91t-86 -29q-66 0 -104.5 52.5t-38.5 165.5v94q0 104 17 163t49 83t82 24q33 0 61 -14l-10 -41q-24 8 -44 8q-49 0 -73 -50t-24 -174v-90q0 -94 24 -133t69 -39q43 0 67 31.5t24 109.5v121l57 7
v-128q0 -141 90 -141q43 0 69 36t26 131v517q-38 -35 -99 -50.5t-159 -17.5l-13 20q29 38 29 65q0 46 -48 46q-18 0 -38 -5l-5 36q23 9 52 9q39 0 64 -19t25 -55q0 -30 -19 -57q83 3 131 23t79 63h1z" />
    <glyph glyph-name="uni0E1D0E4A" unicode="&#xe1d;&#xe4a;" horiz-adv-x="731" 
d="M628 773v-568q0 -115 -41 -165.5t-105 -50.5q-109 0 -125 120q-10 -62 -42 -91t-86 -29q-66 0 -104.5 52.5t-38.5 165.5v94q0 104 17 163t49 83t82 24q33 0 61 -14l-10 -41q-24 8 -44 8q-49 0 -73 -50t-24 -174v-90q0 -94 24 -133t69 -39q43 0 67 31.5t24 109.5v121l57 7
v-128q0 -141 90 -141q43 0 69 36t26 131v506q-25 -30 -60.5 -42t-81.5 -12q-23 0 -35 2q7 34 7 70q0 27 -12.5 41.5t-34.5 14.5q-25 0 -40.5 -22t-15.5 -58v-29l-48 -4v33q0 36 -14.5 58t-39.5 22q-23 0 -35.5 -14.5t-12.5 -42.5q0 -33 9 -69h-46q-4 13 -7 33.5t-3 38.5
q0 42 23.5 68t65.5 26q38 0 58 -20t26 -49q5 28 27 48.5t60 20.5q42 0 65 -24t23 -62q0 -19 -8 -47q48 2 80.5 25t49.5 63z" />
    <glyph glyph-name="uni0E1D0E4B" unicode="&#xe1d;&#xe4b;" horiz-adv-x="731" 
d="M628 773v-568q0 -115 -41 -165.5t-105 -50.5q-109 0 -125 120q-10 -62 -42 -91t-86 -29q-66 0 -104.5 52.5t-38.5 165.5v94q0 104 17 163t49 83t82 24q33 0 61 -14l-10 -41q-24 8 -44 8q-49 0 -73 -50t-24 -174v-90q0 -94 24 -133t69 -39q43 0 67 31.5t24 109.5v121l57 7
v-128q0 -141 90 -141q43 0 69 36t26 131v575zM513 725l-74 1v-67h-48l1 67l-77 -1l5 40h72l-1 57l48 6v-63h74v-40z" />
    <glyph glyph-name="uni0E1D0E4C" unicode="&#xe1d;&#xe4c;" horiz-adv-x="731" 
d="M717 705h-89v-500q0 -115 -41 -165.5t-105 -50.5q-109 0 -125 120q-10 -62 -42 -91t-86 -29q-66 0 -104.5 52.5t-38.5 165.5v94q0 104 17 163t49 83t82 24q33 0 61 -14l-10 -41q-24 8 -44 8q-49 0 -73 -50t-24 -174v-90q0 -94 24 -133t69 -39q43 0 67 31.5t24 109.5v121
l57 7v-128q0 -141 90 -141q43 0 69 36t26 131v500h-66q-26 0 -36.5 -11t-10.5 -37q0 -19 3 -39h-48q-4 28 -4 48q0 80 91 80h71v34l58 -7v-27h89v-41z" />
    <glyph glyph-name="uni0E1D0E4D" unicode="&#xe1d;&#xe4d;" horiz-adv-x="731" 
d="M628 773v-568q0 -115 -41 -165.5t-105 -50.5q-109 0 -125 120q-10 -62 -42 -91t-86 -29q-66 0 -104.5 52.5t-38.5 165.5v94q0 104 17 163t49 83t82 24q33 0 61 -14l-10 -41q-24 8 -44 8q-49 0 -73 -50t-24 -174v-90q0 -94 24 -133t69 -39q43 0 67 31.5t24 109.5v121l57 7
v-128q0 -141 90 -141q43 0 69 36t26 131v575zM491 803.5q25 -24.5 25 -62.5t-25 -62t-65 -24t-65 24t-25 62t25 62.5t65 24.5t65 -24.5zM392 776.5q-12 -12.5 -12 -35.5t12 -35.5t34 -12.5t33.5 12.5t11.5 35.5t-11.5 35.5t-33.5 12.5t-34 -12.5z" />
    <glyph glyph-name="uni0E1F0E31" unicode="&#xe1f;&#xe31;" horiz-adv-x="766" 
d="M717 660l-19 -98l-106 -562h-74l-138 497l-140 -497h-71l-71 393q-13 65 -27 101.5t-34 62.5l52 12q43 -49 63 -172l57 -345l140 510h63l142 -510l89 510l17 95h-8q-67 0 -100 19.5t-33 65.5q0 24 7 52h45q-6 -26 -6 -43q0 -29 19.5 -40.5t74.5 -11.5h9l15 81h57l-15 -77
q73 7 137 24l9 -39q-70 -19 -154 -28z" />
    <glyph glyph-name="uni0E1F0E49" unicode="&#xe1f;&#xe49;" horiz-adv-x="756" 
d="M698 562l-106 -562h-74l-138 497l-140 -497h-71l-71 393q-13 65 -27 101.5t-34 62.5l52 12q43 -49 63 -172l57 -345l140 510h63l142 -510l89 510l16 84q6 36 15 69q-39 -31 -97 -45t-145 -16l-13 20q29 38 29 65q0 46 -48 46q-20 0 -38 -5l-6 36q25 9 53 9q39 0 64 -19
t25 -56q0 -28 -19 -55q75 3 123.5 23t79.5 62h58z" />
    <glyph glyph-name="uni0E1F0E4A" unicode="&#xe1f;&#xe4a;" horiz-adv-x="756" 
d="M740 780l-42 -218l-106 -562h-74l-138 497l-140 -497h-71l-71 393q-13 65 -27 101.5t-34 62.5l52 12q43 -49 63 -172l57 -345l140 510h63l142 -510l89 510l14 74q6 37 15 64q-44 -43 -127 -43q-23 0 -35 2q8 32 8 70q0 27 -12.5 41.5t-34.5 14.5q-26 0 -41.5 -22
t-15.5 -58v-29l-47 -4v33q0 36 -14.5 58t-39.5 22q-23 0 -35.5 -14.5t-12.5 -42.5q0 -29 8 -69h-45q-4 13 -7 33t-3 39q0 42 23.5 68t64.5 26q38 0 58.5 -20.5t26.5 -48.5q5 28 27 48.5t60 20.5q42 0 64.5 -24t22.5 -62q0 -25 -8 -47q46 2 78.5 25t47.5 63h57z" />
    <glyph glyph-name="uni0E1F0E4B" unicode="&#xe1f;&#xe4b;" horiz-adv-x="756" 
d="M740 780l-42 -218l-106 -562h-74l-138 497l-140 -497h-71l-71 393q-13 65 -27 101.5t-34 62.5l52 12q43 -49 63 -172l57 -345l140 510h63l142 -510l89 510l40 218h57zM618 725l-74 1v-67h-48l1 67l-77 -1l5 40h72l-1 57l48 6v-63h74v-40z" />
    <glyph glyph-name="uni0E1F0E4C" unicode="&#xe1f;&#xe4c;" horiz-adv-x="766" 
d="M825 705h-99l-28 -143l-106 -562h-74l-138 497l-140 -497h-71l-71 393q-13 65 -27 101.5t-34 62.5l52 12q43 -49 63 -172l57 -345l140 510h63l142 -510l89 510l26 143h-58q-26 0 -36.5 -11t-10.5 -37q0 -19 3 -39h-48q-4 28 -4 48q0 80 91 80h71l6 34h57l-7 -34h92v-41z
" />
    <glyph glyph-name="uni0E1F0E4D" unicode="&#xe1f;&#xe4d;" horiz-adv-x="756" 
d="M740 780l-42 -218l-106 -562h-74l-138 497l-140 -497h-71l-71 393q-13 65 -27 101.5t-34 62.5l52 12q43 -49 63 -172l57 -345l140 510h63l142 -510l89 510l40 218h57zM595 803.5q25 -24.5 25 -62.5t-25 -62t-65 -24t-65 24t-25 62t25 62.5t65 24.5t65 -24.5zM496 776.5
q-12 -12.5 -12 -35.5t12 -35.5t34 -12.5t33.5 12.5t11.5 35.5t-11.5 35.5t-33.5 12.5t-34 -12.5z" />
    <glyph glyph-name="uni0E310E4A" unicode="&#xe31;&#xe4a;" 
d="M-461 676q-32 20 -32 67q0 29 8 51h45q-6 -19 -6 -43q0 -28 18.5 -39.5t70.5 -11.5q34 0 88 9.5t101 26.5l11 -42q-53 -18 -110.5 -28t-96.5 -10q-65 0 -97 20zM-30 976q-28 -68 -73.5 -95.5t-106.5 -27.5q-16 0 -31 3q6 32 6 63q0 24 -11.5 37t-30.5 13q-23 0 -37 -19.5
t-14 -52.5v-26l-42 -4v30q0 33 -13 52.5t-36 19.5q-21 0 -32 -13t-11 -38q0 -32 7 -62h-41q-9 32 -9 65q0 38 21.5 61t58.5 23q34 0 52.5 -18.5t23.5 -43.5q4 25 24 43.5t55 18.5q37 0 57.5 -22t20.5 -56q0 -18 -7 -41q47 2 79 28.5t49 72.5z" />
    <glyph glyph-name="uni0620.init" unicode="&#x620;" horiz-adv-x="269" 
d="M203 13.5q13 -19.5 13 -43.5q0 -34 -22.5 -56.5t-57.5 -22.5t-58 23t-23 56q0 15 7 33q-27 -3 -62 -3l-20 29l25 28q62 0 94 11t43.5 35t11.5 68q0 83 -43 206l54 18q20 -58 30.5 -118t10.5 -109q0 -46 -8.5 -76.5t-28.5 -49.5q21 -9 34 -28.5zM170 -62.5
q12 12.5 12 32.5t-13 32t-33 12q-21 0 -34 -12t-13 -32t12.5 -32.5t34.5 -12.5t34 12.5z" />
    <glyph glyph-name="uni0620.medi" unicode="&#x620;" horiz-adv-x="327" 
d="M225 20.5q-40 20.5 -60 64.5q-8 -21 -24 -38q24 -8 39 -28t15 -47q0 -33 -22.5 -55.5t-57.5 -22.5t-58 22.5t-23 55.5q0 16 6 30q-26 -2 -40 -2l-20 29l26 28q54 0 82 13.5t38 38.5t10 67v145h54v-145q0 -62 31.5 -90.5t110.5 -28.5l15 -28l-20 -29q-62 0 -102 20.5z
M148.5 4.5q-12.5 11.5 -33.5 11.5t-34 -11.5t-13 -32.5q0 -20 12.5 -32.5t34.5 -12.5t34 12.5t12 32.5q0 21 -12.5 32.5z" />
    <glyph glyph-name="uni0620.fina" unicode="&#x620;" horiz-adv-x="722" 
d="M722 0q-28 0 -50.5 5t-46.5 16q11 -19 11 -40q0 -43 -30 -81t-90.5 -64.5t-147.5 -34.5q15 -22 15 -47q0 -33 -22.5 -55.5t-57.5 -22.5t-58 22.5t-23 55.5q0 27 16 49q-95 14 -140 72.5t-45 150.5q0 93 42 184l40 -13q-30 -78 -30 -164q0 -83 48 -130.5t155 -47.5
q89 0 152 20t95 50.5t32 60.5q0 19 -14.5 33.5t-52 30.5t-111.5 39l24 50q56 -19 106 -37q66 -25 104 -35t84 -10l15 -28zM339.5 -216.5q-9.5 11.5 -26.5 14.5h-11h-10q-17 -3 -26.5 -14.5t-9.5 -29.5q0 -19 12.5 -31.5t34.5 -12.5t34 12.5t12 31.5q0 18 -9.5 29.5z" />
    <glyph glyph-name="uni063B.init" unicode="&#x63b;" horiz-adv-x="459" 
d="M402 695l-341 -220q106 -46 167 -88t86.5 -84t25.5 -92q0 -104 -89 -157.5t-251 -53.5l-20 29l25 28q145 0 214.5 40t69.5 119q0 56 -62.5 110t-223.5 120l12 54l391 255zM-45.5 723q-10.5 10 -10.5 25q0 14 10.5 24.5t24.5 10.5t24 -10.5t10 -24.5q0 -15 -10 -25
t-24 -10t-24.5 10zM92 723q-10 10 -10 25q0 14 10 24.5t25 10.5q14 0 24.5 -10.5t10.5 -24.5q0 -15 -10.5 -25t-24.5 -10q-15 0 -25 10z" />
    <glyph glyph-name="uni063B.medi" unicode="&#x63b;" horiz-adv-x="543" 
d="M563 30l-20 -30q-57 0 -100 17t-87.5 60t-103.5 124q1 -6 1 -16q0 -85 -65 -135t-188 -50l-20 29l25 28q102 0 152 36.5t50 101.5q0 63 -55 131l-98 121l12 52l391 256l-3 -60l-350 -226l164 -205q77 -96 115 -136t73.5 -55.5t91.5 -15.5zM-0.5 723q-10.5 10 -10.5 25
q0 14 10.5 24.5t24.5 10.5t24 -10.5t10 -24.5q0 -15 -10 -25t-24 -10t-24.5 10zM137 723q-10 10 -10 25q0 14 10 24.5t25 10.5q14 0 24.5 -10.5t10.5 -24.5q0 -15 -10.5 -25t-24.5 -10q-15 0 -25 10z" />
    <glyph glyph-name="uni063B.fina" unicode="&#x63b;" horiz-adv-x="983" 
d="M1003 30l-20 -30q-57 0 -100.5 17.5t-88.5 60.5t-103 125q1 -7 1 -18q0 -93 -82 -145t-278 -53q-147 0 -213 46t-66 143q0 77 36 153l41 -14q-26 -66 -26 -132q0 -73 54 -106t179 -33q120 0 188.5 18.5t95 51.5t26.5 81q0 62 -55 131l-98 121l12 52l392 256l-4 -60
l-350 -226l164 -205q77 -96 115 -136t73.5 -55.5t91.5 -15.5zM432.5 723q-10.5 10 -10.5 25q0 14 10.5 24.5t24.5 10.5t24 -10.5t10 -24.5q0 -15 -10 -25t-24 -10t-24.5 10zM570 723q-10 10 -10 25q0 14 10 24.5t25 10.5q14 0 24.5 -10.5t10.5 -24.5q0 -15 -10.5 -25
t-24.5 -10q-15 0 -25 10z" />
    <glyph glyph-name="uni063C.init" unicode="&#x63c;" horiz-adv-x="459" 
d="M402 695l-341 -220q106 -46 167 -88t86.5 -84t25.5 -92q0 -104 -89 -157.5t-251 -53.5l-20 29l25 28q145 0 214.5 40t69.5 119q0 56 -62.5 110t-223.5 120l12 54l391 255zM131.5 -132q3.5 -4 3.5 -9t-3.5 -8.5t-8.5 -3.5t-9 3.5t-4 8.5t4 9t9 4t8.5 -4zM172.5 -183.5
q3.5 -3.5 3.5 -8.5t-3.5 -8.5t-8.5 -3.5q-4 0 -8 3.5t-4 8.5t3.5 8.5t8.5 3.5t8.5 -3.5zM100 -187q4 -4 4 -9t-4 -8.5t-9 -3.5q-4 0 -8 3.5t-4 8.5t3.5 9t8.5 4t9 -4z" />
    <glyph glyph-name="uni063C.medi" unicode="&#x63c;" horiz-adv-x="543" 
d="M563 30l-20 -30q-57 0 -100 17t-87.5 60t-103.5 124q1 -6 1 -16q0 -85 -65 -135t-188 -50l-20 29l25 28q102 0 152 36.5t50 101.5q0 63 -55 131l-98 121l12 52l391 256l-3 -60l-350 -226l164 -205q77 -96 115 -136t73.5 -55.5t91.5 -15.5zM283.5 -132q3.5 -4 3.5 -9
t-3.5 -8.5t-8.5 -3.5t-9 3.5t-4 8.5t4 9t9 4t8.5 -4zM324.5 -183.5q3.5 -3.5 3.5 -8.5t-3.5 -8.5t-8.5 -3.5q-4 0 -8 3.5t-4 8.5t3.5 8.5t8.5 3.5t8.5 -3.5zM252 -187q4 -4 4 -9t-4 -8.5t-9 -3.5q-4 0 -8 3.5t-4 8.5t3.5 9t8.5 4t9 -4z" />
    <glyph glyph-name="uni063C.fina" unicode="&#x63c;" horiz-adv-x="983" 
d="M1003 30l-20 -30q-57 0 -100.5 17.5t-88.5 60.5t-103 125q1 -7 1 -18q0 -93 -82 -145t-278 -53q-147 0 -213 46t-66 143q0 77 36 153l41 -14q-26 -66 -26 -132q0 -73 54 -106t179 -33q120 0 188.5 18.5t95 51.5t26.5 81q0 62 -55 131l-98 121l12 52l392 256l-4 -60
l-350 -226l164 -205q77 -96 115 -136t73.5 -55.5t91.5 -15.5zM379.5 -132q3.5 -4 3.5 -9t-3.5 -8.5t-8.5 -3.5t-9 3.5t-4 8.5t4 9t9 4t8.5 -4zM420.5 -183.5q3.5 -3.5 3.5 -8.5t-3.5 -8.5t-8.5 -3.5q-4 0 -8 3.5t-4 8.5t3.5 8.5t8.5 3.5t8.5 -3.5zM348 -187q4 -4 4 -9
t-4 -8.5t-9 -3.5q-4 0 -8 3.5t-4 8.5t3.5 9t8.5 4t9 -4z" />
    <glyph glyph-name="uni066E.init" unicode="&#x66e;" horiz-adv-x="269" 
d="M99 68q32 11 43.5 35t11.5 68q0 83 -43 206l54 18q20 -58 30.5 -118t10.5 -109q0 -64 -18 -100t-62 -52t-126 -16l-20 29l25 28q62 0 94 11z" />
    <glyph glyph-name="uni066E.medi" unicode="&#x66e;" horiz-adv-x="327" 
d="M347 29l-20 -29q-62 0 -102 20.5t-60 64.5q-19 -45 -58.5 -65t-106.5 -20l-20 29l26 28q54 0 82 13.5t38 38.5t10 67v145h54v-145q0 -62 31.5 -90.5t110.5 -28.5z" />
    <glyph glyph-name="uni066E.fina" unicode="&#x66e;" horiz-adv-x="917" 
d="M937 30l-20 -30q-67 0 -105 22.5t-62 59.5q-76 -47 -176 -71t-242 -24q-147 0 -213 46t-66 143q0 77 36 153l41 -14q-26 -66 -26 -132q0 -73 54 -106t179 -33q128 0 229.5 24t162.5 64v189h52v-147q0 -56 30 -86.5t111 -30.5z" />
    <glyph glyph-name="uni066F.init" unicode="&#x66f;" horiz-adv-x="459" 
d="M308 514.5q41 -31.5 64.5 -92.5t23.5 -146q0 -103 -34.5 -162t-119.5 -86.5t-242 -27.5l-20 30l25 27q133 0 205.5 18t101.5 53t34 94q-20 -19 -52.5 -28.5t-71.5 -9.5q-83 0 -133.5 48t-50.5 125q0 50 23 93.5t63.5 69.5t89.5 26q53 0 94 -31.5zM296 241q30 7 52 19v7
q0 111 -36 166.5t-99 55.5q-55 0 -90.5 -37.5t-35.5 -90.5q0 -59 39 -93t113 -34q27 0 57 7z" />
    <glyph glyph-name="uni066F.medi" unicode="&#x66f;" horiz-adv-x="494" 
d="M514 29l-20 -29h-37q-52 0 -104.5 12t-98.5 34q-100 -46 -223 -46h-31l-20 29l25 28h32q90 0 159 21q-54 37 -85.5 85.5t-31.5 104.5q0 51 22.5 96t61.5 71.5t85 26.5q53 0 93 -26.5t62 -71.5t22 -97q0 -50 -30 -100.5t-85 -88.5q69 -21 147 -21h42zM161.5 171
q33.5 -42 91.5 -71q59 28 91 71t32 96q0 60 -34.5 99t-91.5 39q-53 0 -87.5 -39t-34.5 -98q0 -55 33.5 -97z" />
    <glyph glyph-name="uni066F.fina" unicode="&#x66f;" horiz-adv-x="764" 
d="M764 0h-98q-14 -120 -83.5 -183t-225.5 -63q-165 0 -234.5 59t-69.5 169q0 91 42 184l40 -13q-30 -78 -30 -164q0 -85 57.5 -131.5t199.5 -46.5q134 0 190 49.5t67 139.5h-88q-105 0 -161 48.5t-56 127.5q0 50 23 93.5t63.5 69t88.5 25.5q53 0 94 -31.5t64.5 -93.5
t23.5 -150q0 -22 -1 -32h99l15 -28zM623 57v24q0 114 -35.5 170.5t-98.5 56.5q-55 0 -91 -37.5t-36 -90.5q0 -58 42.5 -90.5t121.5 -32.5h97z" />
    <glyph glyph-name="uni0676.fina" unicode="&#x676;" horiz-adv-x="527" 
d="M408 547l-198 -32l-5 34l68 11q-23 17 -35.5 37t-12.5 39q0 35 24.5 58t71.5 23q34 0 68 -19l-19 -32q-29 15 -52 15q-29 0 -42.5 -13t-13.5 -32q0 -34 51 -69l90 15zM527 0h-108q-23 -102 -106.5 -165.5t-242.5 -92.5l-17 56q141 26 216 75.5t99 126.5h-84
q-102 0 -157 48.5t-55 126.5q0 50 23 93t63.5 69t88.5 26q53 0 94 -31.5t64.5 -91t23.5 -142.5q0 -15 -2 -41h105l15 -28zM291 57h88q1 11 1 34q0 106 -35.5 160.5t-98.5 54.5q-54 0 -90 -37.5t-36 -90.5q0 -121 171 -121z" />
    <glyph glyph-name="uni0677.fina" unicode="&#x677;" horiz-adv-x="527" 
d="M527 0h-108q-23 -102 -106.5 -165.5t-242.5 -92.5l-17 56q141 26 216 75.5t99 126.5h-84q-102 0 -157 48.5t-55 126.5q0 50 23 93t63.5 69t88.5 26q53 0 94 -31.5t64.5 -91t23.5 -142.5q0 -15 -2 -41h105l15 -28zM291 57h88q1 11 1 34q0 106 -35.5 160.5t-98.5 54.5
q-54 0 -90 -37.5t-36 -90.5q0 -121 171 -121zM352 450l-198 -32l-5 34l68 11q-23 17 -35.5 37t-12.5 39q0 35 24.5 58t71.5 23q34 0 68 -19l-19 -32q-29 15 -52 15q-29 0 -42.5 -13t-13.5 -32q0 -34 51 -69l90 15zM315.5 857q19.5 -23 19.5 -57q0 -44 -42 -86.5t-114 -69.5
l-15 31q51 19 87 44q-37 14 -54 35.5t-17 46.5q0 36 23.5 57.5t55.5 21.5q37 0 56.5 -23zM302 797q0 19 -11.5 32.5t-32.5 13.5q-19 0 -31 -11.5t-12 -31.5q0 -19 14.5 -33t48.5 -24q24 27 24 54z" />
    <glyph glyph-name="uni0678.init" unicode="&#x678;" horiz-adv-x="269" 
d="M253 587l-198 -32l-5 34l68 11q-23 17 -35.5 37t-12.5 39q0 35 24.5 58t71.5 23q34 0 68 -19l-19 -32q-29 15 -52 15q-29 0 -42.5 -13t-13.5 -32q0 -34 51 -69l90 15zM99 68q32 11 43.5 35t11.5 68q0 83 -43 206l54 18q20 -58 30.5 -118t10.5 -109q0 -64 -18 -100
t-62 -52t-126 -16l-20 29l25 28q62 0 94 11z" />
    <glyph glyph-name="uni0678.medi" unicode="&#x678;" horiz-adv-x="327" 
d="M96 519l68 11q-23 17 -35.5 37t-12.5 39q0 35 24.5 58t71.5 23q34 0 68 -19l-20 -32q-27 15 -51 15q-29 0 -42.5 -13t-13.5 -32q0 -34 51 -69l90 15l4 -35l-198 -32zM347 29l-20 -29q-62 0 -102 20.5t-60 64.5q-19 -45 -58.5 -65t-106.5 -20l-20 29l26 28q54 0 82 13.5
t38 38.5t10 67v145h54v-145q0 -62 31.5 -90.5t110.5 -28.5z" />
    <glyph glyph-name="uni0678.fina" unicode="&#x678;" horiz-adv-x="722" 
d="M722 0q-28 0 -50.5 5t-46.5 16q11 -19 11 -40q0 -48 -37.5 -89.5t-113 -67.5t-183.5 -26q-128 0 -188.5 61t-60.5 167q0 93 42 184l40 -13q-30 -78 -30 -164q0 -83 48 -130.5t155 -47.5q89 0 152 20t95 50.5t32 60.5q0 19 -14.5 33.5t-52 30.5t-111.5 39l24 50
q56 -19 106 -37q66 -25 104 -35t84 -10l15 -28zM596 298l-198 -32l-5 34l68 11q-23 17 -35.5 37t-12.5 39q0 35 24.5 58t71.5 23q34 0 68 -19l-19 -32q-29 15 -52 15q-29 0 -42.5 -13t-13.5 -32q0 -34 51 -69l90 15z" />
    <glyph glyph-name="uni067C.init" unicode="&#x67c;" horiz-adv-x="274" 
d="M26 507.5q-10 10.5 -10 24.5t10 24.5t25 10.5q14 0 24 -10.5t10 -24.5t-10 -24.5t-24 -10.5q-15 0 -25 10.5zM213.5 556.5q10.5 -10.5 10.5 -24.5t-10.5 -24.5t-24.5 -10.5q-15 0 -25 10.5t-10 24.5t10 24.5t25 10.5q14 0 24.5 -10.5zM195.5 86q-10.5 -32 -35.5 -52
q17 -10 26.5 -27.5t9.5 -38.5q0 -33 -22.5 -55.5t-57.5 -22.5t-58 22.5t-23 55.5q0 19 7 33q-13 -1 -42 -1l-20 29l25 28q62 0 94 11t43.5 35t11.5 68q0 83 -43 206l54 18q20 -58 30.5 -118t10.5 -109q0 -50 -10.5 -82zM149.5 1q-12.5 12 -32.5 12q-10 -3 -28 -7
q-20 -12 -20 -38q0 -19 12.5 -31.5t34.5 -12.5t34 12.5t12 31.5q0 21 -12.5 33z" />
    <glyph glyph-name="uni067C.medi" unicode="&#x67c;" horiz-adv-x="327" 
d="M69.5 437q-10.5 10 -10.5 24t10.5 24.5t24.5 10.5q15 0 24.5 -10t9.5 -25q0 -14 -9.5 -24t-24.5 -10q-14 0 -24.5 10zM207 437q-10 10 -10 24t10 24.5t25 10.5q14 0 24.5 -10.5t10.5 -24.5t-10.5 -24t-24.5 -10q-15 0 -25 10zM347 29l-20 -29q-62 0 -102 20.5t-60 64.5
q-12 -26 -25 -40q23 -8 36.5 -28t13.5 -45q0 -33 -22 -55.5t-58 -22.5q-35 0 -58 22.5t-23 55.5q0 15 6 29q-11 -1 -35 -1l-20 29l26 28q54 0 82 13.5t38 38.5t10 67v145h54v-145q0 -62 31.5 -90.5t110.5 -28.5zM144 4.5q-13 11.5 -34 11.5t-33.5 -11.5t-12.5 -32.5
q0 -20 12.5 -32.5t33.5 -12.5q23 0 35 12.5t12 32.5q0 21 -13 32.5z" />
    <glyph glyph-name="uni067C.fina" unicode="&#x67c;" horiz-adv-x="917" 
d="M332 411q-10 10 -10 24t10 24.5t25 10.5q14 0 24 -10.5t10 -24.5t-10 -24t-24 -10q-15 0 -25 10zM470 411q-10 10 -10 24t10 24.5t25 10.5q14 0 24.5 -10.5t10.5 -24.5t-10.5 -24t-24.5 -10q-15 0 -25 10zM937 30l-20 -30q-67 0 -105 22.5t-62 59.5q-63 -39 -142.5 -62
t-185.5 -30q15 -20 15 -47q0 -33 -22 -55.5t-58 -22.5q-35 0 -58 22.5t-23 55.5q0 25 14 45q-124 6 -180.5 52t-56.5 136q0 77 36 153l41 -14q-26 -66 -26 -132q0 -73 54 -106t179 -33q128 0 229.5 24t162.5 64v189h52v-147q0 -56 30 -86.5t111 -30.5zM392 -89q12 12 12 32
q0 21 -13 32.5t-34 11.5t-33.5 -11.5t-12.5 -32.5q0 -19 12.5 -31.5t33.5 -12.5q23 0 35 12z" />
    <glyph glyph-name="uni067D.init" unicode="&#x67d;" horiz-adv-x="269" 
d="M99 68q32 11 43.5 35t11.5 68q0 83 -43 206l54 18q20 -58 30.5 -118t10.5 -109q0 -64 -18 -100t-62 -52t-126 -16l-20 29l25 28q62 0 94 11zM125.5 619.5q3.5 -3.5 3.5 -8.5t-3.5 -8.5t-8.5 -3.5t-9 3.5t-4 8.5t4 8.5t9 3.5t8.5 -3.5zM166.5 568.5q3.5 -3.5 3.5 -8.5
t-3.5 -8.5t-8.5 -3.5t-8.5 3.5t-3.5 8.5t4 8.5t8 3.5q5 0 8.5 -3.5zM94 564.5q4 -3.5 4 -8.5t-4 -9t-9 -4t-8.5 4t-3.5 9t3.5 8.5t8.5 3.5t9 -3.5z" />
    <glyph glyph-name="uni067D.medi" unicode="&#x67d;" horiz-adv-x="327" 
d="M347 29l-20 -29q-62 0 -102 20.5t-60 64.5q-19 -45 -58.5 -65t-106.5 -20l-20 29l26 28q54 0 82 13.5t38 38.5t10 67v145h54v-145q0 -62 31.5 -90.5t110.5 -28.5zM168.5 549.5q3.5 -3.5 3.5 -8.5t-3.5 -8.5t-8.5 -3.5t-9 3.5t-4 8.5t4 8.5t9 3.5t8.5 -3.5zM209.5 498.5
q3.5 -3.5 3.5 -8.5t-3.5 -8.5t-8.5 -3.5t-8.5 3.5t-3.5 8.5t4 8.5t8 3.5q5 0 8.5 -3.5zM137 494.5q4 -3.5 4 -8.5t-4 -9t-9 -4t-8.5 4t-3.5 9t3.5 8.5t8.5 3.5t9 -3.5z" />
    <glyph glyph-name="uni067D.fina" unicode="&#x67d;" horiz-adv-x="917" 
d="M937 30l-20 -30q-67 0 -105 22.5t-62 59.5q-76 -47 -176 -71t-242 -24q-147 0 -213 46t-66 143q0 77 36 153l41 -14q-26 -66 -26 -132q0 -73 54 -106t179 -33q128 0 229.5 24t162.5 64v189h52v-147q0 -56 30 -86.5t111 -30.5zM431.5 523.5q3.5 -3.5 3.5 -8.5t-3.5 -8.5
t-8.5 -3.5t-9 3.5t-4 8.5t4 8.5t9 3.5t8.5 -3.5zM472.5 472.5q3.5 -3.5 3.5 -8.5t-3.5 -8.5t-8.5 -3.5t-8.5 3.5t-3.5 8.5t4 8.5t8 3.5q5 0 8.5 -3.5zM400 468.5q4 -3.5 4 -8.5t-4 -9t-9 -4t-8.5 4t-3.5 9t3.5 8.5t8.5 3.5t9 -3.5z" />
    <glyph glyph-name="uni0681.init" unicode="&#x681;" horiz-adv-x="695" 
d="M310 427.5q36 -12.5 61.5 -31t61.5 -51.5q53 -49 98.5 -79t119.5 -50l-9 -50l-65 -5q-83 -4 -149 -25t-154 -61q-85 -38 -144 -56.5t-130 -18.5l-20 29l25 29q65 0 118.5 16.5t134.5 51.5q81 36 145 56.5t145 26.5q-51 19 -85.5 42.5t-73.5 57.5q-31 26 -51.5 40.5
t-49 24t-66.5 9.5q-59 0 -118 -36l-27 50q72 43 147 43q50 0 86 -12.5zM325 524l-198 -32l-5 34l68 11q-23 17 -35.5 37t-12.5 39q0 35 24.5 58t71.5 23q34 0 68 -19l-19 -32q-29 15 -52 15q-29 0 -42.5 -13t-13.5 -32q0 -34 51 -69l90 15z" />
    <glyph glyph-name="uni0681.medi" unicode="&#x681;" horiz-adv-x="727" 
d="M747 29l-20 -29q-205 0 -234 187q-45 -11 -85.5 -30t-110.5 -56q-63 -34 -104 -53.5t-90.5 -33.5t-102.5 -14l-20 29l25 28q68 0 126 21.5t142 65.5q82 42 138 64.5t124 31.5q-50 17 -85.5 36.5t-73.5 47.5q-45 31 -75.5 45t-78.5 14q-32 0 -60.5 -8.5t-59.5 -25.5
l-27 49q75 42 148 42q46 0 79 -9.5t57 -24.5t59 -42q52 -41 99.5 -67.5t124.5 -46.5l-7 -50l-65 -2q-17 0 -34 -3q16 -80 63 -109t134 -29zM324 524l-198 -32l-5 34l68 11q-23 17 -35.5 37t-12.5 39q0 35 24.5 58t71.5 23q34 0 68 -19l-19 -32q-29 15 -52 15
q-29 0 -42.5 -13t-13.5 -32q0 -34 51 -69l90 15z" />
    <glyph glyph-name="uni0681.fina" unicode="&#x681;" horiz-adv-x="681" 
d="M199.5 106q-87.5 -73 -87.5 -184q0 -100 71.5 -159t207.5 -59q62 0 118.5 12.5t96.5 33.5l22 -50q-42 -24 -105.5 -39t-137.5 -15q-107 0 -179 34.5t-107 95t-35 138.5q0 143 109.5 231.5t316.5 102.5q-36 15 -62 31.5t-63 43.5q-42 32 -71 46t-71 14q-37 0 -66 -9
t-59 -27l-27 50q72 43 156 43q54 0 92 -20t87 -62q49 -41 90 -65.5t101 -37.5l-6 -49l-59 -2q-11 0 -31 -2q11 -58 34 -89.5t59 -43.5t92 -12l15 -28l-20 -29q-99 0 -155 47.5t-68 150.5q-171 -19 -258.5 -92zM328 524l-198 -32l-5 34l68 11q-23 17 -35.5 37t-12.5 39
q0 35 24.5 58t71.5 23q34 0 68 -19l-19 -32q-29 15 -52 15q-29 0 -42.5 -13t-13.5 -32q0 -34 51 -69l90 15z" />
    <glyph glyph-name="uni0682.init" unicode="&#x682;" horiz-adv-x="695" 
d="M310 427.5q36 -12.5 61.5 -31t61.5 -51.5q53 -49 98.5 -79t119.5 -50l-9 -50l-65 -5q-83 -4 -149 -25t-154 -61q-85 -38 -144 -56.5t-130 -18.5l-20 29l25 29q65 0 118.5 16.5t134.5 51.5q81 36 145 56.5t145 26.5q-51 19 -85.5 42.5t-73.5 57.5q-31 26 -51.5 40.5
t-49 24t-66.5 9.5q-59 0 -118 -36l-27 50q72 43 147 43q50 0 86 -12.5zM200.5 642q-10.5 10 -10.5 25q0 14 10.5 24.5t24.5 10.5t24 -10.5t10 -24.5q0 -15 -10 -25t-24 -10t-24.5 10zM200.5 507q-10.5 10 -10.5 25q0 14 10.5 24t24.5 10t24 -10t10 -24q0 -15 -10 -25
t-24 -10t-24.5 10z" />
    <glyph glyph-name="uni0682.medi" unicode="&#x682;" horiz-adv-x="727" 
d="M747 29l-20 -29q-205 0 -234 187q-45 -11 -85.5 -30t-110.5 -56q-63 -34 -104 -53.5t-90.5 -33.5t-102.5 -14l-20 29l25 28q68 0 126 21.5t142 65.5q82 42 138 64.5t124 31.5q-50 17 -85.5 36.5t-73.5 47.5q-45 31 -75.5 45t-78.5 14q-32 0 -60.5 -8.5t-59.5 -25.5
l-27 49q75 42 148 42q46 0 79 -9.5t57 -24.5t59 -42q52 -41 99.5 -67.5t124.5 -46.5l-7 -50l-65 -2q-17 0 -34 -3q16 -80 63 -109t134 -29zM199.5 642q-10.5 10 -10.5 25q0 14 10.5 24.5t24.5 10.5t24 -10.5t10 -24.5q0 -15 -10 -25t-24 -10t-24.5 10zM199.5 507
q-10.5 10 -10.5 25q0 14 10.5 24t24.5 10t24 -10t10 -24q0 -15 -10 -25t-24 -10t-24.5 10z" />
    <glyph glyph-name="uni0682.fina" unicode="&#x682;" horiz-adv-x="681" 
d="M199.5 106q-87.5 -73 -87.5 -184q0 -100 71.5 -159t207.5 -59q62 0 118.5 12.5t96.5 33.5l22 -50q-42 -24 -105.5 -39t-137.5 -15q-107 0 -179 34.5t-107 95t-35 138.5q0 143 109.5 231.5t316.5 102.5q-36 15 -62 31.5t-63 43.5q-42 32 -71 46t-71 14q-37 0 -66 -9
t-59 -27l-27 50q72 43 156 43q54 0 92 -20t87 -62q49 -41 90 -65.5t101 -37.5l-6 -49l-59 -2q-11 0 -31 -2q11 -58 34 -89.5t59 -43.5t92 -12l15 -28l-20 -29q-99 0 -155 47.5t-68 150.5q-171 -19 -258.5 -92zM203.5 642q-10.5 10 -10.5 25q0 14 10.5 24.5t24.5 10.5
t24 -10.5t10 -24.5q0 -15 -10 -25t-24 -10t-24.5 10zM203.5 507q-10.5 10 -10.5 25q0 14 10.5 24t24.5 10t24 -10t10 -24q0 -15 -10 -25t-24 -10t-24.5 10z" />
    <glyph glyph-name="uni0685.init" unicode="&#x685;" horiz-adv-x="695" 
d="M310 427.5q36 -12.5 61.5 -31t61.5 -51.5q53 -49 98.5 -79t119.5 -50l-9 -50l-65 -5q-83 -4 -149 -25t-154 -61q-85 -38 -144 -56.5t-130 -18.5l-20 29l25 29q65 0 118.5 16.5t134.5 51.5q81 36 145 56.5t145 26.5q-51 19 -85.5 42.5t-73.5 57.5q-31 26 -51.5 40.5
t-49 24t-66.5 9.5q-59 0 -118 -36l-27 50q72 43 147 43q50 0 86 -12.5zM200 619q-10 10 -10 24t10 24t24 10t24 -10t10 -24t-10 -24t-24 -10t-24 10zM127 513q-10 10 -10 24t10 23.5t25 9.5q14 0 24 -10t10 -23q0 -14 -10 -24t-24 -10q-15 0 -25 10zM272 513q-10 10 -10 24
q0 13 10 23t24 10q15 0 25 -9.5t10 -23.5t-10 -24t-25 -10q-14 0 -24 10z" />
    <glyph glyph-name="uni0685.medi" unicode="&#x685;" horiz-adv-x="727" 
d="M747 29l-20 -29q-205 0 -234 187q-45 -11 -85.5 -30t-110.5 -56q-63 -34 -104 -53.5t-90.5 -33.5t-102.5 -14l-20 29l25 28q68 0 126 21.5t142 65.5q82 42 138 64.5t124 31.5q-50 17 -85.5 36.5t-73.5 47.5q-45 31 -75.5 45t-78.5 14q-32 0 -60.5 -8.5t-59.5 -25.5
l-27 49q75 42 148 42q46 0 79 -9.5t57 -24.5t59 -42q52 -41 99.5 -67.5t124.5 -46.5l-7 -50l-65 -2q-17 0 -34 -3q16 -80 63 -109t134 -29zM199 619q-10 10 -10 24t10 24t24 10t24 -10t10 -24t-10 -24t-24 -10t-24 10zM126 513q-10 10 -10 24t10 23.5t25 9.5q14 0 24 -10
t10 -23q0 -14 -10 -24t-24 -10q-15 0 -25 10zM271 513q-10 10 -10 24q0 13 10 23t24 10q15 0 25 -9.5t10 -23.5t-10 -24t-25 -10q-14 0 -24 10z" />
    <glyph glyph-name="uni0685.fina" unicode="&#x685;" horiz-adv-x="681" 
d="M199.5 106q-87.5 -73 -87.5 -184q0 -100 71.5 -159t207.5 -59q62 0 118.5 12.5t96.5 33.5l22 -50q-42 -24 -105.5 -39t-137.5 -15q-107 0 -179 34.5t-107 95t-35 138.5q0 143 109.5 231.5t316.5 102.5q-36 15 -62 31.5t-63 43.5q-42 32 -71 46t-71 14q-37 0 -66 -9
t-59 -27l-27 50q72 43 156 43q54 0 92 -20t87 -62q49 -41 90 -65.5t101 -37.5l-6 -49l-59 -2q-11 0 -31 -2q11 -58 34 -89.5t59 -43.5t92 -12l15 -28l-20 -29q-99 0 -155 47.5t-68 150.5q-171 -19 -258.5 -92zM203 619q-10 10 -10 24t10 24t24 10t24 -10t10 -24t-10 -24
t-24 -10t-24 10zM130 513q-10 10 -10 24t10 23.5t25 9.5q14 0 24 -10t10 -23q0 -14 -10 -24t-24 -10q-15 0 -25 10zM275 513q-10 10 -10 24q0 13 10 23t24 10q15 0 25 -9.5t10 -23.5t-10 -24t-25 -10q-14 0 -24 10z" />
    <glyph glyph-name="uni0689.fina" unicode="&#x689;" horiz-adv-x="518" 
d="M538 29l-20 -29q-48 0 -81.5 21.5t-51.5 59.5q-41 -63 -125 -85q20 -22 20 -53q0 -33 -22 -55.5t-58 -22.5q-35 0 -58 22.5t-23 55.5q0 26 15 46q-49 4 -107 23l17 56q73 -22 141 -22q57 0 103 19t78 54l-150 355l57 27l131 -340q23 -59 47 -81.5t71 -22.5zM235 -89
q12 12 12 32q0 21 -13 32.5t-34 11.5t-33.5 -11.5t-12.5 -32.5q0 -19 12.5 -31.5t33.5 -12.5q23 0 35 12z" />
    <glyph glyph-name="uni068A.fina" unicode="&#x68a;" horiz-adv-x="518" 
d="M538 29l-20 -29q-48 0 -81.5 21.5t-51.5 59.5q-30 -47 -82.5 -70.5t-121.5 -23.5q-75 0 -154 25l17 56q73 -22 141 -22q57 0 103 19t78 54l-150 355l57 27l131 -340q23 -59 47 -81.5t71 -22.5zM179.5 -170.5q-10.5 10.5 -10.5 26.5q0 15 10.5 26t26.5 11t26.5 -11
t10.5 -26q0 -16 -10.5 -26.5t-26.5 -10.5t-26.5 10.5z" />
    <glyph glyph-name="uni068B.fina" unicode="&#x68b;" horiz-adv-x="518" 
d="M538 29l-20 -29q-48 0 -81.5 21.5t-51.5 59.5q-30 -47 -82.5 -70.5t-121.5 -23.5q-75 0 -154 25l17 56q73 -22 141 -22q57 0 103 19t78 54l-150 355l57 27l131 -340q23 -59 47 -81.5t71 -22.5zM179.5 -170.5q-10.5 10.5 -10.5 26.5q0 15 10.5 26t26.5 11t26.5 -11
t10.5 -26q0 -16 -10.5 -26.5t-26.5 -10.5t-26.5 10.5zM288 711.5q21 -22.5 21 -57.5q0 -31 -23.5 -55.5t-70.5 -24.5h-147l3 34h23l15 25v145h33v-98q45 54 92 54q33 0 54 -22.5zM276 655q0 44 -45 44q-52 0 -106 -91h83q68 0 68 47z" />
    <glyph glyph-name="uni068F.fina" unicode="&#x68f;" horiz-adv-x="518" 
d="M538 29l-20 -29q-48 0 -81.5 21.5t-51.5 59.5q-30 -47 -82.5 -70.5t-121.5 -23.5q-75 0 -154 25l17 56q73 -22 141 -22q57 0 103 19t78 54l-150 355l57 27l131 -340q23 -59 47 -81.5t71 -22.5zM194.5 727.5q3.5 -3.5 3.5 -8.5t-3.5 -8.5t-8.5 -3.5t-9 3.5t-4 8.5t4 8.5
t9 3.5t8.5 -3.5zM235.5 676.5q3.5 -3.5 3.5 -8.5t-3.5 -8.5t-8.5 -3.5t-8.5 3.5t-3.5 8.5t4 8.5t8 3.5q5 0 8.5 -3.5zM163 672.5q4 -3.5 4 -8.5t-4 -9t-9 -4t-8.5 4t-3.5 9t3.5 8.5t8.5 3.5t9 -3.5z" />
    <glyph glyph-name="uni0690.fina" unicode="&#x690;" horiz-adv-x="518" 
d="M538 29l-20 -29q-48 0 -81.5 21.5t-51.5 59.5q-30 -47 -82.5 -70.5t-121.5 -23.5q-75 0 -154 25l17 56q73 -22 141 -22q57 0 103 19t78 54l-150 355l57 27l131 -340q23 -59 47 -81.5t71 -22.5zM97 698.5q-10 9.5 -10 22.5q0 15 10 25.5t24 10.5t24 -10.5t10 -25.5
q0 -13 -10 -22.5t-24 -9.5t-24 9.5zM234 698.5q-10 9.5 -10 22.5q0 15 10 25.5t24 10.5t24 -10.5t10 -25.5q0 -13 -10 -22.5t-24 -9.5t-24 9.5zM97 570q-10 10 -10 24t10 24t24 10t24 -10t10 -24t-10 -24t-24 -10t-24 10zM234 570q-10 10 -10 24t10 24t24 10t24 -10t10 -24
t-10 -24t-24 -10t-24 10z" />
    <glyph glyph-name="uni0692.fina" unicode="&#x692;" horiz-adv-x="382" 
d="M402 29l-20 -29q-41 0 -65.5 14.5t-37.5 41.5q-7 -112 -77 -186.5t-206 -116.5l-23 55q262 79 262 269q0 89 -58 234l58 19q21 -70 36 -149q13 -67 39.5 -95.5t77.5 -28.5zM190 451l64 109l30 -13l-78 -139h-33l-77 139l30 13z" />
    <glyph glyph-name="uni0693.fina" unicode="&#x693;" horiz-adv-x="382" 
d="M402 29l-20 -29q-41 0 -65.5 14.5t-37.5 41.5q-7 -117 -85 -195q4 1 11 1q34 0 57 -22.5t23 -56.5q0 -33 -22 -55.5t-58 -22.5q-35 0 -58 22.5t-23 55.5q0 13 5 28q-53 -33 -133 -58l-23 55q262 79 262 269q0 89 -58 234l58 19q21 -70 36 -149q13 -67 39.5 -95.5
t77.5 -28.5zM239 -184.5q-13 11.5 -34 11.5t-34 -11.5t-13 -32.5q0 -19 13 -31.5t34 -12.5q22 0 34.5 12.5t12.5 31.5q0 21 -13 32.5z" />
    <glyph glyph-name="uni0694.fina" unicode="&#x694;" horiz-adv-x="382" 
d="M402 29l-20 -29q-41 0 -65.5 14.5t-37.5 41.5q-7 -112 -77 -186.5t-206 -116.5l-23 55q262 79 262 269q0 89 -58 234l58 19q21 -70 36 -149q13 -67 39.5 -95.5t77.5 -28.5zM178.5 -340.5q-10.5 10.5 -10.5 26.5q0 15 10.5 26t26.5 11t26.5 -11t10.5 -26
q0 -16 -10.5 -26.5t-26.5 -10.5t-26.5 10.5z" />
    <glyph glyph-name="uni0695.fina" unicode="&#x695;" horiz-adv-x="382" 
d="M402 29l-20 -29q-41 0 -65.5 14.5t-37.5 41.5q-7 -112 -77 -186.5t-206 -116.5l-23 55q262 79 262 269q0 89 -58 234l58 19q21 -70 36 -149q13 -67 39.5 -95.5t77.5 -28.5zM205 -344l64 109l30 -13l-78 -139h-33l-77 139l30 13z" />
    <glyph glyph-name="uni0696.fina" unicode="&#x696;" horiz-adv-x="382" 
d="M402 29l-20 -29q-41 0 -65.5 14.5t-37.5 41.5q-7 -112 -77 -186.5t-206 -116.5l-23 55q262 79 262 269q0 89 -58 234l58 19q21 -70 36 -149q13 -67 39.5 -95.5t77.5 -28.5zM178.5 -340.5q-10.5 10.5 -10.5 26.5q0 15 10.5 26t26.5 11t26.5 -11t10.5 -26
q0 -16 -10.5 -26.5t-26.5 -10.5t-26.5 10.5zM161.5 437.5q-10.5 10.5 -10.5 26.5q0 15 10.5 26t26.5 11t26.5 -11t10.5 -26q0 -16 -10.5 -26.5t-26.5 -10.5t-26.5 10.5z" />
    <glyph glyph-name="uni0697.fina" unicode="&#x697;" horiz-adv-x="382" 
d="M402 29l-20 -29q-41 0 -65.5 14.5t-37.5 41.5q-7 -112 -77 -186.5t-206 -116.5l-23 55q262 79 262 269q0 89 -58 234l58 19q21 -70 36 -149q13 -67 39.5 -95.5t77.5 -28.5zM96.5 465q-10.5 10 -10.5 25q0 14 10.5 24.5t24.5 10.5t24 -10.5t10 -24.5q0 -15 -10 -25
t-24 -10t-24.5 10zM234 465q-10 10 -10 25q0 14 10 24.5t25 10.5q14 0 24.5 -10.5t10.5 -24.5q0 -15 -10.5 -25t-24.5 -10q-15 0 -25 10z" />
    <glyph glyph-name="uni0699.fina" unicode="&#x699;" horiz-adv-x="382" 
d="M402 29l-20 -29q-41 0 -65.5 14.5t-37.5 41.5q-7 -112 -77 -186.5t-206 -116.5l-23 55q262 79 262 269q0 89 -58 234l58 19q21 -70 36 -149q13 -67 39.5 -95.5t77.5 -28.5zM98 548.5q-10 9.5 -10 22.5q0 15 10 25.5t24 10.5t24 -10.5t10 -25.5q0 -13 -10 -22.5t-24 -9.5
t-24 9.5zM235 548.5q-10 9.5 -10 22.5q0 15 10 25.5t24 10.5t24 -10.5t10 -25.5q0 -13 -10 -22.5t-24 -9.5t-24 9.5zM98 420q-10 10 -10 24t10 24t24 10t24 -10t10 -24t-10 -24t-24 -10t-24 10zM235 420q-10 10 -10 24t10 24t24 10t24 -10t10 -24t-10 -24t-24 -10t-24 10z
" />
    <glyph glyph-name="uni069A.init" unicode="&#x69a;" horiz-adv-x="813" 
d="M740 281q10 -57 10 -106q0 -88 -41 -131.5t-115 -43.5q-49 0 -85 20.5t-53 57.5q-17 -37 -51.5 -57.5t-84.5 -20.5t-86 20t-51 56q-21 -39 -65.5 -57.5t-117.5 -18.5l-20 29l25 28q77 0 114.5 26t37.5 82v156h51v-142q0 -67 28.5 -94.5t84.5 -27.5q52 0 79.5 30.5
t27.5 90.5v143h52v-142q0 -122 118 -122q51 0 75 27.5t24 85.5q0 94 -39 207l51 17q21 -56 31 -113zM435.5 -170.5q-10.5 10.5 -10.5 26.5q0 15 10.5 26t26.5 11t26.5 -11t10.5 -26q0 -16 -10.5 -26.5t-26.5 -10.5t-26.5 10.5zM426.5 409.5q-10.5 10.5 -10.5 26.5
q0 15 10.5 26t26.5 11t26.5 -11t10.5 -26q0 -16 -10.5 -26.5t-26.5 -10.5t-26.5 10.5z" />
    <glyph glyph-name="uni069A.medi" unicode="&#x69a;" horiz-adv-x="926" 
d="M946 29l-20 -29q-145 0 -178 76q-38 -76 -143 -76q-49 0 -85.5 20.5t-53.5 56.5q-18 -36 -52.5 -56.5t-84.5 -20.5t-86.5 20t-52.5 56q-22 -39 -68.5 -57.5t-121.5 -18.5l-20 29l26 28q78 0 117.5 26.5t39.5 81.5v156h52v-142q0 -66 29.5 -94t85.5 -28q53 0 80.5 30.5
t27.5 90.5v143h52v-142q0 -122 118 -122q106 0 106 109v200h53v-184q0 -48 15.5 -75t51 -38.5t97.5 -11.5zM437.5 -170.5q-10.5 10.5 -10.5 26.5q0 15 10.5 26t26.5 11t26.5 -11t10.5 -26q0 -16 -10.5 -26.5t-26.5 -10.5t-26.5 10.5zM436.5 409.5q-10.5 10.5 -10.5 26.5
q0 15 10.5 26t26.5 11t26.5 -11t10.5 -26q0 -16 -10.5 -26.5t-26.5 -10.5t-26.5 10.5z" />
    <glyph glyph-name="uni069A.fina" unicode="&#x69a;" horiz-adv-x="1310" 
d="M1330 29l-20 -29q-146 0 -178 77q-19 -38 -56 -57.5t-88 -19.5q-47 0 -83 20t-53 57q-37 -77 -137 -77h-1v0q-74 0 -112 44q-4 -156 -76 -223t-224 -67q-128 0 -188.5 61t-60.5 167q0 91 42 184l40 -13q-30 -78 -30 -164q0 -83 48 -130.5t155 -47.5q89 0 142 25t77 77.5
t24 138.5q0 51 -14 102t-45 126l58 24q5 -19 15 -51q16 -54 25 -87q17 -60 46.5 -84.5t83.5 -24.5q50 0 76.5 30.5t26.5 90.5v143h53v-142q0 -122 115 -122q52 0 79.5 27t27.5 82v195h53v-179q0 -48 15.5 -75t51 -38.5t97.5 -11.5zM824.5 -170.5q-10.5 10.5 -10.5 26.5
q0 15 10.5 26t26.5 11t26.5 -11t10.5 -26q0 -16 -10.5 -26.5t-26.5 -10.5t-26.5 10.5zM821.5 409.5q-10.5 10.5 -10.5 26.5q0 15 10.5 26t26.5 11t26.5 -11t10.5 -26q0 -16 -10.5 -26.5t-26.5 -10.5t-26.5 10.5z" />
    <glyph glyph-name="uni069B.init" unicode="&#x69b;" horiz-adv-x="813" 
d="M740 281q10 -57 10 -106q0 -88 -41 -131.5t-115 -43.5q-49 0 -85 20.5t-53 57.5q-17 -37 -51.5 -57.5t-84.5 -20.5t-86 20t-51 56q-21 -39 -65.5 -57.5t-117.5 -18.5l-20 29l25 28q77 0 114.5 26t37.5 82v156h51v-142q0 -67 28.5 -94.5t84.5 -27.5q52 0 79.5 30.5
t27.5 90.5v143h52v-142q0 -122 118 -122q51 0 75 27.5t24 85.5q0 94 -39 207l51 17q21 -56 31 -113zM467.5 -132q3.5 -4 3.5 -9t-3.5 -8.5t-8.5 -3.5t-9 3.5t-4 8.5t4 9t9 4t8.5 -4zM508.5 -183.5q3.5 -3.5 3.5 -8.5t-3.5 -8.5t-8.5 -3.5q-4 0 -8 3.5t-4 8.5t3.5 8.5
t8.5 3.5t8.5 -3.5zM436 -187q4 -4 4 -9t-4 -8.5t-9 -3.5q-4 0 -8 3.5t-4 8.5t3.5 9t8.5 4t9 -4z" />
    <glyph glyph-name="uni069B.medi" unicode="&#x69b;" horiz-adv-x="926" 
d="M946 29l-20 -29q-145 0 -178 76q-38 -76 -143 -76q-49 0 -85.5 20.5t-53.5 56.5q-18 -36 -52.5 -56.5t-84.5 -20.5t-86.5 20t-52.5 56q-22 -39 -68.5 -57.5t-121.5 -18.5l-20 29l26 28q78 0 117.5 26.5t39.5 81.5v156h52v-142q0 -66 29.5 -94t85.5 -28q53 0 80.5 30.5
t27.5 90.5v143h52v-142q0 -122 118 -122q106 0 106 109v200h53v-184q0 -48 15.5 -75t51 -38.5t97.5 -11.5zM469.5 -132q3.5 -4 3.5 -9t-3.5 -8.5t-8.5 -3.5t-9 3.5t-4 8.5t4 9t9 4t8.5 -4zM510.5 -183.5q3.5 -3.5 3.5 -8.5t-3.5 -8.5t-8.5 -3.5q-4 0 -8 3.5t-4 8.5t3.5 8.5
t8.5 3.5t8.5 -3.5zM438 -187q4 -4 4 -9t-4 -8.5t-9 -3.5q-4 0 -8 3.5t-4 8.5t3.5 9t8.5 4t9 -4z" />
    <glyph glyph-name="uni069B.fina" unicode="&#x69b;" horiz-adv-x="1310" 
d="M1330 29l-20 -29q-146 0 -178 77q-19 -38 -56 -57.5t-88 -19.5q-47 0 -83 20t-53 57q-37 -77 -137 -77h-1v0q-74 0 -112 44q-4 -156 -76 -223t-224 -67q-128 0 -188.5 61t-60.5 167q0 91 42 184l40 -13q-30 -78 -30 -164q0 -83 48 -130.5t155 -47.5q89 0 142 25t77 77.5
t24 138.5q0 51 -14 102t-45 126l58 24q5 -19 15 -51q16 -54 25 -87q17 -60 46.5 -84.5t83.5 -24.5q50 0 76.5 30.5t26.5 90.5v143h53v-142q0 -122 115 -122q52 0 79.5 27t27.5 82v195h53v-179q0 -48 15.5 -75t51 -38.5t97.5 -11.5zM856.5 -132q3.5 -4 3.5 -9t-3.5 -8.5
t-8.5 -3.5t-9 3.5t-4 8.5t4 9t9 4t8.5 -4zM897.5 -183.5q3.5 -3.5 3.5 -8.5t-3.5 -8.5t-8.5 -3.5q-4 0 -8 3.5t-4 8.5t3.5 8.5t8.5 3.5t8.5 -3.5zM825 -187q4 -4 4 -9t-4 -8.5t-9 -3.5q-4 0 -8 3.5t-4 8.5t3.5 9t8.5 4t9 -4z" />
    <glyph glyph-name="uni069C.init" unicode="&#x69c;" horiz-adv-x="813" 
d="M740 281q10 -57 10 -106q0 -88 -41 -131.5t-115 -43.5q-49 0 -85 20.5t-53 57.5q-17 -37 -51.5 -57.5t-84.5 -20.5t-86 20t-51 56q-21 -39 -65.5 -57.5t-117.5 -18.5l-20 29l25 28q77 0 114.5 26t37.5 82v156h51v-142q0 -67 28.5 -94.5t84.5 -27.5q52 0 79.5 30.5
t27.5 90.5v143h52v-142q0 -122 118 -122q51 0 75 27.5t24 85.5q0 94 -39 207l51 17q21 -56 31 -113zM430 513q-10 10 -10 24t10 24t24 10t24 -10t10 -24t-10 -24t-24 -10t-24 10zM357 407q-10 10 -10 24t10 23.5t25 9.5q14 0 24 -10t10 -23q0 -14 -10 -24t-24 -10
q-15 0 -25 10zM502 407q-10 10 -10 24q0 13 10 23t24 10q15 0 25 -9.5t10 -23.5t-10 -24t-25 -10q-14 0 -24 10zM467.5 -132q3.5 -4 3.5 -9t-3.5 -8.5t-8.5 -3.5t-9 3.5t-4 8.5t4 9t9 4t8.5 -4zM508.5 -183.5q3.5 -3.5 3.5 -8.5t-3.5 -8.5t-8.5 -3.5q-4 0 -8 3.5t-4 8.5
t3.5 8.5t8.5 3.5t8.5 -3.5zM436 -187q4 -4 4 -9t-4 -8.5t-9 -3.5q-4 0 -8 3.5t-4 8.5t3.5 9t8.5 4t9 -4z" />
    <glyph glyph-name="uni069C.medi" unicode="&#x69c;" horiz-adv-x="926" 
d="M946 29l-20 -29q-145 0 -178 76q-38 -76 -143 -76q-49 0 -85.5 20.5t-53.5 56.5q-18 -36 -52.5 -56.5t-84.5 -20.5t-86.5 20t-52.5 56q-22 -39 -68.5 -57.5t-121.5 -18.5l-20 29l26 28q78 0 117.5 26.5t39.5 81.5v156h52v-142q0 -66 29.5 -94t85.5 -28q53 0 80.5 30.5
t27.5 90.5v143h52v-142q0 -122 118 -122q106 0 106 109v200h53v-184q0 -48 15.5 -75t51 -38.5t97.5 -11.5zM440 513q-10 10 -10 24t10 24t24 10t24 -10t10 -24t-10 -24t-24 -10t-24 10zM367 407q-10 10 -10 24t10 23.5t25 9.5q14 0 24 -10t10 -23q0 -14 -10 -24t-24 -10
q-15 0 -25 10zM512 407q-10 10 -10 24q0 13 10 23t24 10q15 0 25 -9.5t10 -23.5t-10 -24t-25 -10q-14 0 -24 10zM469.5 -132q3.5 -4 3.5 -9t-3.5 -8.5t-8.5 -3.5t-9 3.5t-4 8.5t4 9t9 4t8.5 -4zM510.5 -183.5q3.5 -3.5 3.5 -8.5t-3.5 -8.5t-8.5 -3.5q-4 0 -8 3.5t-4 8.5
t3.5 8.5t8.5 3.5t8.5 -3.5zM438 -187q4 -4 4 -9t-4 -8.5t-9 -3.5q-4 0 -8 3.5t-4 8.5t3.5 9t8.5 4t9 -4z" />
    <glyph glyph-name="uni069C.fina" unicode="&#x69c;" horiz-adv-x="1310" 
d="M1330 29l-20 -29q-146 0 -178 77q-19 -38 -56 -57.5t-88 -19.5q-47 0 -83 20t-53 57q-37 -77 -137 -77h-1v0q-74 0 -112 44q-4 -156 -76 -223t-224 -67q-128 0 -188.5 61t-60.5 167q0 91 42 184l40 -13q-30 -78 -30 -164q0 -83 48 -130.5t155 -47.5q89 0 142 25t77 77.5
t24 138.5q0 51 -14 102t-45 126l58 24q5 -19 15 -51q16 -54 25 -87q17 -60 46.5 -84.5t83.5 -24.5q50 0 76.5 30.5t26.5 90.5v143h53v-142q0 -122 115 -122q52 0 79.5 27t27.5 82v195h53v-179q0 -48 15.5 -75t51 -38.5t97.5 -11.5zM825 513q-10 10 -10 24t10 24t24 10
t24 -10t10 -24t-10 -24t-24 -10t-24 10zM752 407q-10 10 -10 24t10 23.5t25 9.5q14 0 24 -10t10 -23q0 -14 -10 -24t-24 -10q-15 0 -25 10zM897 407q-10 10 -10 24q0 13 10 23t24 10q15 0 25 -9.5t10 -23.5t-10 -24t-25 -10q-14 0 -24 10zM856.5 -132q3.5 -4 3.5 -9
t-3.5 -8.5t-8.5 -3.5t-9 3.5t-4 8.5t4 9t9 4t8.5 -4zM897.5 -183.5q3.5 -3.5 3.5 -8.5t-3.5 -8.5t-8.5 -3.5q-4 0 -8 3.5t-4 8.5t3.5 8.5t8.5 3.5t8.5 -3.5zM825 -187q4 -4 4 -9t-4 -8.5t-9 -3.5q-4 0 -8 3.5t-4 8.5t3.5 9t8.5 4t9 -4z" />
    <glyph glyph-name="uni069D.init" unicode="&#x69d;" horiz-adv-x="923" 
d="M806 377.5q54 -59.5 54 -166.5q0 -88 -39 -133t-125.5 -61.5t-248.5 -16.5h-132q-59 0 -97.5 20t-58.5 63q-19 -44 -57 -63.5t-102 -19.5l-20 29l26 28q51 0 78 13t37 37.5t10 65.5v207h53v-207q0 -54 24.5 -82t82.5 -33q37 116 94.5 201.5t127.5 131.5t144 46
q95 0 149 -59.5zM665.5 69.5q76.5 12.5 111 46t34.5 98.5q0 164 -150 164q-98 0 -177.5 -79.5t-143.5 -241.5h107q142 0 218.5 12.5zM63.5 -166q-10.5 10 -10.5 24t10.5 24.5t24.5 10.5t24 -10.5t10 -24.5t-10 -24t-24 -10t-24.5 10zM201 -166q-10 10 -10 24t10 24.5
t25 10.5q14 0 24.5 -10.5t10.5 -24.5t-10.5 -24t-24.5 -10q-15 0 -25 10z" />
    <glyph glyph-name="uni069D.medi" unicode="&#x69d;" horiz-adv-x="957" 
d="M977 29l-20 -29q-43 0 -79 20t-60 54q-40 -42 -126.5 -58t-244.5 -16h-132q-59 0 -97.5 20t-58.5 63q-19 -44 -57 -63.5t-102 -19.5l-20 29l26 28q51 0 78 13t37 37.5t10 65.5v207h53v-207q0 -54 24.5 -82t82.5 -33q37 116 94.5 201.5t127.5 131.5t144 46q95 0 149 -59.5
t54 -166.5q0 -58 -16 -96q23 -31 51 -44.5t67 -13.5zM665.5 69.5q76.5 12.5 111 46t34.5 98.5q0 164 -150 164q-98 0 -177.5 -79.5t-143.5 -241.5h107q142 0 218.5 12.5zM63.5 -166q-10.5 10 -10.5 24t10.5 24.5t24.5 10.5t24 -10.5t10 -24.5t-10 -24t-24 -10t-24.5 10z
M201 -166q-10 10 -10 24t10 24.5t25 10.5q14 0 24.5 -10.5t10.5 -24.5t-10.5 -24t-24.5 -10q-15 0 -25 10z" />
    <glyph glyph-name="uni069D.fina" unicode="&#x69d;" horiz-adv-x="1356" 
d="M1376 29l-20 -29q-43 0 -79 20t-60 54q-40 -42 -126 -58t-244 -16h-132v2q-75 0 -113 44q-4 -156 -76 -223t-224 -67q-128 0 -188.5 61t-60.5 168q0 92 42 183l40 -13q-30 -78 -30 -164q0 -83 48 -130.5t155 -47.5q89 0 142 25t77 77.5t24 138.5q0 51 -14 102t-45 126
l58 24l16 -55q5 -16 24 -82q15 -53 38.5 -78t63.5 -30q37 115 93.5 199.5t126.5 130.5t144 46q95 0 149 -59.5t54 -166.5q0 -58 -16 -96q22 -31 51 -44.5t67 -13.5zM1065 69.5q77 12.5 111.5 46t34.5 98.5q0 164 -151 164q-196 0 -320 -321h107q141 0 218 12.5zM221.5 -397
q-10.5 10 -10.5 24t10.5 24.5t24.5 10.5t24 -10.5t10 -24.5t-10 -24t-24 -10t-24.5 10zM359 -397q-10 10 -10 24t10 24.5t25 10.5q14 0 24.5 -10.5t10.5 -24.5t-10.5 -24t-24.5 -10q-15 0 -25 10z" />
    <glyph glyph-name="uni069E.init" unicode="&#x69e;" horiz-adv-x="923" 
d="M601 605q-10 10 -10 24t10 24t24 10t24 -10t10 -24t-10 -24t-24 -10t-24 10zM528 499q-10 10 -10 24t10 23.5t24 9.5t24 -10t10 -23q0 -14 -10 -24t-24 -10t-24 10zM673 499q-10 10 -10 24q0 13 10 23t24 10t24 -9.5t10 -23.5t-10 -24t-24 -10t-24 10zM806 377.5
q54 -59.5 54 -166.5q0 -88 -39 -133t-125.5 -61.5t-248.5 -16.5h-132q-59 0 -97.5 20t-58.5 63q-19 -44 -57 -63.5t-102 -19.5l-20 29l26 28q51 0 78 13t37 37.5t10 65.5v207h53v-207q0 -54 24.5 -82t82.5 -33q37 116 94.5 201.5t127.5 131.5t144 46q95 0 149 -59.5z
M665.5 69.5q76.5 12.5 111 46t34.5 98.5q0 164 -150 164q-98 0 -177.5 -79.5t-143.5 -241.5h107q142 0 218.5 12.5z" />
    <glyph glyph-name="uni069E.medi" unicode="&#x69e;" horiz-adv-x="957" 
d="M601 605q-10 10 -10 24t10 24t24 10t24 -10t10 -24t-10 -24t-24 -10t-24 10zM528 499q-10 10 -10 24t10 23.5t24 9.5t24 -10t10 -23q0 -14 -10 -24t-24 -10t-24 10zM673 499q-10 10 -10 24q0 13 10 23t24 10t24 -9.5t10 -23.5t-10 -24t-24 -10t-24 10zM977 29l-20 -29
q-43 0 -79 20t-60 54q-40 -42 -126.5 -58t-244.5 -16h-132q-59 0 -97.5 20t-58.5 63q-19 -44 -57 -63.5t-102 -19.5l-20 29l26 28q51 0 78 13t37 37.5t10 65.5v207h53v-207q0 -54 24.5 -82t82.5 -33q37 116 94.5 201.5t127.5 131.5t144 46q95 0 149 -59.5t54 -166.5
q0 -58 -16 -96q23 -31 51 -44.5t67 -13.5zM665.5 69.5q76.5 12.5 111 46t34.5 98.5q0 164 -150 164q-98 0 -177.5 -79.5t-143.5 -241.5h107q142 0 218.5 12.5z" />
    <glyph glyph-name="uni069E.fina" unicode="&#x69e;" horiz-adv-x="1356" 
d="M1000 605q-10 10 -10 24t10 24t24 10t24 -10t10 -24t-10 -24t-24 -10t-24 10zM927 499q-10 10 -10 24t10 23.5t24 9.5t24 -10t10 -23q0 -14 -10 -24t-24 -10t-24 10zM1072 499q-10 10 -10 24q0 13 10 23t24 10t24.5 -10t10.5 -23q0 -14 -10.5 -24t-24.5 -10t-24 10z
M1376 29l-20 -29q-43 0 -79 20t-60 54q-40 -42 -126 -58t-244 -16h-132v2q-75 0 -113 44q-4 -156 -76 -223t-224 -67q-128 0 -188.5 61t-60.5 168q0 92 42 183l40 -13q-30 -78 -30 -164q0 -83 48 -130.5t155 -47.5q89 0 142 25t77 77.5t24 138.5q0 51 -14 102t-45 126l58 24
l16 -55q5 -16 24 -82q15 -53 38.5 -78t63.5 -30q37 115 93.5 199.5t126.5 130.5t144 46q95 0 149 -59.5t54 -166.5q0 -58 -16 -96q22 -31 51 -44.5t67 -13.5zM1065 69.5q77 12.5 111.5 46t34.5 98.5q0 164 -151 164q-196 0 -320 -321h107q141 0 218 12.5z" />
    <glyph glyph-name="uni069F.init" unicode="&#x69f;" horiz-adv-x="793" 
d="M677 377.5q54 -59.5 54 -166.5q0 -88 -39 -133t-125.5 -61.5t-248.5 -16.5h-318l-20 29l25 28h157q10 33 31 84v602l53 8v-508q57 93 130.5 143.5t151.5 50.5q95 0 149 -59.5zM536.5 69.5q76.5 12.5 111 46t34.5 98.5q0 164 -151 164q-196 0 -320 -321h107
q142 0 218.5 12.5zM464 604q-10 10 -10 24t10 24t24 10t24 -10t10 -24t-10 -24t-24 -10t-24 10zM391 498q-10 10 -10 24t10 23.5t25 9.5q14 0 24 -10t10 -23q0 -14 -10 -24t-24 -10q-15 0 -25 10zM536 498q-10 10 -10 24q0 13 10 23t24 10q15 0 25 -9.5t10 -23.5t-10 -24
t-25 -10q-14 0 -24 10z" />
    <glyph glyph-name="uni069F.medi" unicode="&#x69f;" horiz-adv-x="827" 
d="M848 29l-20 -29q-43 0 -79 20t-60 54q-40 -42 -126.5 -58t-244.5 -16h-318l-20 29l25 28h157q10 33 31 84v602l53 8v-508q57 93 130.5 143.5t151.5 50.5q95 0 149 -59.5t54 -166.5q0 -58 -16 -96q23 -31 51 -44.5t67 -13.5zM536.5 69.5q76.5 12.5 111 46t34.5 98.5
q0 164 -151 164q-196 0 -320 -321h107q142 0 218.5 12.5zM464 604q-10 10 -10 24t10 24t24 10t24 -10t10 -24t-10 -24t-24 -10t-24 10zM391 498q-10 10 -10 24t10 23.5t25 9.5q14 0 24 -10t10 -23q0 -14 -10 -24t-24 -10q-15 0 -25 10zM536 498q-10 10 -10 24q0 13 10 23
t24 10q15 0 25 -9.5t10 -23.5t-10 -24t-25 -10q-14 0 -24 10z" />
    <glyph glyph-name="uni069F.fina" unicode="&#x69f;" horiz-adv-x="826" 
d="M846 29l-20 -29q-43 0 -79 20t-60 54q-40 -42 -126.5 -58t-244.5 -16h-281l11 57h114q10 33 31 84v602l53 8v-508q57 93 130.5 143.5t151.5 50.5q95 0 149 -59.5t54 -166.5q0 -58 -16 -96q23 -31 51 -44.5t67 -13.5zM534.5 69.5q76.5 12.5 111 46t34.5 98.5
q0 164 -151 164q-196 0 -320 -321h107q142 0 218.5 12.5zM463 604q-10 10 -10 24t10 24t24 10t24 -10t10 -24t-10 -24t-24 -10t-24 10zM390 498q-10 10 -10 24t10 23.5t25 9.5q14 0 24 -10t10 -23q0 -14 -10 -24t-24 -10q-15 0 -25 10zM535 498q-10 10 -10 24q0 13 10 23
t24 10q15 0 25 -9.5t10 -23.5t-10 -24t-25 -10q-14 0 -24 10z" />
    <glyph glyph-name="uni06A0.init" unicode="&#x6a0;" horiz-adv-x="548" 
d="M527 52q-131 -31 -219.5 -41.5t-205.5 -10.5h-102l-20 29l25 28h85q78 0 110 2q-63 37 -94.5 87.5t-31.5 104.5q0 47 23.5 88t70.5 66.5t113 25.5q33 0 72 -9t74 -28l-25 -54q-30 16 -62.5 24.5t-58.5 8.5q-76 0 -115 -36.5t-39 -89.5q0 -107 149 -183q52 5 107.5 15.5
t137.5 29.5zM257 609q-10 10 -10 24t10 24t24 10t24 -10t10 -24t-10 -24t-24 -10t-24 10zM184 503q-10 10 -10 24t10 23.5t25 9.5q14 0 24 -10t10 -23q0 -14 -10 -24t-24 -10q-15 0 -25 10zM329 503q-10 10 -10 24q0 13 10 23t24 10q15 0 25 -9.5t10 -23.5t-10 -24t-25 -10
q-14 0 -24 10z" />
    <glyph glyph-name="uni06A0.medi" unicode="&#x6a0;" horiz-adv-x="562" 
d="M582 28l-20 -28h-27q-66 0 -120.5 20t-103.5 60q-69 -37 -146 -58.5t-136 -21.5h-29l-20 28l25 29h14q57 0 124 16t127 44q-8 7 -45 47q-42 45 -77.5 78.5t-88.5 70.5l7 57q107 44 216 44q102 0 152.5 -33.5t50.5 -93.5q0 -49 -33.5 -94t-90.5 -83q41 -30 80.5 -41.5
t104.5 -11.5h22zM173.5 282q26.5 -24 63.5 -61q53 -53 83 -78q54 31 85.5 66.5t31.5 72.5t-39 57t-116 20q-82 0 -166 -30q31 -23 57.5 -47zM258 603q-10 10 -10 24t10 24t24 10t24 -10t10 -24t-10 -24t-24 -10t-24 10zM185 497q-10 10 -10 24t10 23.5t25 9.5q14 0 24 -10
t10 -23q0 -14 -10 -24t-24 -10q-15 0 -25 10zM330 497q-10 10 -10 24q0 13 10 23t24 10q15 0 25 -9.5t10 -23.5t-10 -24t-25 -10q-14 0 -24 10z" />
    <glyph glyph-name="uni06A0.fina" unicode="&#x6a0;" horiz-adv-x="559" 
d="M546 -252l22 -50q-91 -52 -230 -52q-95 0 -160 31.5t-97.5 84.5t-32.5 118q0 176 188 259l-25 26q-40 41 -76 74.5t-89 73.5l7 57q109 44 225 44q104 0 151.5 -31.5t47.5 -91.5q0 -52 -35 -90.5t-110 -74.5q51 -41 91.5 -55t112.5 -14h28l15 -28l-20 -29h-34
q-70 0 -127 23.5t-121 77.5q-95 -42 -137.5 -92t-42.5 -121q0 -53 28 -94.5t83.5 -65.5t135.5 -24q116 0 202 44zM224 222q43 -41 65 -60q73 31 106.5 59t33.5 65t-36.5 55t-114.5 18q-46 0 -92.5 -9t-81.5 -21q51 -38 120 -107zM261 602q-10 10 -10 24t10 24t24 10t24 -10
t10 -24t-10 -24t-24 -10t-24 10zM188 496q-10 10 -10 24t10 23.5t25 9.5q14 0 24 -10t10 -23q0 -14 -10 -24t-24 -10q-15 0 -25 10zM333 496q-10 10 -10 24q0 13 10 23t24 10q15 0 25 -9.5t10 -23.5t-10 -24t-25 -10q-14 0 -24 10z" />
    <glyph glyph-name="uni06A1.init" unicode="&#x6a1;" horiz-adv-x="459" 
d="M308 514.5q41 -31.5 64.5 -92.5t23.5 -146q0 -103 -34.5 -162t-119.5 -86.5t-242 -27.5l-20 30l25 27q133 0 205.5 18t101.5 53t34 94q-20 -19 -52.5 -28.5t-71.5 -9.5q-83 0 -133.5 48t-50.5 125q0 50 23 93.5t63.5 69.5t89.5 26q53 0 94 -31.5zM296 241q30 7 52 19v7
q0 111 -36 166.5t-99 55.5q-55 0 -90.5 -37.5t-35.5 -90.5q0 -59 39 -93t113 -34q27 0 57 7z" />
    <glyph glyph-name="uni06A1.medi" unicode="&#x6a1;" horiz-adv-x="494" 
d="M514 29l-20 -29h-37q-52 0 -104.5 12t-98.5 34q-100 -46 -223 -46h-31l-20 29l25 28h32q90 0 159 21q-54 37 -85.5 85.5t-31.5 104.5q0 51 22.5 96t61.5 71.5t85 26.5q53 0 93 -26.5t62 -71.5t22 -97q0 -50 -30 -100.5t-85 -88.5q69 -21 147 -21h42zM161.5 171
q33.5 -42 91.5 -71q59 28 91 71t32 96q0 60 -34.5 99t-91.5 39q-53 0 -87.5 -39t-34.5 -98q0 -55 33.5 -97z" />
    <glyph glyph-name="uni06A1.fina" unicode="&#x6a1;" horiz-adv-x="959" 
d="M979 29l-20 -29h-37q-53 0 -107 12.5t-102 35.5q-142 -61 -381 -61q-147 0 -213 46t-66 143q0 77 36 153l41 -14q-26 -66 -26 -132q0 -73 54 -106t179 -33q194 0 319 37q-52 37 -82.5 85t-30.5 102q0 51 22.5 96t61.5 71.5t85 26.5q53 0 93 -26.5t62 -71.5t22 -97
q0 -51 -28.5 -100.5t-89.5 -87.5q74 -22 151 -22h41zM624.5 172q32.5 -42 88.5 -69q64 29 95.5 71t31.5 93q0 60 -34.5 99t-90.5 39q-54 0 -88.5 -39t-34.5 -98q0 -54 32.5 -96z" />
    <glyph glyph-name="uni06A2.init" unicode="&#x6a2;" horiz-adv-x="459" 
d="M308 514.5q41 -31.5 64.5 -92.5t23.5 -146q0 -103 -34.5 -162t-119.5 -86.5t-242 -27.5l-20 30l25 27q133 0 205.5 18t101.5 53t34 94q-20 -19 -52.5 -28.5t-71.5 -9.5q-83 0 -133.5 48t-50.5 125q0 50 23 93.5t63.5 69.5t89.5 26q53 0 94 -31.5zM296 241q30 7 52 19v7
q0 111 -36 166.5t-99 55.5q-55 0 -90.5 -37.5t-35.5 -90.5q0 -59 39 -93t113 -34q27 0 57 7zM175.5 -170.5q-10.5 10.5 -10.5 26.5q0 15 10.5 26t26.5 11t26.5 -11t10.5 -26q0 -16 -10.5 -26.5t-26.5 -10.5t-26.5 10.5z" />
    <glyph glyph-name="uni06A2.medi" unicode="&#x6a2;" horiz-adv-x="494" 
d="M514 29l-20 -29h-37q-52 0 -104.5 12t-98.5 34q-100 -46 -223 -46h-31l-20 29l25 28h32q90 0 159 21q-54 37 -85.5 85.5t-31.5 104.5q0 51 22.5 96t61.5 71.5t85 26.5q53 0 93 -26.5t62 -71.5t22 -97q0 -50 -30 -100.5t-85 -88.5q69 -21 147 -21h42zM161.5 171
q33.5 -42 91.5 -71q59 28 91 71t32 96q0 60 -34.5 99t-91.5 39q-53 0 -87.5 -39t-34.5 -98q0 -55 33.5 -97zM226.5 -170.5q-10.5 10.5 -10.5 26.5q0 15 10.5 26t26.5 11t26.5 -11t10.5 -26q0 -16 -10.5 -26.5t-26.5 -10.5t-26.5 10.5z" />
    <glyph glyph-name="uni06A2.fina" unicode="&#x6a2;" horiz-adv-x="959" 
d="M979 29l-20 -29h-37q-53 0 -107 12.5t-102 35.5q-142 -61 -381 -61q-147 0 -213 46t-66 143q0 77 36 153l41 -14q-26 -66 -26 -132q0 -73 54 -106t179 -33q194 0 319 37q-52 37 -82.5 85t-30.5 102q0 51 22.5 96t61.5 71.5t85 26.5q53 0 93 -26.5t62 -71.5t22 -97
q0 -51 -28.5 -100.5t-89.5 -87.5q74 -22 151 -22h41zM624.5 172q32.5 -42 88.5 -69q64 29 95.5 71t31.5 93q0 60 -34.5 99t-90.5 39q-54 0 -88.5 -39t-34.5 -98q0 -54 32.5 -96zM691.5 -170.5q-10.5 10.5 -10.5 26.5q0 15 10.5 26t26.5 11t26.5 -11t10.5 -26
q0 -16 -10.5 -26.5t-26.5 -10.5t-26.5 10.5z" />
    <glyph glyph-name="uni06A3.init" unicode="&#x6a3;" horiz-adv-x="459" 
d="M308 514.5q41 -31.5 64.5 -92.5t23.5 -146q0 -103 -34.5 -162t-119.5 -86.5t-242 -27.5l-20 30l25 27q133 0 205.5 18t101.5 53t34 94q-20 -19 -52.5 -28.5t-71.5 -9.5q-83 0 -133.5 48t-50.5 125q0 50 23 93.5t63.5 69.5t89.5 26q53 0 94 -31.5zM296 241q30 7 52 19v7
q0 111 -36 166.5t-99 55.5q-55 0 -90.5 -37.5t-35.5 -90.5q0 -59 39 -93t113 -34q27 0 57 7zM185.5 623.5q-10.5 10.5 -10.5 26.5q0 15 10.5 26t26.5 11t26.5 -11t10.5 -26q0 -16 -10.5 -26.5t-26.5 -10.5t-26.5 10.5zM182.5 -170.5q-10.5 10.5 -10.5 26.5q0 15 10.5 26
t26.5 11t26.5 -11t10.5 -26q0 -16 -10.5 -26.5t-26.5 -10.5t-26.5 10.5z" />
    <glyph glyph-name="uni06A3.medi" unicode="&#x6a3;" horiz-adv-x="494" 
d="M514 29l-20 -29h-37q-52 0 -104.5 12t-98.5 34q-100 -46 -223 -46h-31l-20 29l25 28h32q90 0 159 21q-54 37 -85.5 85.5t-31.5 104.5q0 51 22.5 96t61.5 71.5t85 26.5q53 0 93 -26.5t62 -71.5t22 -97q0 -50 -30 -100.5t-85 -88.5q69 -21 147 -21h42zM161.5 171
q33.5 -42 91.5 -71q59 28 91 71t32 96q0 60 -34.5 99t-91.5 39q-53 0 -87.5 -39t-34.5 -98q0 -55 33.5 -97zM220.5 537.5q-10.5 10.5 -10.5 26.5q0 15 10.5 26t26.5 11t26.5 -11t10.5 -26q0 -16 -10.5 -26.5t-26.5 -10.5t-26.5 10.5zM226.5 -170.5q-10.5 10.5 -10.5 26.5
q0 15 10.5 26t26.5 11t26.5 -11t10.5 -26q0 -16 -10.5 -26.5t-26.5 -10.5t-26.5 10.5z" />
    <glyph glyph-name="uni06A3.fina" unicode="&#x6a3;" horiz-adv-x="959" 
d="M979 29l-20 -29h-37q-53 0 -107 12.5t-102 35.5q-142 -61 -381 -61q-147 0 -213 46t-66 143q0 77 36 153l41 -14q-26 -66 -26 -132q0 -73 54 -106t179 -33q194 0 319 37q-52 37 -82.5 85t-30.5 102q0 51 22.5 96t61.5 71.5t85 26.5q53 0 93 -26.5t62 -71.5t22 -97
q0 -51 -28.5 -100.5t-89.5 -87.5q74 -22 151 -22h41zM624.5 172q32.5 -42 88.5 -69q64 29 95.5 71t31.5 93q0 60 -34.5 99t-90.5 39q-54 0 -88.5 -39t-34.5 -98q0 -54 32.5 -96zM684.5 538.5q-10.5 10.5 -10.5 26.5q0 15 10.5 26t26.5 11t26.5 -11t10.5 -26
q0 -16 -10.5 -26.5t-26.5 -10.5t-26.5 10.5zM684.5 -170.5q-10.5 10.5 -10.5 26.5q0 15 10.5 26t26.5 11t26.5 -11t10.5 -26q0 -16 -10.5 -26.5t-26.5 -10.5t-26.5 10.5z" />
    <glyph glyph-name="uni06A5.init" unicode="&#x6a5;" horiz-adv-x="459" 
d="M308 514.5q41 -31.5 64.5 -92.5t23.5 -146q0 -103 -34.5 -162t-119.5 -86.5t-242 -27.5l-20 30l25 27q133 0 205.5 18t101.5 53t34 94q-20 -19 -52.5 -28.5t-71.5 -9.5q-83 0 -133.5 48t-50.5 125q0 50 23 93.5t63.5 69.5t89.5 26q53 0 94 -31.5zM296 241q30 7 52 19v7
q0 111 -36 166.5t-99 55.5q-55 0 -90.5 -37.5t-35.5 -90.5q0 -59 39 -93t113 -34q27 0 57 7zM207.5 -132q3.5 -4 3.5 -9t-3.5 -8.5t-8.5 -3.5t-9 3.5t-4 8.5t4 9t9 4t8.5 -4zM248.5 -183.5q3.5 -3.5 3.5 -8.5t-3.5 -8.5t-8.5 -3.5q-4 0 -8 3.5t-4 8.5t3.5 8.5t8.5 3.5
t8.5 -3.5zM176 -187q4 -4 4 -9t-4 -8.5t-9 -3.5q-4 0 -8 3.5t-4 8.5t3.5 9t8.5 4t9 -4z" />
    <glyph glyph-name="uni06A5.medi" unicode="&#x6a5;" horiz-adv-x="494" 
d="M514 29l-20 -29h-37q-52 0 -104.5 12t-98.5 34q-100 -46 -223 -46h-31l-20 29l25 28h32q90 0 159 21q-54 37 -85.5 85.5t-31.5 104.5q0 51 22.5 96t61.5 71.5t85 26.5q53 0 93 -26.5t62 -71.5t22 -97q0 -50 -30 -100.5t-85 -88.5q69 -21 147 -21h42zM161.5 171
q33.5 -42 91.5 -71q59 28 91 71t32 96q0 60 -34.5 99t-91.5 39q-53 0 -87.5 -39t-34.5 -98q0 -55 33.5 -97zM258.5 -132q3.5 -4 3.5 -9t-3.5 -8.5t-8.5 -3.5t-9 3.5t-4 8.5t4 9t9 4t8.5 -4zM299.5 -183.5q3.5 -3.5 3.5 -8.5t-3.5 -8.5t-8.5 -3.5q-4 0 -8 3.5t-4 8.5t3.5 8.5
t8.5 3.5t8.5 -3.5zM227 -187q4 -4 4 -9t-4 -8.5t-9 -3.5q-4 0 -8 3.5t-4 8.5t3.5 9t8.5 4t9 -4z" />
    <glyph glyph-name="uni06A5.fina" unicode="&#x6a5;" horiz-adv-x="959" 
d="M979 29l-20 -29h-37q-53 0 -107 12.5t-102 35.5q-142 -61 -381 -61q-147 0 -213 46t-66 143q0 77 36 153l41 -14q-26 -66 -26 -132q0 -73 54 -106t179 -33q194 0 319 37q-52 37 -82.5 85t-30.5 102q0 51 22.5 96t61.5 71.5t85 26.5q53 0 93 -26.5t62 -71.5t22 -97
q0 -51 -28.5 -100.5t-89.5 -87.5q74 -22 151 -22h41zM624.5 172q32.5 -42 88.5 -69q64 29 95.5 71t31.5 93q0 60 -34.5 99t-90.5 39q-54 0 -88.5 -39t-34.5 -98q0 -54 32.5 -96zM723.5 -132q3.5 -4 3.5 -9t-3.5 -8.5t-8.5 -3.5t-9 3.5t-4 8.5t4 9t9 4t8.5 -4zM764.5 -183.5
q3.5 -3.5 3.5 -8.5t-3.5 -8.5t-8.5 -3.5q-4 0 -8 3.5t-4 8.5t3.5 8.5t8.5 3.5t8.5 -3.5zM692 -187q4 -4 4 -9t-4 -8.5t-9 -3.5q-4 0 -8 3.5t-4 8.5t3.5 9t8.5 4t9 -4z" />
    <glyph glyph-name="uni06A7.init" unicode="&#x6a7;" horiz-adv-x="459" 
d="M308 514.5q41 -31.5 64.5 -92.5t23.5 -146q0 -103 -34.5 -162t-119.5 -86.5t-242 -27.5l-20 30l25 27q133 0 205.5 18t101.5 53t34 94q-20 -19 -52.5 -28.5t-71.5 -9.5q-83 0 -133.5 48t-50.5 125q0 50 23 93.5t63.5 69.5t89.5 26q53 0 94 -31.5zM296 241q30 7 52 19v7
q0 111 -36 166.5t-99 55.5q-55 0 -90.5 -37.5t-35.5 -90.5q0 -59 39 -93t113 -34q27 0 57 7zM185.5 623.5q-10.5 10.5 -10.5 26.5q0 15 10.5 26t26.5 11t26.5 -11t10.5 -26q0 -16 -10.5 -26.5t-26.5 -10.5t-26.5 10.5z" />
    <glyph glyph-name="uni06A7.medi" unicode="&#x6a7;" horiz-adv-x="494" 
d="M514 29l-20 -29h-37q-52 0 -104.5 12t-98.5 34q-100 -46 -223 -46h-31l-20 29l25 28h32q90 0 159 21q-54 37 -85.5 85.5t-31.5 104.5q0 51 22.5 96t61.5 71.5t85 26.5q53 0 93 -26.5t62 -71.5t22 -97q0 -50 -30 -100.5t-85 -88.5q69 -21 147 -21h42zM161.5 171
q33.5 -42 91.5 -71q59 28 91 71t32 96q0 60 -34.5 99t-91.5 39q-53 0 -87.5 -39t-34.5 -98q0 -55 33.5 -97zM220.5 537.5q-10.5 10.5 -10.5 26.5q0 15 10.5 26t26.5 11t26.5 -11t10.5 -26q0 -16 -10.5 -26.5t-26.5 -10.5t-26.5 10.5z" />
    <glyph glyph-name="uni06A7.fina" unicode="&#x6a7;" horiz-adv-x="764" 
d="M764 0h-98q-14 -120 -83.5 -183t-225.5 -63q-165 0 -234.5 59t-69.5 169q0 91 42 184l40 -13q-30 -78 -30 -164q0 -85 57.5 -131.5t199.5 -46.5q134 0 190 49.5t67 139.5h-88q-105 0 -161 48.5t-56 127.5q0 50 23 93.5t63.5 69t88.5 25.5q53 0 94 -31.5t64.5 -93.5
t23.5 -150q0 -22 -1 -32h99l15 -28zM623 57v24q0 114 -35.5 170.5t-98.5 56.5q-55 0 -91 -37.5t-36 -90.5q0 -58 42.5 -90.5t121.5 -32.5h97zM462.5 439.5q-10.5 10.5 -10.5 26.5q0 15 10.5 26t26.5 11t26.5 -11t10.5 -26q0 -16 -10.5 -26.5t-26.5 -10.5t-26.5 10.5z" />
    <glyph glyph-name="uni06A8.init" unicode="&#x6a8;" horiz-adv-x="459" 
d="M308 514.5q41 -31.5 64.5 -92.5t23.5 -146q0 -103 -34.5 -162t-119.5 -86.5t-242 -27.5l-20 30l25 27q133 0 205.5 18t101.5 53t34 94q-20 -19 -52.5 -28.5t-71.5 -9.5q-83 0 -133.5 48t-50.5 125q0 50 23 93.5t63.5 69.5t89.5 26q53 0 94 -31.5zM296 241q30 7 52 19v7
q0 111 -36 166.5t-99 55.5q-55 0 -90.5 -37.5t-35.5 -90.5q0 -59 39 -93t113 -34q27 0 57 7zM189 727q-10 10 -10 24t10 24t24 10t24 -10t10 -24t-10 -24t-24 -10t-24 10zM116 621q-10 10 -10 24t10 23.5t25 9.5q14 0 24 -10t10 -23q0 -14 -10 -24t-24 -10q-15 0 -25 10z
M261 621q-10 10 -10 24q0 13 10 23t24 10q15 0 25 -9.5t10 -23.5t-10 -24t-25 -10q-14 0 -24 10z" />
    <glyph glyph-name="uni06A8.medi" unicode="&#x6a8;" horiz-adv-x="494" 
d="M514 29l-20 -29h-37q-52 0 -104.5 12t-98.5 34q-100 -46 -223 -46h-31l-20 29l25 28h32q90 0 159 21q-54 37 -85.5 85.5t-31.5 104.5q0 51 22.5 96t61.5 71.5t85 26.5q53 0 93 -26.5t62 -71.5t22 -97q0 -50 -30 -100.5t-85 -88.5q69 -21 147 -21h42zM161.5 171
q33.5 -42 91.5 -71q59 28 91 71t32 96q0 60 -34.5 99t-91.5 39q-53 0 -87.5 -39t-34.5 -98q0 -55 33.5 -97zM224 641q-10 10 -10 24t10 24t24 10t24 -10t10 -24t-10 -24t-24 -10t-24 10zM151 535q-10 10 -10 24t10 23.5t25 9.5q14 0 24 -10t10 -23q0 -14 -10 -24t-24 -10
q-15 0 -25 10zM296 535q-10 10 -10 24q0 13 10 23t24 10q15 0 25 -9.5t10 -23.5t-10 -24t-25 -10q-14 0 -24 10z" />
    <glyph glyph-name="uni06A8.fina" unicode="&#x6a8;" horiz-adv-x="764" 
d="M764 0h-98q-14 -120 -83.5 -183t-225.5 -63q-165 0 -234.5 59t-69.5 169q0 91 42 184l40 -13q-30 -78 -30 -164q0 -85 57.5 -131.5t199.5 -46.5q134 0 190 49.5t67 139.5h-88q-105 0 -161 48.5t-56 127.5q0 50 23 93.5t63.5 69t88.5 25.5q53 0 94 -31.5t64.5 -93.5
t23.5 -150q0 -22 -1 -32h99l15 -28zM623 57v24q0 114 -35.5 170.5t-98.5 56.5q-55 0 -91 -37.5t-36 -90.5q0 -58 42.5 -90.5t121.5 -32.5h97zM466 543q-10 10 -10 24t10 24t24 10t24 -10t10 -24t-10 -24t-24 -10t-24 10zM393 437q-10 10 -10 24t10 23.5t25 9.5q14 0 24 -10
t10 -23q0 -14 -10 -24t-24 -10q-15 0 -25 10zM538 437q-10 10 -10 24q0 13 10 23t24 10q15 0 25 -9.5t10 -23.5t-10 -24t-25 -10q-14 0 -24 10z" />
    <glyph glyph-name="uni06AA.init" unicode="&#x6aa;" horiz-adv-x="1171" 
d="M1036.5 297.5q71.5 -41.5 71.5 -119.5q0 -72 -102 -115q-163 -63 -607 -63h-399l-20 29l25 28h384q670 0 670 121q0 48 -56.5 78t-178.5 30q-107 0 -275 -12q-139 -11 -232 -11q-137 0 -220 15l6 48q31 102 116 180.5t210 108.5l-10 -56q-97 -25 -170 -87.5t-103 -145.5
q83 -10 178 -10q72 0 146.5 5t90.5 6q160 12 258 12q146 0 217.5 -41.5z" />
    <glyph glyph-name="uni06AA.medi" unicode="&#x6aa;" horiz-adv-x="1266" 
d="M1286 29l-20 -29q-175 0 -186 110q-26 -27 -74 -47q-163 -63 -607 -63h-399l-20 29l25 28h384q670 0 670 121q0 48 -56.5 78t-178.5 30q-107 0 -275 -12q-139 -11 -232 -11q-137 0 -220 15l6 48q31 102 116 180.5t210 108.5l-10 -56q-97 -25 -170 -87.5t-103 -145.5
q83 -10 178 -10q72 0 146.5 5t90.5 6q160 12 258 12q144 0 215.5 -40.5t73.5 -116.5q0 -48 15.5 -75t50.5 -38.5t97 -11.5z" />
    <glyph glyph-name="uni06AA.fina" unicode="&#x6aa;" horiz-adv-x="1338" 
d="M1358 29l-20 -29q-176 0 -185 111q-24 -27 -74 -48q-73 -28 -223 -45.5t-385 -17.5h-410l-17 57h417q670 0 670 121q0 48 -56.5 78t-178.5 30q-107 0 -275 -12q-139 -11 -232 -11q-137 0 -220 15l6 48q31 102 116 180.5t211 108.5l-11 -56q-98 -26 -170.5 -88
t-101.5 -145q82 -10 177 -10q72 0 146.5 5t90.5 6q160 12 258 12q144 0 215.5 -40.5t73.5 -116.5q0 -48 15.5 -75t50.5 -38.5t97 -11.5z" />
    <glyph glyph-name="uni06AB.init" unicode="&#x6ab;" horiz-adv-x="459" 
d="M402 695l-81 -52q25 -8 41 -28t16 -48q0 -33 -22.5 -55.5t-57.5 -22.5t-58 22.5t-23 55.5v9l-156 -101q106 -46 167 -88t86.5 -84t25.5 -92q0 -104 -89 -157.5t-251 -53.5l-20 29l25 28q145 0 214.5 40t69.5 119q0 56 -62.5 110t-223.5 120l12 54l391 255zM331.5 600
q-12.5 12 -33.5 12t-34 -12t-13 -33q0 -19 12.5 -31.5t34.5 -12.5t34 12.5t12 31.5q0 21 -12.5 33z" />
    <glyph glyph-name="uni06AB.medi" unicode="&#x6ab;" horiz-adv-x="543" 
d="M563 30l-20 -30q-57 0 -100 17t-87.5 60t-103.5 124q1 -6 1 -16q0 -85 -65 -135t-188 -50l-20 29l25 28q102 0 152 36.5t50 101.5q0 63 -55 131l-98 121l12 52l391 256l-3 -60l-83 -53q24 -8 38.5 -28.5t14.5 -46.5q0 -33 -22.5 -55.5t-57.5 -22.5t-58 22.5t-23 55.5v5
l-159 -103l164 -205q77 -96 115 -136t73.5 -55.5t91.5 -15.5zM377.5 600q-12.5 12 -33.5 12t-34 -12t-13 -33q0 -19 12.5 -31.5t34.5 -12.5t34 12.5t12 31.5q0 21 -12.5 33z" />
    <glyph glyph-name="uni06AB.fina" unicode="&#x6ab;" horiz-adv-x="983" 
d="M1003 30l-20 -30q-57 0 -100.5 17.5t-88.5 60.5t-103 125q1 -7 1 -18q0 -93 -82 -145t-278 -53q-147 0 -213 46t-66 143q0 77 36 153l41 -14q-26 -66 -26 -132q0 -73 54 -106t179 -33q120 0 188.5 18.5t95 51.5t26.5 81q0 62 -55 131l-98 121l12 52l392 256l-4 -60
l-84 -54q23 -8 36.5 -28t13.5 -46q0 -33 -22 -55.5t-58 -22.5q-35 0 -57.5 22.5t-22.5 55.5v3l-156 -101l164 -205q77 -96 115 -136t73.5 -55.5t91.5 -15.5zM759 608l-11 -7q-14 -12 -14 -34q0 -19 12.5 -31.5t33.5 -12.5q23 0 35 12.5t12 31.5q0 21 -13 33t-34 12
q-13 0 -21 -4z" />
    <glyph glyph-name="uni06AC.init" unicode="&#x6ac;" horiz-adv-x="459" 
d="M402 695l-341 -220q106 -46 167 -88t86.5 -84t25.5 -92q0 -104 -89 -157.5t-251 -53.5l-20 29l25 28q145 0 214.5 40t69.5 119q0 56 -62.5 110t-223.5 120l12 54l391 255zM20.5 695.5q-10.5 10.5 -10.5 26.5q0 15 10.5 26t26.5 11t26.5 -11t10.5 -26q0 -16 -10.5 -26.5
t-26.5 -10.5t-26.5 10.5z" />
    <glyph glyph-name="uni06AC.medi" unicode="&#x6ac;" horiz-adv-x="543" 
d="M563 30l-20 -30q-57 0 -100 17t-87.5 60t-103.5 124q1 -6 1 -16q0 -85 -65 -135t-188 -50l-20 29l25 28q102 0 152 36.5t50 101.5q0 63 -55 131l-98 121l12 52l391 256l-3 -60l-350 -226l164 -205q77 -96 115 -136t73.5 -55.5t91.5 -15.5zM65.5 695.5
q-10.5 10.5 -10.5 26.5q0 15 10.5 26t26.5 11t26.5 -11t10.5 -26q0 -16 -10.5 -26.5t-26.5 -10.5t-26.5 10.5z" />
    <glyph glyph-name="uni06AC.fina" unicode="&#x6ac;" horiz-adv-x="832" 
d="M852 30l-20 -30q-50 0 -81 22.5t-52 58.5q-66 -47 -155 -70.5t-212 -23.5q-147 0 -213 46t-66 143q0 77 36 153l41 -14q-26 -66 -26 -132q0 -73 54 -106t179 -33q110 0 196 23.5t146 65.5v612l53 6v-587q0 -107 106 -107zM411.5 326q37.5 12 37.5 34q0 19 -26 33t-95 28
l8 41l159 93l-2 -43l-116 -66q60 -16 85.5 -36t25.5 -50q0 -46 -52 -65t-133 -19l-6 38q77 0 114.5 12zM677.5 831.5q-10.5 10.5 -10.5 26.5q0 15 10.5 26t26.5 11t26.5 -11t10.5 -26q0 -16 -10.5 -26.5t-26.5 -10.5t-26.5 10.5z" />
    <glyph glyph-name="uni06AE.init" unicode="&#x6ae;" horiz-adv-x="459" 
d="M402 695l-341 -220q106 -46 167 -88t86.5 -84t25.5 -92q0 -104 -89 -157.5t-251 -53.5l-20 29l25 28q145 0 214.5 40t69.5 119q0 56 -62.5 110t-223.5 120l12 54l391 255zM131.5 -132q3.5 -4 3.5 -9t-3.5 -8.5t-8.5 -3.5t-9 3.5t-4 8.5t4 9t9 4t8.5 -4zM172.5 -183.5
q3.5 -3.5 3.5 -8.5t-3.5 -8.5t-8.5 -3.5q-4 0 -8 3.5t-4 8.5t3.5 8.5t8.5 3.5t8.5 -3.5zM100 -187q4 -4 4 -9t-4 -8.5t-9 -3.5q-4 0 -8 3.5t-4 8.5t3.5 9t8.5 4t9 -4z" />
    <glyph glyph-name="uni06AE.medi" unicode="&#x6ae;" horiz-adv-x="543" 
d="M563 30l-20 -30q-57 0 -100 17t-87.5 60t-103.5 124q1 -6 1 -16q0 -85 -65 -135t-188 -50l-20 29l25 28q102 0 152 36.5t50 101.5q0 63 -55 131l-98 121l12 52l391 256l-3 -60l-350 -226l164 -205q77 -96 115 -136t73.5 -55.5t91.5 -15.5zM283.5 -132q3.5 -4 3.5 -9
t-3.5 -8.5t-8.5 -3.5t-9 3.5t-4 8.5t4 9t9 4t8.5 -4zM324.5 -183.5q3.5 -3.5 3.5 -8.5t-3.5 -8.5t-8.5 -3.5q-4 0 -8 3.5t-4 8.5t3.5 8.5t8.5 3.5t8.5 -3.5zM252 -187q4 -4 4 -9t-4 -8.5t-9 -3.5q-4 0 -8 3.5t-4 8.5t3.5 9t8.5 4t9 -4z" />
    <glyph glyph-name="uni06AE.fina" unicode="&#x6ae;" horiz-adv-x="832" 
d="M852 30l-20 -30q-50 0 -81 22.5t-52 58.5q-66 -47 -155 -70.5t-212 -23.5q-147 0 -213 46t-66 143q0 77 36 153l41 -14q-26 -66 -26 -132q0 -73 54 -106t179 -33q110 0 196 23.5t146 65.5v612l53 6v-587q0 -107 106 -107zM411.5 326q37.5 12 37.5 34q0 19 -26 33t-95 28
l8 41l159 93l-2 -43l-116 -66q60 -16 85.5 -36t25.5 -50q0 -46 -52 -65t-133 -19l-6 38q77 0 114.5 12zM392.5 -132q3.5 -4 3.5 -9t-3.5 -8.5t-8.5 -3.5t-9 3.5t-4 8.5t4 9t9 4t8.5 -4zM433.5 -183.5q3.5 -3.5 3.5 -8.5t-3.5 -8.5t-8.5 -3.5q-4 0 -8 3.5t-4 8.5t3.5 8.5
t8.5 3.5t8.5 -3.5zM361 -187q4 -4 4 -9t-4 -8.5t-9 -3.5q-4 0 -8 3.5t-4 8.5t3.5 9t8.5 4t9 -4z" />
    <glyph glyph-name="uni06B0.init" unicode="&#x6b0;" horiz-adv-x="459" 
d="M394 828l-385 -252l11 50l377 249zM402 695l-70 -45q24 -8 38.5 -28.5t14.5 -46.5q0 -33 -22 -55.5t-58 -22.5q-35 0 -57.5 22.5t-22.5 55.5v6l-164 -106q106 -46 167 -88t86.5 -84t25.5 -92q0 -104 -89 -157.5t-251 -53.5l-20 29l25 28q145 0 214.5 40t69.5 119
q0 56 -62.5 110t-223.5 120l12 54l391 255zM339 607.5q-13 11.5 -34 11.5t-33.5 -11.5t-12.5 -32.5q0 -19 12.5 -31.5t33.5 -12.5q23 0 35 12.5t12 31.5q0 21 -13 32.5z" />
    <glyph glyph-name="uni06B0.medi" unicode="&#x6b0;" horiz-adv-x="543" 
d="M451 828l-385 -252l11 50l377 249zM563 30l-20 -30q-57 0 -100 17t-87.5 60t-103.5 124q1 -6 1 -16q0 -85 -65 -135t-188 -50l-20 29l25 28q102 0 152 36.5t50 101.5q0 63 -55 131l-98 121l12 52l391 256l-3 -60l-71 -46q23 -8 37 -28t14 -46q0 -33 -22.5 -55.5
t-57.5 -22.5t-58 22.5t-23 55.5v3l-169 -109l164 -205q77 -96 115 -136t73.5 -55.5t91.5 -15.5zM387.5 607.5q-12.5 11.5 -33.5 11.5t-34 -11.5t-13 -32.5q0 -19 12.5 -31.5t34.5 -12.5t34 12.5t12 31.5q0 21 -12.5 32.5z" />
    <glyph glyph-name="uni06B0.fina" unicode="&#x6b0;" horiz-adv-x="983" 
d="M889 828l-384 -252l11 50l376 249zM1003 30l-20 -30q-57 0 -100.5 17.5t-88.5 60.5t-103 125q1 -7 1 -18q0 -93 -82 -145t-278 -53q-147 0 -213 46t-66 143q0 77 36 153l41 -14q-26 -66 -26 -132q0 -73 54 -106t179 -33q120 0 188.5 18.5t95 51.5t26.5 81q0 62 -55 131
l-98 121l12 52l392 256l-4 -60l-80 -51q23 -8 37 -28t14 -46q0 -34 -22 -56.5t-58 -22.5q-35 0 -58 23t-23 56v3l-160 -104l164 -205q77 -96 115 -136t73.5 -55.5t91.5 -15.5zM819 602q-13 12 -34 12t-34 -12t-13 -32t13 -32.5t34 -12.5q22 0 34.5 12.5t12.5 32.5t-13 32z
" />
    <glyph glyph-name="uni06B2.init" unicode="&#x6b2;" horiz-adv-x="459" 
d="M394 828l-385 -252l11 50l377 249zM402 695l-341 -220q106 -46 167 -88t86.5 -84t25.5 -92q0 -104 -89 -157.5t-251 -53.5l-20 29l25 28q145 0 214.5 40t69.5 119q0 56 -62.5 110t-223.5 120l12 54l391 255zM32.5 -166q-10.5 10 -10.5 24t10.5 24.5t24.5 10.5t24 -10.5
t10 -24.5t-10 -24t-24 -10t-24.5 10zM170 -166q-10 10 -10 24t10 24.5t25 10.5q14 0 24.5 -10.5t10.5 -24.5t-10.5 -24t-24.5 -10q-15 0 -25 10z" />
    <glyph glyph-name="uni06B2.medi" unicode="&#x6b2;" horiz-adv-x="543" 
d="M451 828l-385 -252l11 50l377 249zM563 30l-20 -30q-57 0 -100 17t-87.5 60t-103.5 124q1 -6 1 -16q0 -85 -65 -135t-188 -50l-20 29l25 28q102 0 152 36.5t50 101.5q0 63 -55 131l-98 121l12 52l391 256l-3 -60l-350 -226l164 -205q77 -96 115 -136t73.5 -55.5
t91.5 -15.5zM184.5 -166q-10.5 10 -10.5 24t10.5 24.5t24.5 10.5t24 -10.5t10 -24.5t-10 -24t-24 -10t-24.5 10zM322 -166q-10 10 -10 24t10 24.5t25 10.5q14 0 24.5 -10.5t10.5 -24.5t-10.5 -24t-24.5 -10q-15 0 -25 10z" />
    <glyph glyph-name="uni06B2.fina" unicode="&#x6b2;" horiz-adv-x="983" 
d="M889 828l-384 -252l11 50l376 249zM1003 30l-20 -30q-57 0 -100.5 17.5t-88.5 60.5t-103 125q1 -7 1 -18q0 -93 -82 -145t-278 -53q-147 0 -213 46t-66 143q0 77 36 153l41 -14q-26 -66 -26 -132q0 -73 54 -106t179 -33q120 0 188.5 18.5t95 51.5t26.5 81q0 62 -55 131
l-98 121l12 52l392 256l-4 -60l-350 -226l164 -205q77 -96 115 -136t73.5 -55.5t91.5 -15.5zM280.5 -166q-10.5 10 -10.5 24t10.5 24.5t24.5 10.5t24 -10.5t10 -24.5t-10 -24t-24 -10t-24.5 10zM418 -166q-10 10 -10 24t10 24.5t25 10.5q14 0 24.5 -10.5t10.5 -24.5
t-10.5 -24t-24.5 -10q-15 0 -25 10z" />
    <glyph glyph-name="uni06B4.init" unicode="&#x6b4;" horiz-adv-x="459" 
d="M394 828l-385 -252l11 50l377 249zM402 695l-341 -220q106 -46 167 -88t86.5 -84t25.5 -92q0 -104 -89 -157.5t-251 -53.5l-20 29l25 28q145 0 214.5 40t69.5 119q0 56 -62.5 110t-223.5 120l12 54l391 255zM1 857q-10 10 -10 24t10 24t24 10t24 -10t10 -24t-10 -24
t-24 -10t-24 10zM-72 751q-10 10 -10 24t10 23.5t25 9.5q14 0 24 -10t10 -23q0 -14 -10 -24t-24 -10q-15 0 -25 10zM73 751q-10 10 -10 24q0 13 10 23t24 10q15 0 25 -9.5t10 -23.5t-10 -24t-25 -10q-14 0 -24 10z" />
    <glyph glyph-name="uni06B4.medi" unicode="&#x6b4;" horiz-adv-x="543" 
d="M451 828l-385 -252l11 50l377 249zM563 30l-20 -30q-57 0 -100 17t-87.5 60t-103.5 124q1 -6 1 -16q0 -85 -65 -135t-188 -50l-20 29l25 28q102 0 152 36.5t50 101.5q0 63 -55 131l-98 121l12 52l391 256l-3 -60l-350 -226l164 -205q77 -96 115 -136t73.5 -55.5
t91.5 -15.5zM59 857q-10 10 -10 24t10 24t24 10t24 -10t10 -24t-10 -24t-24 -10t-24 10zM-14 751q-10 10 -10 24t10 23.5t25 9.5q14 0 24 -10t10 -23q0 -14 -10 -24t-24 -10q-15 0 -25 10zM131 751q-10 10 -10 24q0 13 10 23t24 10q15 0 25 -9.5t10 -23.5t-10 -24t-25 -10
q-14 0 -24 10z" />
    <glyph glyph-name="uni06B4.fina" unicode="&#x6b4;" horiz-adv-x="983" 
d="M889 828l-384 -252l11 50l376 249zM1003 30l-20 -30q-57 0 -100.5 17.5t-88.5 60.5t-103 125q1 -7 1 -18q0 -93 -82 -145t-278 -53q-147 0 -213 46t-66 143q0 77 36 153l41 -14q-26 -66 -26 -132q0 -73 54 -106t179 -33q120 0 188.5 18.5t95 51.5t26.5 81q0 62 -55 131
l-98 121l12 52l392 256l-4 -60l-350 -226l164 -205q77 -96 115 -136t73.5 -55.5t91.5 -15.5zM495 857q-10 10 -10 24t10 24t24 10t24 -10t10 -24t-10 -24t-24 -10t-24 10zM422 751q-10 10 -10 24t10 23.5t25 9.5q14 0 24 -10t10 -23q0 -14 -10 -24t-24 -10q-15 0 -25 10z
M567 751q-10 10 -10 24q0 13 10 23t24 10q15 0 25 -9.5t10 -23.5t-10 -24t-25 -10q-14 0 -24 10z" />
    <glyph glyph-name="uni06B5.init" unicode="&#x6b5;" horiz-adv-x="232" 
d="M-20 29l25 28q47 0 69.5 26.5t22.5 85.5v574l54 7v-584q0 -93 -39 -129.5t-112 -36.5zM125 846l64 109l30 -13l-78 -139h-33l-77 139l30 13z" />
    <glyph glyph-name="uni06B5.medi" unicode="&#x6b5;" horiz-adv-x="244" 
d="M264 29l-20 -29q-89 0 -121 66q-17 -36 -48 -51t-75 -15l-20 29l25 28q52 0 71.5 24.5t19.5 77.5v585l53 7v-592q0 -53 24.5 -77.5t75.5 -24.5zM122 846l64 109l30 -13l-78 -139h-33l-77 139l30 13z" />
    <glyph glyph-name="uni06B5.fina" unicode="&#x6b5;" horiz-adv-x="703" 
d="M723 29l-20 -29q-80 0 -114 47q-9 -133 -82.5 -189t-204.5 -56q-128 0 -188.5 61t-60.5 167q0 92 42 183l40 -12q-30 -78 -30 -164q0 -178 203 -178q123 0 176 53t53 169v662l53 7v-566q0 -71 26.5 -99t91.5 -28zM564 844l64 109l30 -13l-78 -139h-33l-77 139l30 13z" />
    <glyph glyph-name="uni06B6.init" unicode="&#x6b6;" horiz-adv-x="232" 
d="M-20 29l25 28q47 0 69.5 26.5t22.5 85.5v574l54 7v-584q0 -93 -39 -129.5t-112 -36.5zM96.5 832.5q-10.5 10.5 -10.5 26.5q0 15 10.5 26t26.5 11t26.5 -11t10.5 -26q0 -16 -10.5 -26.5t-26.5 -10.5t-26.5 10.5z" />
    <glyph glyph-name="uni06B6.medi" unicode="&#x6b6;" horiz-adv-x="244" 
d="M264 29l-20 -29q-89 0 -121 66q-17 -36 -48 -51t-75 -15l-20 29l25 28q52 0 71.5 24.5t19.5 77.5v585l53 7v-592q0 -53 24.5 -77.5t75.5 -24.5zM94.5 832.5q-10.5 10.5 -10.5 26.5q0 15 10.5 26t26.5 11t26.5 -11t10.5 -26q0 -16 -10.5 -26.5t-26.5 -10.5t-26.5 10.5z
" />
    <glyph glyph-name="uni06B6.fina" unicode="&#x6b6;" horiz-adv-x="703" 
d="M723 29l-20 -29q-80 0 -114 47q-9 -133 -82.5 -189t-204.5 -56q-128 0 -188.5 61t-60.5 167q0 92 42 183l40 -12q-30 -78 -30 -164q0 -178 203 -178q123 0 176 53t53 169v662l53 7v-566q0 -71 26.5 -99t91.5 -28zM535.5 830.5q-10.5 10.5 -10.5 26.5q0 15 10.5 26
t26.5 11t26.5 -11t10.5 -26q0 -16 -10.5 -26.5t-26.5 -10.5t-26.5 10.5z" />
    <glyph glyph-name="uni06B7.init" unicode="&#x6b7;" horiz-adv-x="232" 
d="M-20 29l25 28q47 0 69.5 26.5t22.5 85.5v574l54 7v-584q0 -93 -39 -129.5t-112 -36.5zM101 936q-10 10 -10 24t10 24t24 10t24 -10t10 -24t-10 -24t-24 -10t-24 10zM28 830q-10 10 -10 24t10 23.5t25 9.5q14 0 24 -10t10 -23q0 -14 -10 -24t-24 -10q-15 0 -25 10z
M173 830q-10 10 -10 24q0 13 10 23t24 10q15 0 25 -9.5t10 -23.5t-10 -24t-25 -10q-14 0 -24 10z" />
    <glyph glyph-name="uni06B7.medi" unicode="&#x6b7;" horiz-adv-x="244" 
d="M264 29l-20 -29q-89 0 -121 66q-17 -36 -48 -51t-75 -15l-20 29l25 28q52 0 71.5 24.5t19.5 77.5v585l53 7v-592q0 -53 24.5 -77.5t75.5 -24.5zM98 936q-10 10 -10 24t10 24t24 10t24 -10t10 -24t-10 -24t-24 -10t-24 10zM25 830q-10 10 -10 24t10 23.5t25 9.5
q14 0 24 -10t10 -23q0 -14 -10 -24t-24 -10q-15 0 -25 10zM170 830q-10 10 -10 24q0 13 10 23t24 10q15 0 25 -9.5t10 -23.5t-10 -24t-25 -10q-14 0 -24 10z" />
    <glyph glyph-name="uni06B7.fina" unicode="&#x6b7;" horiz-adv-x="703" 
d="M723 29l-20 -29q-80 0 -114 47q-9 -133 -82.5 -189t-204.5 -56q-128 0 -188.5 61t-60.5 167q0 92 42 183l40 -12q-30 -78 -30 -164q0 -178 203 -178q123 0 176 53t53 169v662l53 7v-566q0 -71 26.5 -99t91.5 -28zM540 934q-10 10 -10 24t10 24t24 10t24 -10t10 -24
t-10 -24t-24 -10t-24 10zM467 828q-10 10 -10 24t10 23.5t25 9.5q14 0 24 -10t10 -23q0 -14 -10 -24t-24 -10q-15 0 -25 10zM612 828q-10 10 -10 24q0 13 10 23t24 10q15 0 25 -9.5t10 -23.5t-10 -24t-25 -10q-14 0 -24 10z" />
    <glyph glyph-name="uni06B8.init" unicode="&#x6b8;" horiz-adv-x="232" 
d="M-20 29l25 28q47 0 69.5 26.5t22.5 85.5v574l54 7v-584q0 -93 -39 -129.5t-112 -36.5zM128.5 -132q3.5 -4 3.5 -9t-3.5 -8.5t-8.5 -3.5t-9 3.5t-4 8.5t4 9t9 4t8.5 -4zM169.5 -183.5q3.5 -3.5 3.5 -8.5t-3.5 -8.5t-8.5 -3.5q-4 0 -8 3.5t-4 8.5t3.5 8.5t8.5 3.5t8.5 -3.5
zM97 -187q4 -4 4 -9t-4 -8.5t-9 -3.5q-4 0 -8 3.5t-4 8.5t3.5 9t8.5 4t9 -4z" />
    <glyph glyph-name="uni06B8.medi" unicode="&#x6b8;" horiz-adv-x="244" 
d="M264 29l-20 -29q-89 0 -121 66q-17 -36 -48 -51t-75 -15l-20 29l25 28q52 0 71.5 24.5t19.5 77.5v585l53 7v-592q0 -53 24.5 -77.5t75.5 -24.5zM127.5 -132q3.5 -4 3.5 -9t-3.5 -8.5t-8.5 -3.5t-9 3.5t-4 8.5t4 9t9 4t8.5 -4zM168.5 -183.5q3.5 -3.5 3.5 -8.5t-3.5 -8.5
t-8.5 -3.5q-4 0 -8 3.5t-4 8.5t3.5 8.5t8.5 3.5t8.5 -3.5zM96 -187q4 -4 4 -9t-4 -8.5t-9 -3.5q-4 0 -8 3.5t-4 8.5t3.5 9t8.5 4t9 -4z" />
    <glyph glyph-name="uni06B8.fina" unicode="&#x6b8;" horiz-adv-x="703" 
d="M723 29l-20 -29q-80 0 -114 47q-9 -133 -82.5 -189t-204.5 -56q-128 0 -188.5 61t-60.5 167q0 92 42 183l40 -12q-30 -78 -30 -164q0 -178 203 -178q123 0 176 53t53 169v662l53 7v-566q0 -71 26.5 -99t91.5 -28zM307.5 -329q3.5 -4 3.5 -9t-3.5 -8.5t-8.5 -3.5t-9 3.5
t-4 8.5t4 9t9 4t8.5 -4zM348.5 -380.5q3.5 -3.5 3.5 -8.5t-3.5 -8.5t-8.5 -3.5q-4 0 -8 3.5t-4 8.5t3.5 8.5t8.5 3.5t8.5 -3.5zM276 -384q4 -4 4 -9t-4 -8.5t-9 -3.5q-4 0 -8 3.5t-4 8.5t3.5 9t8.5 4t9 -4z" />
    <glyph glyph-name="uni06B9.init" unicode="&#x6b9;" horiz-adv-x="269" 
d="M99 68q32 11 43.5 35t11.5 68q0 83 -43 206l54 18q20 -58 30.5 -118t10.5 -109q0 -64 -18 -100t-62 -52t-126 -16l-20 29l25 28q62 0 94 11zM96.5 -170.5q-10.5 10.5 -10.5 26.5q0 15 10.5 26t26.5 11t26.5 -11t10.5 -26q0 -16 -10.5 -26.5t-26.5 -10.5t-26.5 10.5z
M92.5 479.5q-10.5 10.5 -10.5 26.5q0 15 10.5 26t26.5 11t26.5 -11t10.5 -26q0 -16 -10.5 -26.5t-26.5 -10.5t-26.5 10.5z" />
    <glyph glyph-name="uni06B9.medi" unicode="&#x6b9;" horiz-adv-x="327" 
d="M347 29l-20 -29q-62 0 -102 20.5t-60 64.5q-19 -45 -58.5 -65t-106.5 -20l-20 29l26 28q54 0 82 13.5t38 38.5t10 67v145h54v-145q0 -62 31.5 -90.5t110.5 -28.5zM136.5 -170.5q-10.5 10.5 -10.5 26.5q0 15 10.5 26t26.5 11t26.5 -11t10.5 -26q0 -16 -10.5 -26.5
t-26.5 -10.5t-26.5 10.5zM135.5 409.5q-10.5 10.5 -10.5 26.5q0 15 10.5 26t26.5 11t26.5 -11t10.5 -26q0 -16 -10.5 -26.5t-26.5 -10.5t-26.5 10.5z" />
    <glyph glyph-name="uni06B9.fina" unicode="&#x6b9;" horiz-adv-x="715" 
d="M735 29l-20 -29q-75 0 -113 44q-4 -156 -76 -223t-224 -67q-128 0 -188.5 61t-60.5 167q0 91 42 184l40 -13q-30 -78 -30 -164q0 -83 48 -130.5t155 -47.5q89 0 142 25t77 77.5t24 138.5q0 51 -14 102t-45 126l58 24q5 -19 15 -51q16 -54 25 -87q17 -60 46.5 -84.5
t83.5 -24.5zM288.5 -403.5q-10.5 10.5 -10.5 26.5q0 15 10.5 26t26.5 11t26.5 -11t10.5 -26q0 -16 -10.5 -26.5t-26.5 -10.5t-26.5 10.5zM287.5 329.5q-10.5 10.5 -10.5 26.5q0 15 10.5 26t26.5 11t26.5 -11t10.5 -26q0 -16 -10.5 -26.5t-26.5 -10.5t-26.5 10.5z" />
    <glyph glyph-name="uni06BC.init" unicode="&#x6bc;" horiz-adv-x="269" 
d="M92.5 480q-10.5 11 -10.5 26q0 16 10.5 26.5t26.5 10.5t26 -10.5t10 -26.5q0 -15 -10.5 -26t-25.5 -11q-16 0 -26.5 11zM186.5 6.5q9.5 -17.5 9.5 -38.5q0 -33 -22.5 -55.5t-57.5 -22.5t-58 22.5t-23 55.5q0 19 7 33q-13 -1 -42 -1l-20 29l25 28q62 0 94 11t43.5 35
t11.5 68q0 83 -43 206l54 18q20 -58 30.5 -118t10.5 -109q0 -50 -10.5 -82t-35.5 -52q17 -10 26.5 -27.5zM150 -63.5q12 12.5 12 31.5q0 21 -12.5 33t-32.5 12q-10 -3 -28 -7q-20 -12 -20 -38q0 -19 12.5 -31.5t34.5 -12.5t34 12.5z" />
    <glyph glyph-name="uni06BC.medi" unicode="&#x6bc;" horiz-adv-x="327" 
d="M135.5 409.5q-10.5 10.5 -10.5 26.5q0 15 10.5 26t26.5 11t26.5 -11t10.5 -26q0 -16 -10.5 -26.5t-26.5 -10.5t-26.5 10.5zM347 29l-20 -29q-62 0 -102 20.5t-60 64.5q-12 -26 -25 -40q23 -8 36.5 -28t13.5 -45q0 -33 -22 -55.5t-58 -22.5q-35 0 -58 22.5t-23 55.5
q0 15 6 29q-11 -1 -35 -1l-20 29l26 28q54 0 82 13.5t38 38.5t10 67v145h54v-145q0 -62 31.5 -90.5t110.5 -28.5zM144 4.5q-13 11.5 -34 11.5t-33.5 -11.5t-12.5 -32.5q0 -20 12.5 -32.5t33.5 -12.5q23 0 35 12.5t12 32.5q0 21 -13 32.5z" />
    <glyph glyph-name="uni06BC.fina" unicode="&#x6bc;" horiz-adv-x="715" 
d="M287.5 329q-10.5 11 -10.5 26q0 16 10.5 26.5t26.5 10.5t26.5 -10.5t10.5 -26.5q0 -15 -10.5 -26t-26.5 -11t-26.5 11zM735 29l-20 -29q-75 0 -113 44q-3 -140 -61.5 -208t-179.5 -79q11 -19 11 -40q0 -33 -22.5 -56t-57.5 -23t-58 23t-23 56q0 24 13 44q-87 17 -129 75
t-42 146q0 91 42 184l40 -13q-30 -78 -30 -164q0 -83 48 -130.5t155 -47.5q89 0 142 25t77 77.5t24 138.5q0 51 -14 102t-45 126l58 24q5 -19 15 -51q16 -54 25 -87q17 -60 46.5 -84.5t83.5 -24.5zM318 -246h-16q-24 0 -35 1q-22 -11 -22 -38q0 -20 12.5 -32.5t34.5 -12.5
t34 12.5t12 32.5q0 26 -20 37z" />
    <glyph glyph-name="uni06BD.init" unicode="&#x6bd;" horiz-adv-x="269" 
d="M99 68q32 11 43.5 35t11.5 68q0 83 -43 206l54 18q20 -58 30.5 -118t10.5 -109q0 -64 -18 -100t-62 -52t-126 -16l-20 29l25 28q62 0 94 11zM96 583q-10 10 -10 24t10 24t24 10t24 -10t10 -24t-10 -24t-24 -10t-24 10zM23 477q-10 10 -10 24t10 23.5t25 9.5q14 0 24 -10
t10 -23q0 -14 -10 -24t-24 -10q-15 0 -25 10zM168 477q-10 10 -10 24q0 13 10 23t24 10q15 0 25 -9.5t10 -23.5t-10 -24t-25 -10q-14 0 -24 10z" />
    <glyph glyph-name="uni06BD.medi" unicode="&#x6bd;" horiz-adv-x="327" 
d="M347 29l-20 -29q-62 0 -102 20.5t-60 64.5q-19 -45 -58.5 -65t-106.5 -20l-20 29l26 28q54 0 82 13.5t38 38.5t10 67v145h54v-145q0 -62 31.5 -90.5t110.5 -28.5zM139 513q-10 10 -10 24t10 24t24 10t24 -10t10 -24t-10 -24t-24 -10t-24 10zM66 407q-10 10 -10 24
t10 23.5t25 9.5q14 0 24 -10t10 -23q0 -14 -10 -24t-24 -10q-15 0 -25 10zM211 407q-10 10 -10 24q0 13 10 23t24 10q15 0 25 -9.5t10 -23.5t-10 -24t-25 -10q-14 0 -24 10z" />
    <glyph glyph-name="uni06BD.fina" unicode="&#x6bd;" horiz-adv-x="715" 
d="M735 29l-20 -29q-75 0 -113 44q-4 -156 -76 -223t-224 -67q-128 0 -188.5 61t-60.5 167q0 91 42 184l40 -13q-30 -78 -30 -164q0 -83 48 -130.5t155 -47.5q89 0 142 25t77 77.5t24 138.5q0 51 -14 102t-45 126l58 24q5 -19 15 -51q16 -54 25 -87q17 -60 46.5 -84.5
t83.5 -24.5zM291 433q-10 10 -10 24t10 24t24 10t24 -10t10 -24t-10 -24t-24 -10t-24 10zM218 327q-10 10 -10 24t10 23.5t25 9.5q14 0 24 -10t10 -23q0 -14 -10 -24t-24 -10q-15 0 -25 10zM363 327q-10 10 -10 24q0 13 10 23t24 10q15 0 25 -9.5t10 -23.5t-10 -24t-25 -10
q-14 0 -24 10z" />
    <glyph glyph-name="uni06BF.init" unicode="&#x6bf;" horiz-adv-x="695" 
d="M310 427.5q36 -12.5 61.5 -31t61.5 -51.5q53 -49 98.5 -79t119.5 -50l-9 -50l-65 -5q-83 -4 -149 -25t-154 -61q-85 -38 -144 -56.5t-130 -18.5l-20 29l25 29q65 0 118.5 16.5t134.5 51.5q81 36 145 56.5t145 26.5q-51 19 -85.5 42.5t-73.5 57.5q-31 26 -51.5 40.5
t-49 24t-66.5 9.5q-59 0 -118 -36l-27 50q72 43 147 43q50 0 86 -12.5zM303.5 -132q3.5 -4 3.5 -9t-3.5 -8.5t-8.5 -3.5t-9 3.5t-4 8.5t4 9t9 4t8.5 -4zM344.5 -183.5q3.5 -3.5 3.5 -8.5t-3.5 -8.5t-8.5 -3.5q-4 0 -8 3.5t-4 8.5t3.5 8.5t8.5 3.5t8.5 -3.5zM272 -187
q4 -4 4 -9t-4 -8.5t-9 -3.5q-4 0 -8 3.5t-4 8.5t3.5 9t8.5 4t9 -4zM196.5 515.5q-10.5 10.5 -10.5 26.5q0 15 10.5 26t26.5 11t26.5 -11t10.5 -26q0 -16 -10.5 -26.5t-26.5 -10.5t-26.5 10.5z" />
    <glyph glyph-name="uni06BF.medi" unicode="&#x6bf;" horiz-adv-x="727" 
d="M747 29l-20 -29q-205 0 -234 187q-45 -11 -85.5 -30t-110.5 -56q-63 -34 -104 -53.5t-90.5 -33.5t-102.5 -14l-20 29l25 28q68 0 126 21.5t142 65.5q82 42 138 64.5t124 31.5q-50 17 -85.5 36.5t-73.5 47.5q-45 31 -75.5 45t-78.5 14q-32 0 -60.5 -8.5t-59.5 -25.5
l-27 49q75 42 148 42q46 0 79 -9.5t57 -24.5t59 -42q52 -41 99.5 -67.5t124.5 -46.5l-7 -50l-65 -2q-17 0 -34 -3q16 -80 63 -109t134 -29zM389.5 -82q3.5 -4 3.5 -9t-3.5 -8.5t-8.5 -3.5t-9 3.5t-4 8.5t4 9t9 4t8.5 -4zM430.5 -133.5q3.5 -3.5 3.5 -8.5t-3.5 -8.5
t-8.5 -3.5q-4 0 -8 3.5t-4 8.5t3.5 8.5t8.5 3.5t8.5 -3.5zM358 -137q4 -4 4 -9t-4 -8.5t-9 -3.5q-4 0 -8 3.5t-4 8.5t3.5 9t8.5 4t9 -4zM195.5 515.5q-10.5 10.5 -10.5 26.5q0 15 10.5 26t26.5 11t26.5 -11t10.5 -26q0 -16 -10.5 -26.5t-26.5 -10.5t-26.5 10.5z" />
    <glyph glyph-name="uni06BF.fina" unicode="&#x6bf;" horiz-adv-x="681" 
d="M199.5 106q-87.5 -73 -87.5 -184q0 -100 71.5 -159t207.5 -59q62 0 118.5 12.5t96.5 33.5l22 -50q-42 -24 -105.5 -39t-137.5 -15q-107 0 -179 34.5t-107 95t-35 138.5q0 143 109.5 231.5t316.5 102.5q-36 15 -62 31.5t-63 43.5q-42 32 -71 46t-71 14q-37 0 -66 -9
t-59 -27l-27 50q72 43 156 43q54 0 92 -20t87 -62q49 -41 90 -65.5t101 -37.5l-6 -49l-59 -2q-11 0 -31 -2q11 -58 34 -89.5t59 -43.5t92 -12l15 -28l-20 -29q-99 0 -155 47.5t-68 150.5q-171 -19 -258.5 -92zM365.5 -13q3.5 -4 3.5 -9t-3.5 -8.5t-8.5 -3.5t-9 3.5t-4 8.5
t4 9t9 4t8.5 -4zM406.5 -64.5q3.5 -3.5 3.5 -8.5t-3.5 -8.5t-8.5 -3.5t-8.5 3.5t-3.5 8.5t3.5 8.5t8.5 3.5t8.5 -3.5zM334 -68.5q4 -3.5 4 -8.5t-4 -8.5t-9 -3.5t-8.5 3.5t-3.5 8.5t3.5 8.5t8.5 3.5t9 -3.5zM198.5 515.5q-10.5 10.5 -10.5 26.5q0 15 10.5 26t26.5 11
t26.5 -11t10.5 -26q0 -16 -10.5 -26.5t-26.5 -10.5t-26.5 10.5z" />
    <glyph glyph-name="uni06C2.fina" unicode="&#x6c2;" horiz-adv-x="576" 
d="M27 -27q41 152 100 223t131 71q35 0 60 -12.5t41.5 -31.5t37.5 -52q25 -37 45.5 -59.5t54.5 -38.5t84 -16l15 -28l-20 -29q-64 0 -107 19.5t-67.5 46.5t-52.5 69q-24 38 -43.5 56.5t-47.5 18.5q-55 0 -98 -64t-78 -184zM359 351l-198 -32l-5 34l68 11q-23 17 -35.5 37
t-12.5 39q0 35 24.5 58t71.5 23q34 0 68 -19l-19 -32q-29 15 -52 15q-29 0 -42.5 -13t-13.5 -32q0 -34 51 -69l90 15z" />
    <glyph glyph-name="uni06C3.fina" unicode="&#x6c3;" horiz-adv-x="576" 
d="M27 -27q41 152 100 223t131 71q35 0 60 -12.5t41.5 -31.5t37.5 -52q25 -37 45.5 -59.5t54.5 -38.5t84 -16l15 -28l-20 -29q-64 0 -107 19.5t-67.5 46.5t-52.5 69q-24 38 -43.5 56.5t-47.5 18.5q-55 0 -98 -64t-78 -184zM164.5 370q-10.5 10 -10.5 25q0 14 10.5 24.5
t24.5 10.5t24 -10.5t10 -24.5q0 -15 -10 -25t-24 -10t-24.5 10zM302 370q-10 10 -10 25q0 14 10 24.5t25 10.5q14 0 24.5 -10.5t10.5 -24.5q0 -15 -10.5 -25t-24.5 -10q-15 0 -25 10z" />
    <glyph glyph-name="uni06C4.fina" unicode="&#x6c4;" horiz-adv-x="527" 
d="M527 0h-108q-23 -102 -106.5 -165.5t-242.5 -92.5l-17 56q46 9 56 12q-15 11 -23.5 27.5t-8.5 35.5q0 34 23 56.5t58 22.5q33 0 56.5 -23t23.5 -56q0 -7 -2 -19q102 52 132 146h-84q-102 0 -157 48.5t-55 126.5q0 50 23 93t63.5 69t88.5 26q53 0 94 -31.5t64.5 -91
t23.5 -142.5q0 -15 -2 -41h105l15 -28zM291 57h88q1 11 1 34q0 106 -35.5 160.5t-98.5 54.5q-54 0 -90 -37.5t-36 -90.5q0 -121 171 -121zM124 -95q-13 -12 -13 -32t12.5 -32.5t34.5 -12.5t34 12.5t12 32.5t-13 32t-33 12q-21 0 -34 -12z" />
    <glyph glyph-name="uni06CA.fina" unicode="&#x6ca;" horiz-adv-x="527" 
d="M527 0h-108q-23 -102 -106.5 -165.5t-242.5 -92.5l-17 56q141 26 216 75.5t99 126.5h-84q-102 0 -157 48.5t-55 126.5q0 50 23 93t63.5 69t88.5 26q53 0 94 -31.5t64.5 -91t23.5 -142.5q0 -15 -2 -41h105l15 -28zM291 57h88q1 11 1 34q0 106 -35.5 160.5t-98.5 54.5
q-54 0 -90 -37.5t-36 -90.5q0 -121 171 -121zM157.5 469q-10.5 10 -10.5 25q0 14 10.5 24.5t24.5 10.5t24 -10.5t10 -24.5q0 -15 -10 -25t-24 -10t-24.5 10zM295 469q-10 10 -10 25q0 14 10 24.5t25 10.5q14 0 24.5 -10.5t10.5 -24.5q0 -15 -10.5 -25t-24.5 -10
q-15 0 -25 10z" />
    <glyph glyph-name="uni06CD.fina" unicode="&#x6cd;" horiz-adv-x="752" 
d="M752 0q-28 0 -51 5t-47 16q11 -19 11 -40q0 -48 -37.5 -89.5t-113 -67.5t-182.5 -26q-128 0 -188.5 61t-60.5 167q0 59 16 115q-42 -23 -96 -31l-6 31q75 20 128 69l40 -13q-30 -78 -30 -164q0 -83 48 -130.5t154 -47.5q89 0 152.5 20t95 50.5t31.5 60.5q0 19 -14 33.5
t-52 30.5t-111 39l24 50q56 -19 106 -37q66 -25 104 -35t84 -10l15 -28z" />
    <glyph glyph-name="uni06CE.init" unicode="&#x6ce;" horiz-adv-x="269" 
d="M99 68q32 11 43.5 35t11.5 68q0 83 -43 206l54 18q20 -58 30.5 -118t10.5 -109q0 -64 -18 -100t-62 -52t-126 -16l-20 29l25 28q62 0 94 11zM29.5 -166q-10.5 10 -10.5 24t10.5 24.5t24.5 10.5t24 -10.5t10 -24.5t-10 -24t-24 -10t-24.5 10zM167 -166q-10 10 -10 24
t10 24.5t25 10.5q14 0 24.5 -10.5t10.5 -24.5t-10.5 -24t-24.5 -10q-15 0 -25 10zM120 493l64 109l30 -13l-78 -139h-33l-77 139l30 13z" />
    <glyph glyph-name="uni06CE.medi" unicode="&#x6ce;" horiz-adv-x="327" 
d="M347 29l-20 -29q-62 0 -102 20.5t-60 64.5q-19 -45 -58.5 -65t-106.5 -20l-20 29l26 28q54 0 82 13.5t38 38.5t10 67v145h54v-145q0 -62 31.5 -90.5t110.5 -28.5zM69.5 -166q-10.5 10 -10.5 24t10.5 24.5t24.5 10.5t24 -10.5t10 -24.5t-10 -24t-24 -10t-24.5 10z
M207 -166q-10 10 -10 24t10 24.5t25 10.5q14 0 24.5 -10.5t10.5 -24.5t-10.5 -24t-24.5 -10q-15 0 -25 10zM163 423l64 109l30 -13l-78 -139h-33l-77 139l30 13z" />
    <glyph glyph-name="uni06CE.fina" unicode="&#x6ce;" horiz-adv-x="722" 
d="M722 0q-28 0 -50.5 5t-46.5 16q11 -19 11 -40q0 -48 -37.5 -89.5t-113 -67.5t-183.5 -26q-128 0 -188.5 61t-60.5 167q0 93 42 184l40 -13q-30 -78 -30 -164q0 -83 48 -130.5t155 -47.5q89 0 152 20t95 50.5t32 60.5q0 19 -14.5 33.5t-52 30.5t-111.5 39l24 50
q56 -19 106 -37q66 -25 104 -35t84 -10l15 -28zM142 337l64 109l30 -13l-78 -139h-33l-77 139l30 13z" />
    <glyph glyph-name="uni06CF.fina" unicode="&#x6cf;" horiz-adv-x="527" 
d="M527 0h-108q-23 -102 -106.5 -165.5t-242.5 -92.5l-17 56q141 26 216 75.5t99 126.5h-84q-102 0 -157 48.5t-55 126.5q0 50 23 93t63.5 69t88.5 26q53 0 94 -31.5t64.5 -91t23.5 -142.5q0 -15 -2 -41h105l15 -28zM291 57h88q1 11 1 34q0 106 -35.5 160.5t-98.5 54.5
q-54 0 -90 -37.5t-36 -90.5q0 -121 171 -121zM222.5 441.5q-10.5 10.5 -10.5 26.5q0 15 10.5 26t26.5 11t26.5 -11t10.5 -26q0 -16 -10.5 -26.5t-26.5 -10.5t-26.5 10.5z" />
    <glyph glyph-name="uni06D1.init" unicode="&#x6d1;" horiz-adv-x="269" 
d="M99 68q32 11 43.5 35t11.5 68q0 83 -43 206l54 18q20 -58 30.5 -118t10.5 -109q0 -64 -18 -100t-62 -52t-126 -16l-20 29l25 28q62 0 94 11zM128.5 -132q3.5 -4 3.5 -9t-3.5 -8.5t-8.5 -3.5t-9 3.5t-4 8.5t4 9t9 4t8.5 -4zM169.5 -183.5q3.5 -3.5 3.5 -8.5t-3.5 -8.5
t-8.5 -3.5q-4 0 -8 3.5t-4 8.5t3.5 8.5t8.5 3.5t8.5 -3.5zM97 -187q4 -4 4 -9t-4 -8.5t-9 -3.5q-4 0 -8 3.5t-4 8.5t3.5 9t8.5 4t9 -4z" />
    <glyph glyph-name="uni06D1.medi" unicode="&#x6d1;" horiz-adv-x="327" 
d="M347 29l-20 -29q-62 0 -102 20.5t-60 64.5q-19 -45 -58.5 -65t-106.5 -20l-20 29l26 28q54 0 82 13.5t38 38.5t10 67v145h54v-145q0 -62 31.5 -90.5t110.5 -28.5zM168.5 -132q3.5 -4 3.5 -9t-3.5 -8.5t-8.5 -3.5t-9 3.5t-4 8.5t4 9t9 4t8.5 -4zM209.5 -183.5
q3.5 -3.5 3.5 -8.5t-3.5 -8.5t-8.5 -3.5q-4 0 -8 3.5t-4 8.5t3.5 8.5t8.5 3.5t8.5 -3.5zM137 -187q4 -4 4 -9t-4 -8.5t-9 -3.5q-4 0 -8 3.5t-4 8.5t3.5 9t8.5 4t9 -4z" />
    <glyph glyph-name="uni06D1.fina" unicode="&#x6d1;" horiz-adv-x="722" 
d="M722 0q-28 0 -50.5 5t-46.5 16q11 -19 11 -40q0 -48 -37.5 -89.5t-113 -67.5t-183.5 -26q-128 0 -188.5 61t-60.5 167q0 93 42 184l40 -13q-30 -78 -30 -164q0 -83 48 -130.5t155 -47.5q89 0 152 20t95 50.5t32 60.5q0 19 -14.5 33.5t-52 30.5t-111.5 39l24 50
q56 -19 106 -37q66 -25 104 -35t84 -10l15 -28zM313.5 -322q3.5 -4 3.5 -9t-3.5 -8.5t-8.5 -3.5t-9 3.5t-4 8.5t4 9t9 4t8.5 -4zM354.5 -373.5q3.5 -3.5 3.5 -8.5t-3.5 -8.5t-8.5 -3.5q-4 0 -8 3.5t-4 8.5t3.5 8.5t8.5 3.5t8.5 -3.5zM282 -377q4 -4 4 -9t-4 -8.5t-9 -3.5
q-4 0 -8 3.5t-4 8.5t3.5 9t8.5 4t9 -4z" />
    <glyph glyph-name="uni06D5.fina" unicode="&#x6d5;" horiz-adv-x="498" 
d="M518 28l-20 -28h-15q-113 0 -139 111q-26 -34 -68.5 -54t-89.5 -20q-73 0 -116 39t-43 101q0 55 36 101t106 75t168 34v107l53 7v-319q0 -68 24.5 -96.5t73.5 -28.5h15zM276 109.5q37 18.5 61 49.5v176q-129 -5 -194 -47.5t-65 -105.5q0 -41 29 -66t87 -25q45 0 82 18.5z
" />
    <glyph glyph-name="uni06EE.fina" unicode="&#x6ee;" horiz-adv-x="518" 
d="M538 29l-20 -29q-48 0 -81.5 21.5t-51.5 59.5q-30 -47 -82.5 -70.5t-121.5 -23.5q-75 0 -154 25l17 56q73 -22 141 -22q57 0 103 19t78 54l-150 355l57 27l131 -340q23 -59 47 -81.5t71 -22.5zM95 587l77 140h33l78 -140l-30 -13l-64 109l-64 -109z" />
    <glyph glyph-name="uni06FA.init" unicode="&#x6fa;" horiz-adv-x="813" 
d="M740 281q10 -57 10 -106q0 -88 -41 -131.5t-115 -43.5q-49 0 -85 20.5t-53 57.5q-17 -37 -51.5 -57.5t-84.5 -20.5t-86 20t-51 56q-21 -39 -65.5 -57.5t-117.5 -18.5l-20 29l25 28q77 0 114.5 26t37.5 82v156h51v-142q0 -67 28.5 -94.5t84.5 -27.5q52 0 79.5 30.5
t27.5 90.5v143h52v-142q0 -122 118 -122q51 0 75 27.5t24 85.5q0 94 -39 207l51 17q21 -56 31 -113zM430 513q-10 10 -10 24t10 24t24 10t24 -10t10 -24t-10 -24t-24 -10t-24 10zM357 407q-10 10 -10 24t10 23.5t25 9.5q14 0 24 -10t10 -23q0 -14 -10 -24t-24 -10
q-15 0 -25 10zM502 407q-10 10 -10 24q0 13 10 23t24 10q15 0 25 -9.5t10 -23.5t-10 -24t-25 -10q-14 0 -24 10zM435.5 -170.5q-10.5 10.5 -10.5 26.5q0 15 10.5 26t26.5 11t26.5 -11t10.5 -26q0 -16 -10.5 -26.5t-26.5 -10.5t-26.5 10.5z" />
    <glyph glyph-name="uni06FA.medi" unicode="&#x6fa;" horiz-adv-x="926" 
d="M946 29l-20 -29q-145 0 -178 76q-38 -76 -143 -76q-49 0 -85.5 20.5t-53.5 56.5q-18 -36 -52.5 -56.5t-84.5 -20.5t-86.5 20t-52.5 56q-22 -39 -68.5 -57.5t-121.5 -18.5l-20 29l26 28q78 0 117.5 26.5t39.5 81.5v156h52v-142q0 -66 29.5 -94t85.5 -28q53 0 80.5 30.5
t27.5 90.5v143h52v-142q0 -122 118 -122q106 0 106 109v200h53v-184q0 -48 15.5 -75t51 -38.5t97.5 -11.5zM440 513q-10 10 -10 24t10 24t24 10t24 -10t10 -24t-10 -24t-24 -10t-24 10zM367 407q-10 10 -10 24t10 23.5t25 9.5q14 0 24 -10t10 -23q0 -14 -10 -24t-24 -10
q-15 0 -25 10zM512 407q-10 10 -10 24q0 13 10 23t24 10q15 0 25 -9.5t10 -23.5t-10 -24t-25 -10q-14 0 -24 10zM437.5 -170.5q-10.5 10.5 -10.5 26.5q0 15 10.5 26t26.5 11t26.5 -11t10.5 -26q0 -16 -10.5 -26.5t-26.5 -10.5t-26.5 10.5z" />
    <glyph glyph-name="uni06FA.fina" unicode="&#x6fa;" horiz-adv-x="1310" 
d="M1330 29l-20 -29q-146 0 -178 77q-19 -38 -56 -57.5t-88 -19.5q-47 0 -83 20t-53 57q-37 -77 -137 -77h-1v0q-74 0 -112 44q-4 -156 -76 -223t-224 -67q-128 0 -188.5 61t-60.5 167q0 91 42 184l40 -13q-30 -78 -30 -164q0 -83 48 -130.5t155 -47.5q89 0 142 25t77 77.5
t24 138.5q0 51 -14 102t-45 126l58 24q5 -19 15 -51q16 -54 25 -87q17 -60 46.5 -84.5t83.5 -24.5q50 0 76.5 30.5t26.5 90.5v143h53v-142q0 -122 115 -122q52 0 79.5 27t27.5 82v195h53v-179q0 -48 15.5 -75t51 -38.5t97.5 -11.5zM825 513q-10 10 -10 24t10 24t24 10
t24 -10t10 -24t-10 -24t-24 -10t-24 10zM752 407q-10 10 -10 24t10 23.5t25 9.5q14 0 24 -10t10 -23q0 -14 -10 -24t-24 -10q-15 0 -25 10zM897 407q-10 10 -10 24q0 13 10 23t24 10q15 0 25 -9.5t10 -23.5t-10 -24t-25 -10q-14 0 -24 10zM824.5 -170.5
q-10.5 10.5 -10.5 26.5q0 15 10.5 26t26.5 11t26.5 -11t10.5 -26q0 -16 -10.5 -26.5t-26.5 -10.5t-26.5 10.5z" />
    <glyph glyph-name="uni06FB.init" unicode="&#x6fb;" horiz-adv-x="923" 
d="M596.5 501q-10.5 11 -10.5 26q0 16 10.5 26.5t26.5 10.5t26.5 -10.5t10.5 -26.5q0 -15 -10.5 -26t-26.5 -11t-26.5 11zM806 377.5q54 -59.5 54 -166.5q0 -88 -39 -133t-125.5 -61.5t-248.5 -16.5h-132q-59 0 -97.5 20t-58.5 63q-19 -44 -57 -63.5t-102 -19.5l-20 29
l26 28q51 0 78 13t37 37.5t10 65.5v207h53v-207q0 -54 24.5 -82t82.5 -33q37 116 94.5 201.5t127.5 131.5t144 46q95 0 149 -59.5zM665.5 69.5q76.5 12.5 111 46t34.5 98.5q0 164 -150 164q-98 0 -177.5 -79.5t-143.5 -241.5h107q142 0 218.5 12.5zM517.5 -118
q10.5 -11 10.5 -26q0 -16 -10.5 -26.5t-26.5 -10.5t-26.5 10.5t-10.5 26.5q0 15 10.5 26t26.5 11t26.5 -11z" />
    <glyph glyph-name="uni06FB.medi" unicode="&#x6fb;" horiz-adv-x="957" 
d="M596.5 501q-10.5 11 -10.5 26q0 16 10.5 26.5t26.5 10.5t26.5 -10.5t10.5 -26.5q0 -15 -10.5 -26t-26.5 -11t-26.5 11zM977 29l-20 -29q-43 0 -79 20t-60 54q-40 -42 -126.5 -58t-244.5 -16h-132q-59 0 -97.5 20t-58.5 63q-19 -44 -57 -63.5t-102 -19.5l-20 29l26 28
q51 0 78 13t37 37.5t10 65.5v207h53v-207q0 -54 24.5 -82t82.5 -33q37 116 94.5 201.5t127.5 131.5t144 46q95 0 149 -59.5t54 -166.5q0 -58 -16 -96q23 -31 51 -44.5t67 -13.5zM665.5 69.5q76.5 12.5 111 46t34.5 98.5q0 164 -150 164q-98 0 -177.5 -79.5t-143.5 -241.5
h107q142 0 218.5 12.5zM517.5 -118q10.5 -11 10.5 -26q0 -16 -10.5 -26.5t-26.5 -10.5t-26.5 10.5t-10.5 26.5q0 15 10.5 26t26.5 11t26.5 -11z" />
    <glyph glyph-name="uni06FB.fina" unicode="&#x6fb;" horiz-adv-x="1356" 
d="M995.5 501q-10.5 11 -10.5 26q0 16 10.5 26.5t26.5 10.5t26.5 -10.5t10.5 -26.5q0 -15 -10.5 -26t-26.5 -11t-26.5 11zM1376 29l-20 -29q-43 0 -79 20t-60 54q-40 -42 -126 -58t-244 -16h-132v2q-75 0 -113 44q-4 -156 -76 -223t-224 -67q-128 0 -188.5 61t-60.5 168
q0 92 42 183l40 -13q-30 -78 -30 -164q0 -83 48 -130.5t155 -47.5q89 0 142 25t77 77.5t24 138.5q0 51 -14 102t-45 126l58 24l16 -55q5 -16 24 -82q15 -53 38.5 -78t63.5 -30q37 115 93.5 199.5t126.5 130.5t144 46q95 0 149 -59.5t54 -166.5q0 -58 -16 -96
q22 -31 51 -44.5t67 -13.5zM1065 69.5q77 12.5 111.5 46t34.5 98.5q0 164 -151 164q-196 0 -320 -321h107q141 0 218 12.5zM916.5 -118q10.5 -11 10.5 -26q0 -16 -10.5 -26.5t-26.5 -10.5t-26.5 10.5t-10.5 26.5q0 15 10.5 26t26.5 11t26.5 -11z" />
    <glyph glyph-name="uni06FC.init" unicode="&#x6fc;" horiz-adv-x="548" 
d="M527 52q-131 -31 -219.5 -41.5t-205.5 -10.5h-102l-20 29l25 28h85q78 0 110 2q-63 37 -94.5 87.5t-31.5 104.5q0 47 23.5 88t70.5 66.5t113 25.5q33 0 72 -9t74 -28l-25 -54q-30 16 -62.5 24.5t-58.5 8.5q-76 0 -115 -36.5t-39 -89.5q0 -107 149 -183q52 5 107.5 15.5
t137.5 29.5zM253.5 505.5q-10.5 10.5 -10.5 26.5q0 15 10.5 26t26.5 11t26.5 -11t10.5 -26q0 -16 -10.5 -26.5t-26.5 -10.5t-26.5 10.5zM233.5 -170.5q-10.5 10.5 -10.5 26.5q0 15 10.5 26t26.5 11t26.5 -11t10.5 -26q0 -16 -10.5 -26.5t-26.5 -10.5t-26.5 10.5z" />
    <glyph glyph-name="uni06FC.medi" unicode="&#x6fc;" horiz-adv-x="562" 
d="M582 28l-20 -28h-27q-66 0 -120.5 20t-103.5 60q-69 -37 -146 -58.5t-136 -21.5h-29l-20 28l25 29h14q57 0 124 16t127 44q-8 7 -45 47q-42 45 -77.5 78.5t-88.5 70.5l7 57q107 44 216 44q102 0 152.5 -33.5t50.5 -93.5q0 -49 -33.5 -94t-90.5 -83q41 -30 80.5 -41.5
t104.5 -11.5h22zM173.5 282q26.5 -24 63.5 -61q53 -53 83 -78q54 31 85.5 66.5t31.5 72.5t-39 57t-116 20q-82 0 -166 -30q31 -23 57.5 -47zM254.5 499.5q-10.5 10.5 -10.5 26.5q0 15 10.5 26t26.5 11t26.5 -11t10.5 -26q0 -16 -10.5 -26.5t-26.5 -10.5t-26.5 10.5z
M281.5 -170.5q-10.5 10.5 -10.5 26.5q0 15 10.5 26t26.5 11t26.5 -11t10.5 -26q0 -16 -10.5 -26.5t-26.5 -10.5t-26.5 10.5z" />
    <glyph glyph-name="uni06FC.fina" unicode="&#x6fc;" horiz-adv-x="559" 
d="M546 -252l22 -50q-91 -52 -230 -52q-95 0 -160 31.5t-97.5 84.5t-32.5 118q0 176 188 259l-25 26q-40 41 -76 74.5t-89 73.5l7 57q109 44 225 44q104 0 151.5 -31.5t47.5 -91.5q0 -52 -35 -90.5t-110 -74.5q51 -41 91.5 -55t112.5 -14h28l15 -28l-20 -29h-34
q-70 0 -127 23.5t-121 77.5q-95 -42 -137.5 -92t-42.5 -121q0 -53 28 -94.5t83.5 -65.5t135.5 -24q116 0 202 44zM224 222q43 -41 65 -60q73 31 106.5 59t33.5 65t-36.5 55t-114.5 18q-46 0 -92.5 -9t-81.5 -21q51 -38 120 -107zM256.5 498.5q-10.5 10.5 -10.5 26.5
q0 15 10.5 26t26.5 11t26.5 -11t10.5 -26q0 -16 -10.5 -26.5t-26.5 -10.5t-26.5 10.5zM287.5 -128.5q-10.5 10.5 -10.5 26.5q0 15 10.5 26t26.5 11t26.5 -11t10.5 -26q0 -16 -10.5 -26.5t-26.5 -10.5t-26.5 10.5z" />
    <glyph glyph-name="uni06FF.init" unicode="&#x6ff;" horiz-adv-x="631" 
d="M390 371.5q90 -59.5 133.5 -111t43.5 -105.5q0 -45 -23.5 -84t-61.5 -61.5t-81 -22.5q-48 0 -95 13t-89 36q-81 -36 -194 -36h-23l-20 29l25 28h14q80 0 143 17q-46 39 -72 87.5t-26 101.5q0 62 34.5 108.5t89.5 58.5l-23 13q-10 5 -25 14t-37 20l29 50
q168 -96 258 -155.5zM138 170q31 -43 83 -74q56 27 85.5 69t29.5 94q0 56 -32.5 94t-81.5 38q-50 0 -82.5 -37t-32.5 -93q0 -48 31 -91zM485.5 72q35.5 28 35.5 72q0 38 -37 80.5t-116 96.5q10 -27 10 -59q0 -56 -26 -106.5t-77 -86.5q63 -25 126 -25q49 0 84.5 28zM266 553
l77 140h33l78 -140l-30 -13l-64 109l-64 -109z" />
    <glyph glyph-name="uni06FF.medi" unicode="&#x6ff;" horiz-adv-x="483" 
d="M484 0h-141q44 -22 66.5 -54t22.5 -80q0 -55 -35 -90.5t-95 -35.5q-59 0 -107 33t-76.5 92.5t-31.5 134.5h-87l-20 29l25 28h82q3 91 34.5 168t82.5 121.5t109 44.5q57 0 90.5 -36t33.5 -105q0 -53 -31 -108.5t-83 -84.5h167l14 -28zM224.5 298.5q-38.5 -35.5 -64 -99
t-29.5 -142.5h65q55 0 98.5 27t67.5 70t24 89q0 44 -21.5 67.5t-59.5 23.5q-42 0 -80.5 -35.5zM335.5 -33.5q-47.5 33.5 -116.5 33.5h-88q6 -94 50.5 -148.5t114.5 -54.5q43 0 65 22.5t22 56.5q0 57 -47.5 90.5zM217 465l77 140h33l78 -140l-30 -13l-64 109l-64 -109z" />
    <glyph glyph-name="uni06FF.fina" unicode="&#x6ff;" horiz-adv-x="569" 
d="M569 0h-141q44 -22 66.5 -54t22.5 -80q0 -55 -35.5 -90.5t-95.5 -35.5q-59 0 -107 33.5t-76.5 92.5t-31.5 134q-84 3 -138 30l26 50q45 -20 112 -23q3 91 35 168t83 121.5t109 44.5q57 0 90.5 -36t33.5 -105q0 -53 -31 -108.5t-83 -84.5h166l15 -28zM309.5 298.5
q-38.5 -35.5 -64 -99t-29.5 -142.5h65q55 0 98.5 27t67.5 70t24 89q0 44 -21.5 67.5t-59.5 23.5q-42 0 -80.5 -35.5zM420.5 -33.5q-47.5 33.5 -117.5 33.5h-87q6 -94 50.5 -148.5t114.5 -54.5q42 0 64.5 22.5t22.5 56.5q0 57 -47.5 90.5zM304 465l77 140h33l78 -140l-30 -13
l-64 109l-64 -109z" />
    <glyph glyph-name="uniFB51" unicode="&#x671;" horiz-adv-x="229" arabic-form="final" 
d="M79 685l53 6v-518q0 -64 23.5 -90t79.5 -26l14 -28l-20 -29q-150 0 -150 169v516zM216.5 906.5q19.5 -18.5 19.5 -48.5q0 -40 -30 -59t-79 -19q-35 0 -85 16l-18 -41l-31 11l24 72q28 -9 34 -11q24 50 53.5 74t61.5 24q31 0 50.5 -18.5zM183 824.5q18 9.5 18 30.5
q0 33 -38 33q-23 0 -44.5 -18t-38.5 -49q28 -6 54 -6q31 0 49 9.5z" />
    <glyph glyph-name="uniFB53" unicode="&#x67b;" horiz-adv-x="917" arabic-form="final" 
d="M937 30l-20 -30q-67 0 -105 22.5t-62 59.5q-76 -47 -176 -71t-242 -24q-147 0 -213 46t-66 143q0 77 36 153l41 -14q-26 -66 -26 -132q0 -73 54 -106t179 -33q128 0 229.5 24t162.5 64v189h52v-147q0 -56 30 -86.5t111 -30.5zM339.5 -151q-10.5 10 -10.5 24q0 15 10.5 25
t24.5 10t24 -10t10 -25q0 -14 -10 -24t-24 -10t-24.5 10zM339.5 -286q-10.5 10 -10.5 25q0 14 10.5 24t24.5 10t24 -10t10 -24q0 -15 -10 -25t-24 -10t-24.5 10z" />
    <glyph glyph-name="uniFB54" unicode="&#x67b;" horiz-adv-x="269" arabic-form="initial" 
d="M99 68q32 11 43.5 35t11.5 68q0 83 -43 206l54 18q20 -58 30.5 -118t10.5 -109q0 -64 -18 -100t-62 -52t-126 -16l-20 29l25 28q62 0 94 11zM99.5 -151q-10.5 10 -10.5 24q0 15 10.5 25t24.5 10t24 -10t10 -25q0 -14 -10 -24t-24 -10t-24.5 10zM99.5 -286
q-10.5 10 -10.5 25q0 14 10.5 24t24.5 10t24 -10t10 -24q0 -15 -10 -25t-24 -10t-24.5 10z" />
    <glyph glyph-name="uniFB55" unicode="&#x67b;" horiz-adv-x="327" arabic-form="medial" 
d="M347 29l-20 -29q-62 0 -102 20.5t-60 64.5q-19 -45 -58.5 -65t-106.5 -20l-20 29l26 28q54 0 82 13.5t38 38.5t10 67v145h54v-145q0 -62 31.5 -90.5t110.5 -28.5zM139.5 -151q-10.5 10 -10.5 24q0 15 10.5 25t24.5 10t24 -10t10 -25q0 -14 -10 -24t-24 -10t-24.5 10z
M139.5 -286q-10.5 10 -10.5 25q0 14 10.5 24t24.5 10t24 -10t10 -24q0 -15 -10 -25t-24 -10t-24.5 10z" />
    <glyph glyph-name="uniFB57" unicode="&#x67e;" horiz-adv-x="917" arabic-form="final" 
d="M937 30l-20 -30q-67 0 -105 22.5t-62 59.5q-76 -47 -176 -71t-242 -24q-147 0 -213 46t-66 143q0 77 36 153l41 -14q-26 -66 -26 -132q0 -73 54 -106t179 -33q128 0 229.5 24t162.5 64v189h52v-147q0 -56 30 -86.5t111 -30.5zM368.5 -132q3.5 -4 3.5 -9t-3.5 -8.5
t-8.5 -3.5t-9 3.5t-4 8.5t4 9t9 4t8.5 -4zM409.5 -183.5q3.5 -3.5 3.5 -8.5t-3.5 -8.5t-8.5 -3.5q-4 0 -8 3.5t-4 8.5t3.5 8.5t8.5 3.5t8.5 -3.5zM337 -187q4 -4 4 -9t-4 -8.5t-9 -3.5q-4 0 -8 3.5t-4 8.5t3.5 9t8.5 4t9 -4z" />
    <glyph glyph-name="uniFB58" unicode="&#x67e;" horiz-adv-x="269" arabic-form="initial" 
d="M99 68q32 11 43.5 35t11.5 68q0 83 -43 206l54 18q20 -58 30.5 -118t10.5 -109q0 -64 -18 -100t-62 -52t-126 -16l-20 29l25 28q62 0 94 11zM128.5 -132q3.5 -4 3.5 -9t-3.5 -8.5t-8.5 -3.5t-9 3.5t-4 8.5t4 9t9 4t8.5 -4zM169.5 -183.5q3.5 -3.5 3.5 -8.5t-3.5 -8.5
t-8.5 -3.5q-4 0 -8 3.5t-4 8.5t3.5 8.5t8.5 3.5t8.5 -3.5zM97 -187q4 -4 4 -9t-4 -8.5t-9 -3.5q-4 0 -8 3.5t-4 8.5t3.5 9t8.5 4t9 -4z" />
    <glyph glyph-name="uniFB59" unicode="&#x67e;" horiz-adv-x="327" arabic-form="medial" 
d="M347 29l-20 -29q-62 0 -102 20.5t-60 64.5q-19 -45 -58.5 -65t-106.5 -20l-20 29l26 28q54 0 82 13.5t38 38.5t10 67v145h54v-145q0 -62 31.5 -90.5t110.5 -28.5zM168.5 -132q3.5 -4 3.5 -9t-3.5 -8.5t-8.5 -3.5t-9 3.5t-4 8.5t4 9t9 4t8.5 -4zM209.5 -183.5
q3.5 -3.5 3.5 -8.5t-3.5 -8.5t-8.5 -3.5q-4 0 -8 3.5t-4 8.5t3.5 8.5t8.5 3.5t8.5 -3.5zM137 -187q4 -4 4 -9t-4 -8.5t-9 -3.5q-4 0 -8 3.5t-4 8.5t3.5 9t8.5 4t9 -4z" />
    <glyph glyph-name="uniFB5B" unicode="&#x680;" horiz-adv-x="917" arabic-form="final" 
d="M937 30l-20 -30q-67 0 -105 22.5t-62 59.5q-76 -47 -176 -71t-242 -24q-147 0 -213 46t-66 143q0 77 36 153l41 -14q-26 -66 -26 -132q0 -73 54 -106t179 -33q128 0 229.5 24t162.5 64v189h52v-147q0 -56 30 -86.5t111 -30.5zM270 -139.5q-10 9.5 -10 23.5q0 15 10 25
t24 10t24 -10t10 -25q0 -14 -10 -23.5t-24 -9.5t-24 9.5zM407 -139.5q-10 9.5 -10 23.5q0 15 10 25t24 10t24 -10t10 -25q0 -14 -10 -23.5t-24 -9.5t-24 9.5zM270 -267q-10 10 -10 24t10 24t24 10t24 -10t10 -24t-10 -24t-24 -10t-24 10zM407 -267q-10 10 -10 24t10 24
t24 10t24 -10t10 -24t-10 -24t-24 -10t-24 10z" />
    <glyph glyph-name="uniFB5C" unicode="&#x680;" horiz-adv-x="269" arabic-form="initial" 
d="M99 68q32 11 43.5 35t11.5 68q0 83 -43 206l54 18q20 -58 30.5 -118t10.5 -109q0 -64 -18 -100t-62 -52t-126 -16l-20 29l25 28q62 0 94 11zM30 -139.5q-10 9.5 -10 23.5q0 15 10 25t24 10t24 -10t10 -25q0 -14 -10 -23.5t-24 -9.5t-24 9.5zM167 -139.5q-10 9.5 -10 23.5
q0 15 10 25t24 10t24 -10t10 -25q0 -14 -10 -23.5t-24 -9.5t-24 9.5zM30 -267q-10 10 -10 24t10 24t24 10t24 -10t10 -24t-10 -24t-24 -10t-24 10zM167 -267q-10 10 -10 24t10 24t24 10t24 -10t10 -24t-10 -24t-24 -10t-24 10z" />
    <glyph glyph-name="uniFB5D" unicode="&#x680;" horiz-adv-x="327" arabic-form="medial" 
d="M347 29l-20 -29q-62 0 -102 20.5t-60 64.5q-19 -45 -58.5 -65t-106.5 -20l-20 29l26 28q54 0 82 13.5t38 38.5t10 67v145h54v-145q0 -62 31.5 -90.5t110.5 -28.5zM70 -139.5q-10 9.5 -10 23.5q0 15 10 25t24 10t24 -10t10 -25q0 -14 -10 -23.5t-24 -9.5t-24 9.5z
M207 -139.5q-10 9.5 -10 23.5q0 15 10 25t24 10t24 -10t10 -25q0 -14 -10 -23.5t-24 -9.5t-24 9.5zM70 -267q-10 10 -10 24t10 24t24 10t24 -10t10 -24t-10 -24t-24 -10t-24 10zM207 -267q-10 10 -10 24t10 24t24 10t24 -10t10 -24t-10 -24t-24 -10t-24 10z" />
    <glyph glyph-name="uniFB5F" unicode="&#x67a;" horiz-adv-x="917" arabic-form="final" 
d="M937 30l-20 -30q-67 0 -105 22.5t-62 59.5q-76 -47 -176 -71t-242 -24q-147 0 -213 46t-66 143q0 77 36 153l41 -14q-26 -66 -26 -132q0 -73 54 -106t179 -33q128 0 229.5 24t162.5 64v189h52v-147q0 -56 30 -86.5t111 -30.5zM402.5 510q-10.5 10 -10.5 25
q0 14 10.5 24.5t24.5 10.5t24 -10.5t10 -24.5q0 -15 -10 -25t-24 -10t-24.5 10zM402.5 375q-10.5 10 -10.5 25q0 14 10.5 24t24.5 10t24 -10t10 -24q0 -15 -10 -25t-24 -10t-24.5 10z" />
    <glyph glyph-name="uniFB60" unicode="&#x67a;" horiz-adv-x="269" arabic-form="initial" 
d="M99 68q32 11 43.5 35t11.5 68q0 83 -43 206l54 18q20 -58 30.5 -118t10.5 -109q0 -64 -18 -100t-62 -52t-126 -16l-20 29l25 28q62 0 94 11zM96.5 606q-10.5 10 -10.5 25q0 14 10.5 24.5t24.5 10.5t24 -10.5t10 -24.5q0 -15 -10 -25t-24 -10t-24.5 10zM96.5 471
q-10.5 10 -10.5 25q0 14 10.5 24t24.5 10t24 -10t10 -24q0 -15 -10 -25t-24 -10t-24.5 10z" />
    <glyph glyph-name="uniFB61" unicode="&#x67a;" horiz-adv-x="327" arabic-form="medial" 
d="M347 29l-20 -29q-62 0 -102 20.5t-60 64.5q-19 -45 -58.5 -65t-106.5 -20l-20 29l26 28q54 0 82 13.5t38 38.5t10 67v145h54v-145q0 -62 31.5 -90.5t110.5 -28.5zM139.5 536q-10.5 10 -10.5 25q0 14 10.5 24.5t24.5 10.5t24 -10.5t10 -24.5q0 -15 -10 -25t-24 -10
t-24.5 10zM139.5 401q-10.5 10 -10.5 25q0 14 10.5 24t24.5 10t24 -10t10 -24q0 -15 -10 -25t-24 -10t-24.5 10z" />
    <glyph glyph-name="uniFB63" unicode="&#x67f;" horiz-adv-x="917" arabic-form="final" 
d="M937 30l-20 -30q-67 0 -105 22.5t-62 59.5q-76 -47 -176 -71t-242 -24q-147 0 -213 46t-66 143q0 77 36 153l41 -14q-26 -66 -26 -132q0 -73 54 -106t179 -33q128 0 229.5 24t162.5 64v189h52v-147q0 -56 30 -86.5t111 -30.5zM334 494.5q-10 9.5 -10 22.5q0 15 10 25.5
t24 10.5t24 -10.5t10 -25.5q0 -13 -10 -22.5t-24 -9.5t-24 9.5zM471 494.5q-10 9.5 -10 22.5q0 15 10 25.5t24 10.5t24 -10.5t10 -25.5q0 -13 -10 -22.5t-24 -9.5t-24 9.5zM334 366q-10 10 -10 24t10 24t24 10t24 -10t10 -24t-10 -24t-24 -10t-24 10zM471 366q-10 10 -10 24
t10 24t24 10t24 -10t10 -24t-10 -24t-24 -10t-24 10z" />
    <glyph glyph-name="uniFB64" unicode="&#x67f;" horiz-adv-x="269" arabic-form="initial" 
d="M99 68q32 11 43.5 35t11.5 68q0 83 -43 206l54 18q20 -58 30.5 -118t10.5 -109q0 -64 -18 -100t-62 -52t-126 -16l-20 29l25 28q62 0 94 11zM28 590.5q-10 9.5 -10 22.5q0 15 10 25.5t24 10.5t24 -10.5t10 -25.5q0 -13 -10 -22.5t-24 -9.5t-24 9.5zM165 590.5
q-10 9.5 -10 22.5q0 15 10 25.5t24 10.5t24 -10.5t10 -25.5q0 -13 -10 -22.5t-24 -9.5t-24 9.5zM28 462q-10 10 -10 24t10 24t24 10t24 -10t10 -24t-10 -24t-24 -10t-24 10zM165 462q-10 10 -10 24t10 24t24 10t24 -10t10 -24t-10 -24t-24 -10t-24 10z" />
    <glyph glyph-name="uniFB65" unicode="&#x67f;" horiz-adv-x="327" arabic-form="medial" 
d="M347 29l-20 -29q-62 0 -102 20.5t-60 64.5q-19 -45 -58.5 -65t-106.5 -20l-20 29l26 28q54 0 82 13.5t38 38.5t10 67v145h54v-145q0 -62 31.5 -90.5t110.5 -28.5zM71 520.5q-10 9.5 -10 22.5q0 15 10 25.5t24 10.5t24 -10.5t10 -25.5q0 -13 -10 -22.5t-24 -9.5t-24 9.5z
M208 520.5q-10 9.5 -10 22.5q0 15 10 25.5t24 10.5t24 -10.5t10 -25.5q0 -13 -10 -22.5t-24 -9.5t-24 9.5zM71 392q-10 10 -10 24t10 24t24 10t24 -10t10 -24t-10 -24t-24 -10t-24 10zM208 392q-10 10 -10 24t10 24t24 10t24 -10t10 -24t-10 -24t-24 -10t-24 10z" />
    <glyph glyph-name="uniFB67" unicode="&#x679;" horiz-adv-x="917" arabic-form="final" 
d="M937 30l-20 -30q-67 0 -105 22.5t-62 59.5q-76 -47 -176 -71t-242 -24q-147 0 -213 46t-66 143q0 77 36 153l41 -14q-26 -66 -26 -132q0 -73 54 -106t179 -33q128 0 229.5 24t162.5 64v189h52v-147q0 -56 30 -86.5t111 -30.5zM525 507.5q21 -22.5 21 -57.5
q0 -31 -23.5 -55.5t-70.5 -24.5h-147l3 34h23l15 25v145h33v-98q45 54 92 54q33 0 54 -22.5zM513 451q0 44 -45 44q-52 0 -106 -91h83q68 0 68 47z" />
    <glyph glyph-name="uniFB68" unicode="&#x679;" horiz-adv-x="269" arabic-form="initial" 
d="M99 68q32 11 43.5 35t11.5 68q0 83 -43 206l54 18q20 -58 30.5 -118t10.5 -109q0 -64 -18 -100t-62 -52t-126 -16l-20 29l25 28q62 0 94 11zM219 603.5q21 -22.5 21 -57.5q0 -31 -23.5 -55.5t-70.5 -24.5h-147l3 34h23l15 25v145h33v-98q45 54 92 54q33 0 54 -22.5z
M207 547q0 44 -45 44q-52 0 -106 -91h83q68 0 68 47z" />
    <glyph glyph-name="uniFB69" unicode="&#x679;" horiz-adv-x="327" arabic-form="medial" 
d="M347 29l-20 -29q-62 0 -102 20.5t-60 64.5q-19 -45 -58.5 -65t-106.5 -20l-20 29l26 28q54 0 82 13.5t38 38.5t10 67v145h54v-145q0 -62 31.5 -90.5t110.5 -28.5zM262 533.5q21 -22.5 21 -57.5q0 -31 -23.5 -55.5t-70.5 -24.5h-147l3 34h23l15 25v145h33v-98q45 54 92 54
q33 0 54 -22.5zM250 477q0 44 -45 44q-52 0 -106 -91h83q68 0 68 47z" />
    <glyph glyph-name="uniFB6B" unicode="&#x6a4;" horiz-adv-x="959" arabic-form="final" 
d="M979 29l-20 -29h-37q-53 0 -107 12.5t-102 35.5q-142 -61 -381 -61q-147 0 -213 46t-66 143q0 77 36 153l41 -14q-26 -66 -26 -132q0 -73 54 -106t179 -33q194 0 319 37q-52 37 -82.5 85t-30.5 102q0 51 22.5 96t61.5 71.5t85 26.5q53 0 93 -26.5t62 -71.5t22 -97
q0 -51 -28.5 -100.5t-89.5 -87.5q74 -22 151 -22h41zM624.5 172q32.5 -42 88.5 -69q64 29 95.5 71t31.5 93q0 60 -34.5 99t-90.5 39q-54 0 -88.5 -39t-34.5 -98q0 -54 32.5 -96zM688 642q-10 10 -10 24t10 24t24 10t24 -10t10 -24t-10 -24t-24 -10t-24 10zM615 536
q-10 10 -10 24t10 23.5t25 9.5q14 0 24 -10t10 -23q0 -14 -10 -24t-24 -10q-15 0 -25 10zM760 536q-10 10 -10 24q0 13 10 23t24 10q15 0 25 -9.5t10 -23.5t-10 -24t-25 -10q-14 0 -24 10z" />
    <glyph glyph-name="uniFB6C" unicode="&#x6a4;" horiz-adv-x="459" arabic-form="initial" 
d="M308 514.5q41 -31.5 64.5 -92.5t23.5 -146q0 -103 -34.5 -162t-119.5 -86.5t-242 -27.5l-20 30l25 27q133 0 205.5 18t101.5 53t34 94q-20 -19 -52.5 -28.5t-71.5 -9.5q-83 0 -133.5 48t-50.5 125q0 50 23 93.5t63.5 69.5t89.5 26q53 0 94 -31.5zM296 241q30 7 52 19v7
q0 111 -36 166.5t-99 55.5q-55 0 -90.5 -37.5t-35.5 -90.5q0 -59 39 -93t113 -34q27 0 57 7zM189 727q-10 10 -10 24t10 24t24 10t24 -10t10 -24t-10 -24t-24 -10t-24 10zM116 621q-10 10 -10 24t10 23.5t25 9.5q14 0 24 -10t10 -23q0 -14 -10 -24t-24 -10q-15 0 -25 10z
M261 621q-10 10 -10 24q0 13 10 23t24 10q15 0 25 -9.5t10 -23.5t-10 -24t-25 -10q-14 0 -24 10z" />
    <glyph glyph-name="uniFB6D" unicode="&#x6a4;" horiz-adv-x="494" arabic-form="medial" 
d="M514 29l-20 -29h-37q-52 0 -104.5 12t-98.5 34q-100 -46 -223 -46h-31l-20 29l25 28h32q90 0 159 21q-54 37 -85.5 85.5t-31.5 104.5q0 51 22.5 96t61.5 71.5t85 26.5q53 0 93 -26.5t62 -71.5t22 -97q0 -50 -30 -100.5t-85 -88.5q69 -21 147 -21h42zM161.5 171
q33.5 -42 91.5 -71q59 28 91 71t32 96q0 60 -34.5 99t-91.5 39q-53 0 -87.5 -39t-34.5 -98q0 -55 33.5 -97zM224 641q-10 10 -10 24t10 24t24 10t24 -10t10 -24t-10 -24t-24 -10t-24 10zM151 535q-10 10 -10 24t10 23.5t25 9.5q14 0 24 -10t10 -23q0 -14 -10 -24t-24 -10
q-15 0 -25 10zM296 535q-10 10 -10 24q0 13 10 23t24 10q15 0 25 -9.5t10 -23.5t-10 -24t-25 -10q-14 0 -24 10z" />
    <glyph glyph-name="uniFB6F" unicode="&#x6a6;" horiz-adv-x="959" arabic-form="final" 
d="M979 29l-20 -29h-37q-53 0 -107 12.5t-102 35.5q-142 -61 -381 -61q-147 0 -213 46t-66 143q0 77 36 153l41 -14q-26 -66 -26 -132q0 -73 54 -106t179 -33q194 0 319 37q-52 37 -82.5 85t-30.5 102q0 51 22.5 96t61.5 71.5t85 26.5q53 0 93 -26.5t62 -71.5t22 -97
q0 -51 -28.5 -100.5t-89.5 -87.5q74 -22 151 -22h41zM624.5 172q32.5 -42 88.5 -69q64 29 95.5 71t31.5 93q0 60 -34.5 99t-90.5 39q-54 0 -88.5 -39t-34.5 -98q0 -54 32.5 -96zM620 649.5q-10 9.5 -10 22.5q0 15 10 25.5t24 10.5t24 -10.5t10 -25.5q0 -13 -10 -22.5
t-24 -9.5t-24 9.5zM757 649.5q-10 9.5 -10 22.5q0 15 10 25.5t24 10.5t24 -10.5t10 -25.5q0 -13 -10 -22.5t-24 -9.5t-24 9.5zM620 521q-10 10 -10 24t10 24t24 10t24 -10t10 -24t-10 -24t-24 -10t-24 10zM757 521q-10 10 -10 24t10 24t24 10t24 -10t10 -24t-10 -24t-24 -10
t-24 10z" />
    <glyph glyph-name="uniFB70" unicode="&#x6a6;" horiz-adv-x="459" arabic-form="initial" 
d="M308 514.5q41 -31.5 64.5 -92.5t23.5 -146q0 -103 -34.5 -162t-119.5 -86.5t-242 -27.5l-20 30l25 27q133 0 205.5 18t101.5 53t34 94q-20 -19 -52.5 -28.5t-71.5 -9.5q-83 0 -133.5 48t-50.5 125q0 50 23 93.5t63.5 69.5t89.5 26q53 0 94 -31.5zM296 241q30 7 52 19v7
q0 111 -36 166.5t-99 55.5q-55 0 -90.5 -37.5t-35.5 -90.5q0 -59 39 -93t113 -34q27 0 57 7zM121 734.5q-10 9.5 -10 22.5q0 15 10 25.5t24 10.5t24 -10.5t10 -25.5q0 -13 -10 -22.5t-24 -9.5t-24 9.5zM258 734.5q-10 9.5 -10 22.5q0 15 10 25.5t24 10.5t24 -10.5t10 -25.5
q0 -13 -10 -22.5t-24 -9.5t-24 9.5zM121 606q-10 10 -10 24t10 24t24 10t24 -10t10 -24t-10 -24t-24 -10t-24 10zM258 606q-10 10 -10 24t10 24t24 10t24 -10t10 -24t-10 -24t-24 -10t-24 10z" />
    <glyph glyph-name="uniFB71" unicode="&#x6a6;" horiz-adv-x="494" arabic-form="medial" 
d="M514 29l-20 -29h-37q-52 0 -104.5 12t-98.5 34q-100 -46 -223 -46h-31l-20 29l25 28h32q90 0 159 21q-54 37 -85.5 85.5t-31.5 104.5q0 51 22.5 96t61.5 71.5t85 26.5q53 0 93 -26.5t62 -71.5t22 -97q0 -50 -30 -100.5t-85 -88.5q69 -21 147 -21h42zM161.5 171
q33.5 -42 91.5 -71q59 28 91 71t32 96q0 60 -34.5 99t-91.5 39q-53 0 -87.5 -39t-34.5 -98q0 -55 33.5 -97zM156 648.5q-10 9.5 -10 22.5q0 15 10 25.5t24 10.5t24 -10.5t10 -25.5q0 -13 -10 -22.5t-24 -9.5t-24 9.5zM293 648.5q-10 9.5 -10 22.5q0 15 10 25.5t24 10.5
t24 -10.5t10 -25.5q0 -13 -10 -22.5t-24 -9.5t-24 9.5zM156 520q-10 10 -10 24t10 24t24 10t24 -10t10 -24t-10 -24t-24 -10t-24 10zM293 520q-10 10 -10 24t10 24t24 10t24 -10t10 -24t-10 -24t-24 -10t-24 10z" />
    <glyph glyph-name="uniFB73" unicode="&#x684;" horiz-adv-x="681" arabic-form="final" 
d="M199.5 106q-87.5 -73 -87.5 -184q0 -100 71.5 -159t207.5 -59q62 0 118.5 12.5t96.5 33.5l22 -50q-42 -24 -105.5 -39t-137.5 -15q-107 0 -179 34.5t-107 95t-35 138.5q0 143 109.5 231.5t316.5 102.5q-36 15 -62 31.5t-63 43.5q-42 32 -71 46t-71 14q-37 0 -66 -9
t-59 -27l-27 50q72 43 156 43q54 0 92 -20t87 -62q49 -41 90 -65.5t101 -37.5l-6 -49l-59 -2q-11 0 -31 -2q11 -58 34 -89.5t59 -43.5t92 -12l15 -28l-20 -29q-99 0 -155 47.5t-68 150.5q-171 -19 -258.5 -92zM336.5 -31q-10.5 10 -10.5 24q0 15 10.5 25t24.5 10
q15 0 25 -10t10 -25q0 -14 -10 -24t-25 -10q-14 0 -24.5 10zM337.5 -166q-10.5 10 -10.5 25q0 14 10.5 24t24.5 10t24 -10t10 -24q0 -15 -10 -25t-24 -10t-24.5 10z" />
    <glyph glyph-name="uniFB74" unicode="&#x684;" horiz-adv-x="695" arabic-form="initial" 
d="M310 427.5q36 -12.5 61.5 -31t61.5 -51.5q53 -49 98.5 -79t119.5 -50l-9 -50l-65 -5q-83 -4 -149 -25t-154 -61q-85 -38 -144 -56.5t-130 -18.5l-20 29l25 29q65 0 118.5 16.5t134.5 51.5q81 36 145 56.5t145 26.5q-51 19 -85.5 42.5t-73.5 57.5q-31 26 -51.5 40.5
t-49 24t-66.5 9.5q-59 0 -118 -36l-27 50q72 43 147 43q50 0 86 -12.5zM274.5 -151q-10.5 10 -10.5 24q0 15 10.5 25t24.5 10t24 -10t10 -25q0 -14 -10 -24t-24 -10t-24.5 10zM274.5 -286q-10.5 10 -10.5 25q0 14 10.5 24t24.5 10t24 -10t10 -24q0 -15 -10 -25t-24 -10
t-24.5 10z" />
    <glyph glyph-name="uniFB75" unicode="&#x684;" horiz-adv-x="727" arabic-form="medial" 
d="M747 29l-20 -29q-205 0 -234 187q-45 -11 -85.5 -30t-110.5 -56q-63 -34 -104 -53.5t-90.5 -33.5t-102.5 -14l-20 29l25 28q68 0 126 21.5t142 65.5q82 42 138 64.5t124 31.5q-50 17 -85.5 36.5t-73.5 47.5q-45 31 -75.5 45t-78.5 14q-32 0 -60.5 -8.5t-59.5 -25.5
l-27 49q75 42 148 42q46 0 79 -9.5t57 -24.5t59 -42q52 -41 99.5 -67.5t124.5 -46.5l-7 -50l-65 -2q-17 0 -34 -3q16 -80 63 -109t134 -29zM360.5 -101q-10.5 10 -10.5 24q0 15 10.5 25t24.5 10t24 -10t10 -25q0 -14 -10 -24t-24 -10t-24.5 10zM360.5 -236
q-10.5 10 -10.5 25q0 14 10.5 24t24.5 10t24 -10t10 -24q0 -15 -10 -25t-24 -10t-24.5 10z" />
    <glyph glyph-name="uniFB77" unicode="&#x683;" horiz-adv-x="681" arabic-form="final" 
d="M199.5 106q-87.5 -73 -87.5 -184q0 -100 71.5 -159t207.5 -59q62 0 118.5 12.5t96.5 33.5l22 -50q-42 -24 -105.5 -39t-137.5 -15q-107 0 -179 34.5t-107 95t-35 138.5q0 143 109.5 231.5t316.5 102.5q-36 15 -62 31.5t-63 43.5q-42 32 -71 46t-71 14q-37 0 -66 -9
t-59 -27l-27 50q72 43 156 43q54 0 92 -20t87 -62q49 -41 90 -65.5t101 -37.5l-6 -49l-59 -2q-11 0 -31 -2q11 -58 34 -89.5t59 -43.5t92 -12l15 -28l-20 -29q-99 0 -155 47.5t-68 150.5q-171 -19 -258.5 -92zM266.5 -92q-10.5 10 -10.5 25q0 14 10.5 24.5t24.5 10.5
t24 -10.5t10 -24.5q0 -15 -10 -25t-24 -10t-24.5 10zM404 -92q-10 10 -10 25q0 14 10 24.5t25 10.5q14 0 24.5 -10.5t10.5 -24.5q0 -15 -10.5 -25t-24.5 -10q-15 0 -25 10z" />
    <glyph glyph-name="uniFB78" unicode="&#x683;" horiz-adv-x="695" arabic-form="initial" 
d="M310 427.5q36 -12.5 61.5 -31t61.5 -51.5q53 -49 98.5 -79t119.5 -50l-9 -50l-65 -5q-83 -4 -149 -25t-154 -61q-85 -38 -144 -56.5t-130 -18.5l-20 29l25 29q65 0 118.5 16.5t134.5 51.5q81 36 145 56.5t145 26.5q-51 19 -85.5 42.5t-73.5 57.5q-31 26 -51.5 40.5
t-49 24t-66.5 9.5q-59 0 -118 -36l-27 50q72 43 147 43q50 0 86 -12.5zM204.5 -166q-10.5 10 -10.5 24t10.5 24.5t24.5 10.5t24 -10.5t10 -24.5t-10 -24t-24 -10t-24.5 10zM342 -166q-10 10 -10 24t10 24.5t25 10.5q14 0 24.5 -10.5t10.5 -24.5t-10.5 -24t-24.5 -10
q-15 0 -25 10z" />
    <glyph glyph-name="uniFB79" unicode="&#x683;" horiz-adv-x="727" arabic-form="medial" 
d="M747 29l-20 -29q-205 0 -234 187q-45 -11 -85.5 -30t-110.5 -56q-63 -34 -104 -53.5t-90.5 -33.5t-102.5 -14l-20 29l25 28q68 0 126 21.5t142 65.5q82 42 138 64.5t124 31.5q-50 17 -85.5 36.5t-73.5 47.5q-45 31 -75.5 45t-78.5 14q-32 0 -60.5 -8.5t-59.5 -25.5
l-27 49q75 42 148 42q46 0 79 -9.5t57 -24.5t59 -42q52 -41 99.5 -67.5t124.5 -46.5l-7 -50l-65 -2q-17 0 -34 -3q16 -80 63 -109t134 -29zM290.5 -116q-10.5 10 -10.5 24t10.5 24.5t24.5 10.5t24 -10.5t10 -24.5t-10 -24t-24 -10t-24.5 10zM428 -116q-10 10 -10 24t10 24.5
t25 10.5q14 0 24.5 -10.5t10.5 -24.5t-10.5 -24t-24.5 -10q-15 0 -25 10z" />
    <glyph glyph-name="uniFB7B" unicode="&#x686;" horiz-adv-x="681" arabic-form="final" 
d="M199.5 106q-87.5 -73 -87.5 -184q0 -100 71.5 -159t207.5 -59q62 0 118.5 12.5t96.5 33.5l22 -50q-42 -24 -105.5 -39t-137.5 -15q-107 0 -179 34.5t-107 95t-35 138.5q0 143 109.5 231.5t316.5 102.5q-36 15 -62 31.5t-63 43.5q-42 32 -71 46t-71 14q-37 0 -66 -9
t-59 -27l-27 50q72 43 156 43q54 0 92 -20t87 -62q49 -41 90 -65.5t101 -37.5l-6 -49l-59 -2q-11 0 -31 -2q11 -58 34 -89.5t59 -43.5t92 -12l15 -28l-20 -29q-99 0 -155 47.5t-68 150.5q-171 -19 -258.5 -92zM365.5 -13q3.5 -4 3.5 -9t-3.5 -8.5t-8.5 -3.5t-9 3.5t-4 8.5
t4 9t9 4t8.5 -4zM406.5 -64.5q3.5 -3.5 3.5 -8.5t-3.5 -8.5t-8.5 -3.5t-8.5 3.5t-3.5 8.5t3.5 8.5t8.5 3.5t8.5 -3.5zM334 -68.5q4 -3.5 4 -8.5t-4 -8.5t-9 -3.5t-8.5 3.5t-3.5 8.5t3.5 8.5t8.5 3.5t9 -3.5z" />
    <glyph glyph-name="uniFB7C" unicode="&#x686;" horiz-adv-x="695" arabic-form="initial" 
d="M310 427.5q36 -12.5 61.5 -31t61.5 -51.5q53 -49 98.5 -79t119.5 -50l-9 -50l-65 -5q-83 -4 -149 -25t-154 -61q-85 -38 -144 -56.5t-130 -18.5l-20 29l25 29q65 0 118.5 16.5t134.5 51.5q81 36 145 56.5t145 26.5q-51 19 -85.5 42.5t-73.5 57.5q-31 26 -51.5 40.5
t-49 24t-66.5 9.5q-59 0 -118 -36l-27 50q72 43 147 43q50 0 86 -12.5zM303.5 -132q3.5 -4 3.5 -9t-3.5 -8.5t-8.5 -3.5t-9 3.5t-4 8.5t4 9t9 4t8.5 -4zM344.5 -183.5q3.5 -3.5 3.5 -8.5t-3.5 -8.5t-8.5 -3.5q-4 0 -8 3.5t-4 8.5t3.5 8.5t8.5 3.5t8.5 -3.5zM272 -187
q4 -4 4 -9t-4 -8.5t-9 -3.5q-4 0 -8 3.5t-4 8.5t3.5 9t8.5 4t9 -4z" />
    <glyph glyph-name="uniFB7D" unicode="&#x686;" horiz-adv-x="727" arabic-form="medial" 
d="M747 29l-20 -29q-205 0 -234 187q-45 -11 -85.5 -30t-110.5 -56q-63 -34 -104 -53.5t-90.5 -33.5t-102.5 -14l-20 29l25 28q68 0 126 21.5t142 65.5q82 42 138 64.5t124 31.5q-50 17 -85.5 36.5t-73.5 47.5q-45 31 -75.5 45t-78.5 14q-32 0 -60.5 -8.5t-59.5 -25.5
l-27 49q75 42 148 42q46 0 79 -9.5t57 -24.5t59 -42q52 -41 99.5 -67.5t124.5 -46.5l-7 -50l-65 -2q-17 0 -34 -3q16 -80 63 -109t134 -29zM389.5 -82q3.5 -4 3.5 -9t-3.5 -8.5t-8.5 -3.5t-9 3.5t-4 8.5t4 9t9 4t8.5 -4zM430.5 -133.5q3.5 -3.5 3.5 -8.5t-3.5 -8.5
t-8.5 -3.5q-4 0 -8 3.5t-4 8.5t3.5 8.5t8.5 3.5t8.5 -3.5zM358 -137q4 -4 4 -9t-4 -8.5t-9 -3.5q-4 0 -8 3.5t-4 8.5t3.5 9t8.5 4t9 -4z" />
    <glyph glyph-name="uniFB7F" unicode="&#x687;" horiz-adv-x="681" arabic-form="final" 
d="M199.5 106q-87.5 -73 -87.5 -184q0 -100 71.5 -159t207.5 -59q62 0 118.5 12.5t96.5 33.5l22 -50q-42 -24 -105.5 -39t-137.5 -15q-107 0 -179 34.5t-107 95t-35 138.5q0 143 109.5 231.5t316.5 102.5q-36 15 -62 31.5t-63 43.5q-42 32 -71 46t-71 14q-37 0 -66 -9
t-59 -27l-27 50q72 43 156 43q54 0 92 -20t87 -62q49 -41 90 -65.5t101 -37.5l-6 -49l-59 -2q-11 0 -31 -2q11 -58 34 -89.5t59 -43.5t92 -12l15 -28l-20 -29q-99 0 -155 47.5t-68 150.5q-171 -19 -258.5 -92zM268 -22.5q-10 9.5 -10 23.5q0 15 10 25t24 10t24 -10t10 -25
q0 -14 -10 -23.5t-24 -9.5t-24 9.5zM405 -22.5q-10 9.5 -10 23.5q0 15 10 25t24 10t24 -10t10 -25q0 -14 -10 -23.5t-24 -9.5t-24 9.5zM268 -150q-10 10 -10 24t10 24t24 10t24 -10t10 -24t-10 -24t-24 -10t-24 10zM405 -150q-10 10 -10 24t10 24t24 10t24 -10t10 -24
t-10 -24t-24 -10t-24 10z" />
    <glyph glyph-name="uniFB80" unicode="&#x687;" horiz-adv-x="695" arabic-form="initial" 
d="M310 427.5q36 -12.5 61.5 -31t61.5 -51.5q53 -49 98.5 -79t119.5 -50l-9 -50l-65 -5q-83 -4 -149 -25t-154 -61q-85 -38 -144 -56.5t-130 -18.5l-20 29l25 29q65 0 118.5 16.5t134.5 51.5q81 36 145 56.5t145 26.5q-51 19 -85.5 42.5t-73.5 57.5q-31 26 -51.5 40.5
t-49 24t-66.5 9.5q-59 0 -118 -36l-27 50q72 43 147 43q50 0 86 -12.5zM205 -139.5q-10 9.5 -10 23.5q0 15 10 25t24 10t24 -10t10 -25q0 -14 -10 -23.5t-24 -9.5t-24 9.5zM342 -139.5q-10 9.5 -10 23.5q0 15 10 25t24 10t24 -10t10 -25q0 -14 -10 -23.5t-24 -9.5t-24 9.5z
M205 -267q-10 10 -10 24t10 24t24 10t24 -10t10 -24t-10 -24t-24 -10t-24 10zM342 -267q-10 10 -10 24t10 24t24 10t24 -10t10 -24t-10 -24t-24 -10t-24 10z" />
    <glyph glyph-name="uniFB81" unicode="&#x687;" horiz-adv-x="727" arabic-form="medial" 
d="M747 29l-20 -29q-205 0 -234 187q-45 -11 -85.5 -30t-110.5 -56q-63 -34 -104 -53.5t-90.5 -33.5t-102.5 -14l-20 29l25 28q68 0 126 21.5t142 65.5q82 42 138 64.5t124 31.5q-50 17 -85.5 36.5t-73.5 47.5q-45 31 -75.5 45t-78.5 14q-32 0 -60.5 -8.5t-59.5 -25.5
l-27 49q75 42 148 42q46 0 79 -9.5t57 -24.5t59 -42q52 -41 99.5 -67.5t124.5 -46.5l-7 -50l-65 -2q-17 0 -34 -3q16 -80 63 -109t134 -29zM291 -89.5q-10 9.5 -10 23.5q0 15 10 25t24 10t24 -10t10 -25q0 -14 -10 -23.5t-24 -9.5t-24 9.5zM428 -89.5q-10 9.5 -10 23.5
q0 15 10 25t24 10t24 -10t10 -25q0 -14 -10 -23.5t-24 -9.5t-24 9.5zM291 -217q-10 10 -10 24t10 24t24 10t24 -10t10 -24t-10 -24t-24 -10t-24 10zM428 -217q-10 10 -10 24t10 24t24 10t24 -10t10 -24t-10 -24t-24 -10t-24 10z" />
    <glyph glyph-name="uniFB83" unicode="&#x68d;" horiz-adv-x="518" arabic-form="final" 
d="M538 29l-20 -29q-48 0 -81.5 21.5t-51.5 59.5q-30 -47 -82.5 -70.5t-121.5 -23.5q-75 0 -154 25l17 56q73 -22 141 -22q57 0 103 19t78 54l-150 355l57 27l131 -340q23 -59 47 -81.5t71 -22.5zM112.5 -166q-10.5 10 -10.5 24t10.5 24.5t24.5 10.5t24 -10.5t10 -24.5
t-10 -24t-24 -10t-24.5 10zM250 -166q-10 10 -10 24t10 24.5t25 10.5q14 0 24.5 -10.5t10.5 -24.5t-10.5 -24t-24.5 -10q-15 0 -25 10z" />
    <glyph glyph-name="uniFB85" unicode="&#x68c;" horiz-adv-x="518" arabic-form="final" 
d="M538 29l-20 -29q-48 0 -81.5 21.5t-51.5 59.5q-30 -47 -82.5 -70.5t-121.5 -23.5q-75 0 -154 25l17 56q73 -22 141 -22q57 0 103 19t78 54l-150 355l57 27l131 -340q23 -59 47 -81.5t71 -22.5zM95.5 615q-10.5 10 -10.5 25q0 14 10.5 24.5t24.5 10.5t24 -10.5t10 -24.5
q0 -15 -10 -25t-24 -10t-24.5 10zM233 615q-10 10 -10 25q0 14 10 24.5t25 10.5q14 0 24.5 -10.5t10.5 -24.5q0 -15 -10.5 -25t-24.5 -10q-15 0 -25 10z" />
    <glyph glyph-name="uniFB87" unicode="&#x68e;" horiz-adv-x="518" arabic-form="final" 
d="M538 29l-20 -29q-48 0 -81.5 21.5t-51.5 59.5q-30 -47 -82.5 -70.5t-121.5 -23.5q-75 0 -154 25l17 56q73 -22 141 -22q57 0 103 19t78 54l-150 355l57 27l131 -340q23 -59 47 -81.5t71 -22.5zM165 691q-10 10 -10 24t10 24t24 10t24 -10t10 -24t-10 -24t-24 -10t-24 10z
M92 585q-10 10 -10 24t10 23.5t25 9.5q14 0 24 -10t10 -23q0 -14 -10 -24t-24 -10q-15 0 -25 10zM237 585q-10 10 -10 24q0 13 10 23t24 10q15 0 25 -9.5t10 -23.5t-10 -24t-25 -10q-14 0 -24 10z" />
    <glyph glyph-name="uniFB89" unicode="&#x688;" horiz-adv-x="518" arabic-form="final" 
d="M538 29l-20 -29q-48 0 -81.5 21.5t-51.5 59.5q-30 -47 -82.5 -70.5t-121.5 -23.5q-75 0 -154 25l17 56q73 -22 141 -22q57 0 103 19t78 54l-150 355l57 27l131 -340q23 -59 47 -81.5t71 -22.5zM288 711.5q21 -22.5 21 -57.5q0 -31 -23.5 -55.5t-70.5 -24.5h-147l3 34h23
l15 25v145h33v-98q45 54 92 54q33 0 54 -22.5zM276 655q0 44 -45 44q-52 0 -106 -91h83q68 0 68 47z" />
    <glyph glyph-name="uniFB8B" unicode="&#x698;" horiz-adv-x="382" arabic-form="final" 
d="M402 29l-20 -29q-41 0 -65.5 14.5t-37.5 41.5q-7 -112 -77 -186.5t-206 -116.5l-23 55q262 79 262 269q0 89 -58 234l58 19q21 -70 36 -149q13 -67 39.5 -95.5t77.5 -28.5zM166 541q-10 10 -10 24t10 24t24 10t24 -10t10 -24t-10 -24t-24 -10t-24 10zM93 435
q-10 10 -10 24t10 23.5t25 9.5q14 0 24 -10t10 -23q0 -14 -10 -24t-24 -10q-15 0 -25 10zM238 435q-10 10 -10 24q0 13 10 23t24 10q15 0 25 -9.5t10 -23.5t-10 -24t-25 -10q-14 0 -24 10z" />
    <glyph glyph-name="uniFB8D" unicode="&#x691;" horiz-adv-x="382" arabic-form="final" 
d="M402 29l-20 -29q-41 0 -65.5 14.5t-37.5 41.5q-7 -112 -77 -186.5t-206 -116.5l-23 55q262 79 262 269q0 89 -58 234l58 19q21 -70 36 -149q13 -67 39.5 -95.5t77.5 -28.5zM289 561.5q21 -22.5 21 -57.5q0 -31 -23.5 -55.5t-70.5 -24.5h-147l3 34h23l15 25v145h33v-98
q45 54 92 54q33 0 54 -22.5zM277 505q0 44 -45 44q-52 0 -106 -91h83q68 0 68 47z" />
    <glyph glyph-name="uniFB8F" unicode="&#x6a9;" horiz-adv-x="983" arabic-form="final" 
d="M1003 30l-20 -30q-57 0 -100.5 17.5t-88.5 60.5t-103 125q1 -7 1 -18q0 -93 -82 -145t-278 -53q-147 0 -213 46t-66 143q0 77 36 153l41 -14q-26 -66 -26 -132q0 -73 54 -106t179 -33q120 0 188.5 18.5t95 51.5t26.5 81q0 62 -55 131l-98 121l12 52l392 256l-4 -60
l-350 -226l164 -205q77 -96 115 -136t73.5 -55.5t91.5 -15.5z" />
    <glyph glyph-name="uniFB90" unicode="&#x6a9;" horiz-adv-x="459" arabic-form="initial" 
d="M402 695l-341 -220q106 -46 167 -88t86.5 -84t25.5 -92q0 -104 -89 -157.5t-251 -53.5l-20 29l25 28q145 0 214.5 40t69.5 119q0 56 -62.5 110t-223.5 120l12 54l391 255z" />
    <glyph glyph-name="uniFB91" unicode="&#x6a9;" horiz-adv-x="543" arabic-form="medial" 
d="M563 30l-20 -30q-57 0 -100 17t-87.5 60t-103.5 124q1 -6 1 -16q0 -85 -65 -135t-188 -50l-20 29l25 28q102 0 152 36.5t50 101.5q0 63 -55 131l-98 121l12 52l391 256l-3 -60l-350 -226l164 -205q77 -96 115 -136t73.5 -55.5t91.5 -15.5z" />
    <glyph glyph-name="uniFB93" unicode="&#x6af;" horiz-adv-x="983" arabic-form="final" 
d="M889 828l-384 -252l11 50l376 249zM1003 30l-20 -30q-57 0 -100.5 17.5t-88.5 60.5t-103 125q1 -7 1 -18q0 -93 -82 -145t-278 -53q-147 0 -213 46t-66 143q0 77 36 153l41 -14q-26 -66 -26 -132q0 -73 54 -106t179 -33q120 0 188.5 18.5t95 51.5t26.5 81q0 62 -55 131
l-98 121l12 52l392 256l-4 -60l-350 -226l164 -205q77 -96 115 -136t73.5 -55.5t91.5 -15.5z" />
    <glyph glyph-name="uniFB94" unicode="&#x6af;" horiz-adv-x="459" arabic-form="initial" 
d="M394 828l-385 -252l11 50l377 249zM402 695l-341 -220q106 -46 167 -88t86.5 -84t25.5 -92q0 -104 -89 -157.5t-251 -53.5l-20 29l25 28q145 0 214.5 40t69.5 119q0 56 -62.5 110t-223.5 120l12 54l391 255z" />
    <glyph glyph-name="uniFB95" unicode="&#x6af;" horiz-adv-x="543" arabic-form="medial" 
d="M451 828l-385 -252l11 50l377 249zM563 30l-20 -30q-57 0 -100 17t-87.5 60t-103.5 124q1 -6 1 -16q0 -85 -65 -135t-188 -50l-20 29l25 28q102 0 152 36.5t50 101.5q0 63 -55 131l-98 121l12 52l391 256l-3 -60l-350 -226l164 -205q77 -96 115 -136t73.5 -55.5
t91.5 -15.5z" />
    <glyph glyph-name="uniFB97" unicode="&#x6b3;" horiz-adv-x="983" arabic-form="final" 
d="M889 828l-384 -252l11 50l376 249zM1003 30l-20 -30q-57 0 -100.5 17.5t-88.5 60.5t-103 125q1 -7 1 -18q0 -93 -82 -145t-278 -53q-147 0 -213 46t-66 143q0 77 36 153l41 -14q-26 -66 -26 -132q0 -73 54 -106t179 -33q120 0 188.5 18.5t95 51.5t26.5 81q0 62 -55 131
l-98 121l12 52l392 256l-4 -60l-350 -226l164 -205q77 -96 115 -136t73.5 -55.5t91.5 -15.5zM349.5 -151q-10.5 10 -10.5 24q0 15 10.5 25t24.5 10t24 -10t10 -25q0 -14 -10 -24t-24 -10t-24.5 10zM349.5 -286q-10.5 10 -10.5 25q0 14 10.5 24t24.5 10t24 -10t10 -24
q0 -15 -10 -25t-24 -10t-24.5 10z" />
    <glyph glyph-name="uniFB98" unicode="&#x6b3;" horiz-adv-x="459" arabic-form="initial" 
d="M394 828l-385 -252l11 50l377 249zM402 695l-341 -220q106 -46 167 -88t86.5 -84t25.5 -92q0 -104 -89 -157.5t-251 -53.5l-20 29l25 28q145 0 214.5 40t69.5 119q0 56 -62.5 110t-223.5 120l12 54l391 255zM102.5 -151q-10.5 10 -10.5 24q0 15 10.5 25t24.5 10t24 -10
t10 -25q0 -14 -10 -24t-24 -10t-24.5 10zM102.5 -286q-10.5 10 -10.5 25q0 14 10.5 24t24.5 10t24 -10t10 -24q0 -15 -10 -25t-24 -10t-24.5 10z" />
    <glyph glyph-name="uniFB99" unicode="&#x6b3;" horiz-adv-x="543" arabic-form="medial" 
d="M451 828l-385 -252l11 50l377 249zM563 30l-20 -30q-57 0 -100 17t-87.5 60t-103.5 124q1 -6 1 -16q0 -85 -65 -135t-188 -50l-20 29l25 28q102 0 152 36.5t50 101.5q0 63 -55 131l-98 121l12 52l391 256l-3 -60l-350 -226l164 -205q77 -96 115 -136t73.5 -55.5
t91.5 -15.5zM254.5 -151q-10.5 10 -10.5 24q0 15 10.5 25t24.5 10t24 -10t10 -25q0 -14 -10 -24t-24 -10t-24.5 10zM254.5 -286q-10.5 10 -10.5 25q0 14 10.5 24t24.5 10t24 -10t10 -24q0 -15 -10 -25t-24 -10t-24.5 10z" />
    <glyph glyph-name="uniFB9B" unicode="&#x6b1;" horiz-adv-x="983" arabic-form="final" 
d="M889 828l-384 -252l11 50l376 249zM1003 30l-20 -30q-57 0 -100.5 17.5t-88.5 60.5t-103 125q1 -7 1 -18q0 -93 -82 -145t-278 -53q-147 0 -213 46t-66 143q0 77 36 153l41 -14q-26 -66 -26 -132q0 -73 54 -106t179 -33q120 0 188.5 18.5t95 51.5t26.5 81q0 62 -55 131
l-98 121l12 52l392 256l-4 -60l-350 -226l164 -205q77 -96 115 -136t73.5 -55.5t91.5 -15.5zM425.5 781q-10.5 10 -10.5 25q0 14 10.5 24.5t24.5 10.5t24 -10.5t10 -24.5q0 -15 -10 -25t-24 -10t-24.5 10zM563 781q-10 10 -10 25q0 14 10 24.5t25 10.5q14 0 24.5 -10.5
t10.5 -24.5q0 -15 -10.5 -25t-24.5 -10q-15 0 -25 10z" />
    <glyph glyph-name="uniFB9C" unicode="&#x6b1;" horiz-adv-x="459" arabic-form="initial" 
d="M394 828l-385 -252l11 50l377 249zM402 695l-341 -220q106 -46 167 -88t86.5 -84t25.5 -92q0 -104 -89 -157.5t-251 -53.5l-20 29l25 28q145 0 214.5 40t69.5 119q0 56 -62.5 110t-223.5 120l12 54l391 255zM-68.5 781q-10.5 10 -10.5 25q0 14 10.5 24.5t24.5 10.5
t24 -10.5t10 -24.5q0 -15 -10 -25t-24 -10t-24.5 10zM69 781q-10 10 -10 25q0 14 10 24.5t25 10.5q14 0 24.5 -10.5t10.5 -24.5q0 -15 -10.5 -25t-24.5 -10q-15 0 -25 10z" />
    <glyph glyph-name="uniFB9D" unicode="&#x6b1;" horiz-adv-x="543" arabic-form="medial" 
d="M451 828l-385 -252l11 50l377 249zM563 30l-20 -30q-57 0 -100 17t-87.5 60t-103.5 124q1 -6 1 -16q0 -85 -65 -135t-188 -50l-20 29l25 28q102 0 152 36.5t50 101.5q0 63 -55 131l-98 121l12 52l391 256l-3 -60l-350 -226l164 -205q77 -96 115 -136t73.5 -55.5
t91.5 -15.5zM-10.5 781q-10.5 10 -10.5 25q0 14 10.5 24.5t24.5 10.5t24 -10.5t10 -24.5q0 -15 -10 -25t-24 -10t-24.5 10zM127 781q-10 10 -10 25q0 14 10 24.5t25 10.5q14 0 24.5 -10.5t10.5 -24.5q0 -15 -10.5 -25t-24.5 -10q-15 0 -25 10z" />
    <glyph glyph-name="uniFB9F" unicode="&#x6ba;" horiz-adv-x="715" arabic-form="final" 
d="M735 29l-20 -29q-75 0 -113 44q-4 -156 -76 -223t-224 -67q-128 0 -188.5 61t-60.5 167q0 91 42 184l40 -13q-30 -78 -30 -164q0 -83 48 -130.5t155 -47.5q89 0 142 25t77 77.5t24 138.5q0 51 -14 102t-45 126l58 24q5 -19 15 -51q16 -54 25 -87q17 -60 46.5 -84.5
t83.5 -24.5z" />
    <glyph glyph-name="uniFBA1" unicode="&#x6bb;" horiz-adv-x="715" arabic-form="final" 
d="M735 29l-20 -29q-75 0 -113 44q-4 -156 -76 -223t-224 -67q-128 0 -188.5 61t-60.5 167q0 91 42 184l40 -13q-30 -78 -30 -164q0 -83 48 -130.5t155 -47.5q89 0 142 25t77 77.5t24 138.5q0 51 -14 102t-45 126l58 24q5 -19 15 -51q16 -54 25 -87q17 -60 46.5 -84.5
t83.5 -24.5zM414 453.5q21 -22.5 21 -57.5q0 -31 -23.5 -55.5t-70.5 -24.5h-147l3 34h23l15 25v145h33v-98q45 54 92 54q33 0 54 -22.5zM402 397q0 44 -45 44q-52 0 -106 -91h83q68 0 68 47z" />
    <glyph glyph-name="uniFBA2" unicode="&#x6bb;" horiz-adv-x="269" arabic-form="initial" 
d="M99 68q32 11 43.5 35t11.5 68q0 83 -43 206l54 18q20 -58 30.5 -118t10.5 -109q0 -64 -18 -100t-62 -52t-126 -16l-20 29l25 28q62 0 94 11zM219 603.5q21 -22.5 21 -57.5q0 -31 -23.5 -55.5t-70.5 -24.5h-147l3 34h23l15 25v145h33v-98q45 54 92 54q33 0 54 -22.5z
M207 547q0 44 -45 44q-52 0 -106 -91h83q68 0 68 47z" />
    <glyph glyph-name="uniFBA3" unicode="&#x6bb;" horiz-adv-x="327" arabic-form="medial" 
d="M347 29l-20 -29q-62 0 -102 20.5t-60 64.5q-19 -45 -58.5 -65t-106.5 -20l-20 29l26 28q54 0 82 13.5t38 38.5t10 67v145h54v-145q0 -62 31.5 -90.5t110.5 -28.5zM262 533.5q21 -22.5 21 -57.5q0 -31 -23.5 -55.5t-70.5 -24.5h-147l3 34h23l15 25v145h33v-98q45 54 92 54
q33 0 54 -22.5zM250 477q0 44 -45 44q-52 0 -106 -91h83q68 0 68 47z" />
    <glyph glyph-name="uniFBA5" unicode="&#x6c0;" horiz-adv-x="498" arabic-form="final" 
d="M518 28l-20 -28h-15q-113 0 -139 111q-26 -34 -68.5 -54t-89.5 -20q-73 0 -116 39t-43 101q0 55 36 101t106 75t168 34v107l53 7v-319q0 -68 24.5 -96.5t73.5 -28.5h15zM276 109.5q37 18.5 61 49.5v176q-129 -5 -194 -47.5t-65 -105.5q0 -41 29 -66t87 -25q45 0 82 18.5z
M464 594l-198 -32l-5 34l68 11q-23 17 -35.5 37t-12.5 39q0 35 24.5 58t71.5 23q34 0 68 -19l-19 -32q-29 15 -52 15q-29 0 -42.5 -13t-13.5 -32q0 -34 51 -69l90 15z" />
    <glyph glyph-name="uniFBA7" unicode="&#x6c1;" horiz-adv-x="576" arabic-form="final" 
d="M27 -27q41 152 100 223t131 71q35 0 60 -12.5t41.5 -31.5t37.5 -52q25 -37 45.5 -59.5t54.5 -38.5t84 -16l15 -28l-20 -29q-64 0 -107 19.5t-67.5 46.5t-52.5 69q-24 38 -43.5 56.5t-47.5 18.5q-55 0 -98 -64t-78 -184z" />
    <glyph glyph-name="uniFBA8" unicode="&#x6c1;" horiz-adv-x="269" arabic-form="initial" 
d="M99 68q32 11 43.5 35t11.5 68q0 83 -43 206l54 18q20 -58 30.5 -118t10.5 -109q0 -64 -18 -100t-62 -52t-126 -16l-20 29l25 28q62 0 94 11zM80.5 -217q-10.5 10 -10.5 29q0 13 6.5 30t7.5 20l25 78h22l-14 -97q27 -6 27 -36q0 -14 -10 -24t-25 -10q-18 0 -28.5 10z" />
    <glyph glyph-name="uniFBA9" unicode="&#x6c1;" horiz-adv-x="560" arabic-form="medial" 
d="M580 29l-20 -29h-26q-73 0 -115.5 -43.5t-42.5 -137.5q0 -48 10 -102l-48 -17q-149 159 -149 360q0 14 1 20q-28 -42 -68.5 -61t-94.5 -19h-27l-20 29l25 28h28q67 0 112.5 48t76.5 159l11 44l50 -13q-19 -73 -29.5 -127t-10.5 -99q0 -75 19 -140t70 -140q-2 32 -2 44
q0 114 55.5 169t155.5 55h25z" />
    <glyph glyph-name="uniFBAB" unicode="&#x6be;" horiz-adv-x="569" arabic-form="final" 
d="M569 0h-141q44 -22 66.5 -54t22.5 -80q0 -55 -35.5 -90.5t-95.5 -35.5q-59 0 -107 33.5t-76.5 92.5t-31.5 134q-84 3 -138 30l26 50q45 -20 112 -23q3 91 35 168t83 121.5t109 44.5q57 0 90.5 -36t33.5 -105q0 -53 -31 -108.5t-83 -84.5h166l15 -28zM309.5 298.5
q-38.5 -35.5 -64 -99t-29.5 -142.5h65q55 0 98.5 27t67.5 70t24 89q0 44 -21.5 67.5t-59.5 23.5q-42 0 -80.5 -35.5zM420.5 -33.5q-47.5 33.5 -117.5 33.5h-87q6 -94 50.5 -148.5t114.5 -54.5q42 0 64.5 22.5t22.5 56.5q0 57 -47.5 90.5z" />
    <glyph glyph-name="uniFBAC" unicode="&#x6be;" horiz-adv-x="631" arabic-form="initial" 
d="M390 371.5q90 -59.5 133.5 -111t43.5 -105.5q0 -45 -23.5 -84t-61.5 -61.5t-81 -22.5q-48 0 -95 13t-89 36q-81 -36 -194 -36h-23l-20 29l25 28h14q80 0 143 17q-46 39 -72 87.5t-26 101.5q0 62 34.5 108.5t89.5 58.5l-23 13q-10 5 -25 14t-37 20l29 50
q168 -96 258 -155.5zM138 170q31 -43 83 -74q56 27 85.5 69t29.5 94q0 56 -32.5 94t-81.5 38q-50 0 -82.5 -37t-32.5 -93q0 -48 31 -91zM485.5 72q35.5 28 35.5 72q0 38 -37 80.5t-116 96.5q10 -27 10 -59q0 -56 -26 -106.5t-77 -86.5q63 -25 126 -25q49 0 84.5 28z" />
    <glyph glyph-name="uniFBAD" unicode="&#x6be;" horiz-adv-x="484" arabic-form="medial" 
d="M484 0h-141q44 -22 66.5 -54t22.5 -80q0 -55 -35 -90.5t-95 -35.5q-59 0 -107 33t-76.5 92.5t-31.5 134.5h-87l-20 29l25 28h82q3 91 34.5 168t82.5 121.5t109 44.5q57 0 90.5 -36t33.5 -105q0 -53 -31 -108.5t-83 -84.5h167l14 -28zM224.5 298.5q-38.5 -35.5 -64 -99
t-29.5 -142.5h65q55 0 98.5 27t67.5 70t24 89q0 44 -21.5 67.5t-59.5 23.5q-42 0 -80.5 -35.5zM335.5 -33.5q-47.5 33.5 -116.5 33.5h-88q6 -94 50.5 -148.5t114.5 -54.5q43 0 65 22.5t22 56.5q0 57 -47.5 90.5z" />
    <glyph glyph-name="uniFBAF" unicode="&#x6d2;" horiz-adv-x="748" arabic-form="final" 
d="M206 -255q-84 0 -126 29.5t-42 79.5q0 49 34 96t106.5 77.5t182.5 30.5h392l15 -29l-20 -29h-399q-90 0 -149 -21t-86 -52.5t-27 -65.5q0 -29 24.5 -44t82.5 -15h537l-18 -57h-507z" />
    <glyph glyph-name="uniFBB1" unicode="&#x6d3;" horiz-adv-x="748" arabic-form="final" 
d="M206 -255q-84 0 -126 29.5t-42 79.5q0 49 34 96t106.5 77.5t182.5 30.5h392l15 -29l-20 -29h-399q-90 0 -149 -21t-86 -52.5t-27 -65.5q0 -29 24.5 -44t82.5 -15h537l-18 -57h-507zM338 208l-198 -32l-5 34l68 11q-23 17 -35.5 37t-12.5 39q0 35 24.5 58t71.5 23
q34 0 68 -19l-19 -32q-29 15 -52 15q-29 0 -42.5 -13t-13.5 -32q0 -34 51 -69l90 15z" />
    <glyph glyph-name="uniFBD4" unicode="&#x6ad;" horiz-adv-x="832" arabic-form="final" 
d="M852 30l-20 -30q-50 0 -81 22.5t-52 58.5q-66 -47 -155 -70.5t-212 -23.5q-147 0 -213 46t-66 143q0 77 36 153l41 -14q-26 -66 -26 -132q0 -73 54 -106t179 -33q110 0 196 23.5t146 65.5v612l53 6v-587q0 -107 106 -107zM411.5 326q37.5 12 37.5 34q0 19 -26 33t-95 28
l8 41l159 93l-2 -43l-116 -66q60 -16 85.5 -36t25.5 -50q0 -46 -52 -65t-133 -19l-6 38q77 0 114.5 12zM682 935q-10 10 -10 24t10 24t24 10t24 -10t10 -24t-10 -24t-24 -10t-24 10zM609 829q-10 10 -10 24t10 23.5t25 9.5q14 0 24 -10t10 -23q0 -14 -10 -24t-24 -10
q-15 0 -25 10zM754 829q-10 10 -10 24q0 13 10 23t24 10q15 0 25 -9.5t10 -23.5t-10 -24t-25 -10q-14 0 -24 10z" />
    <glyph glyph-name="uniFBD5" unicode="&#x6ad;" horiz-adv-x="459" arabic-form="initial" 
d="M402 695l-341 -220q106 -46 167 -88t86.5 -84t25.5 -92q0 -104 -89 -157.5t-251 -53.5l-20 29l25 28q145 0 214.5 40t69.5 119q0 56 -62.5 110t-223.5 120l12 54l391 255zM24 799q-10 10 -10 24t10 24t24 10t24 -10t10 -24t-10 -24t-24 -10t-24 10zM-49 693
q-10 10 -10 24t10 23.5t25 9.5q14 0 24 -10t10 -23q0 -14 -10 -24t-24 -10q-15 0 -25 10zM96 693q-10 10 -10 24q0 13 10 23t24 10q15 0 25 -9.5t10 -23.5t-10 -24t-25 -10q-14 0 -24 10z" />
    <glyph glyph-name="uniFBD6" unicode="&#x6ad;" horiz-adv-x="543" arabic-form="medial" 
d="M563 30l-20 -30q-57 0 -100 17t-87.5 60t-103.5 124q1 -6 1 -16q0 -85 -65 -135t-188 -50l-20 29l25 28q102 0 152 36.5t50 101.5q0 63 -55 131l-98 121l12 52l391 256l-3 -60l-350 -226l164 -205q77 -96 115 -136t73.5 -55.5t91.5 -15.5zM69 799q-10 10 -10 24t10 24
t24 10t24 -10t10 -24t-10 -24t-24 -10t-24 10zM-4 693q-10 10 -10 24t10 23.5t25 9.5q14 0 24 -10t10 -23q0 -14 -10 -24t-24 -10q-15 0 -25 10zM141 693q-10 10 -10 24q0 13 10 23t24 10q15 0 25 -9.5t10 -23.5t-10 -24t-25 -10q-14 0 -24 10z" />
    <glyph glyph-name="uniFBD8" unicode="&#x6c7;" horiz-adv-x="527" arabic-form="final" 
d="M527 0h-108q-23 -102 -106.5 -165.5t-242.5 -92.5l-17 56q141 26 216 75.5t99 126.5h-84q-102 0 -157 48.5t-55 126.5q0 50 23 93t63.5 69t88.5 26q53 0 94 -31.5t64.5 -91t23.5 -142.5q0 -15 -2 -41h105l15 -28zM291 57h88q1 11 1 34q0 106 -35.5 160.5t-98.5 54.5
q-54 0 -90 -37.5t-36 -90.5q0 -121 171 -121zM317.5 618q19.5 -23 19.5 -57q0 -44 -42 -86.5t-114 -69.5l-15 31q51 19 87 44q-37 14 -54 35.5t-17 46.5q0 36 23.5 57.5t55.5 21.5q37 0 56.5 -23zM304 558q0 19 -11.5 32.5t-32.5 13.5q-19 0 -31 -11.5t-12 -31.5
q0 -19 14.5 -33t48.5 -24q24 27 24 54z" />
    <glyph glyph-name="uniFBDA" unicode="&#x6c6;" horiz-adv-x="527" arabic-form="final" 
d="M527 0h-108q-23 -102 -106.5 -165.5t-242.5 -92.5l-17 56q141 26 216 75.5t99 126.5h-84q-102 0 -157 48.5t-55 126.5q0 50 23 93t63.5 69t88.5 26q53 0 94 -31.5t64.5 -91t23.5 -142.5q0 -15 -2 -41h105l15 -28zM291 57h88q1 11 1 34q0 106 -35.5 160.5t-98.5 54.5
q-54 0 -90 -37.5t-36 -90.5q0 -121 171 -121zM251 455l64 109l30 -13l-78 -139h-33l-77 139l30 13z" />
    <glyph glyph-name="uniFBDC" unicode="&#x6c8;" horiz-adv-x="527" arabic-form="final" 
d="M527 0h-108q-23 -102 -106.5 -165.5t-242.5 -92.5l-17 56q141 26 216 75.5t99 126.5h-84q-102 0 -157 48.5t-55 126.5q0 50 23 93t63.5 69t88.5 26q53 0 94 -31.5t64.5 -91t23.5 -142.5q0 -15 -2 -41h105l15 -28zM291 57h88q1 11 1 34q0 106 -35.5 160.5t-98.5 54.5
q-54 0 -90 -37.5t-36 -90.5q0 -121 171 -121zM270 591v-168h-39v164z" />
    <glyph glyph-name="uniFBDF" unicode="&#x6cb;" horiz-adv-x="527" arabic-form="final" 
d="M527 0h-108q-23 -102 -106.5 -165.5t-242.5 -92.5l-17 56q141 26 216 75.5t99 126.5h-84q-102 0 -157 48.5t-55 126.5q0 50 23 93t63.5 69t88.5 26q53 0 94 -31.5t64.5 -91t23.5 -142.5q0 -15 -2 -41h105l15 -28zM291 57h88q1 11 1 34q0 106 -35.5 160.5t-98.5 54.5
q-54 0 -90 -37.5t-36 -90.5q0 -121 171 -121zM227 545q-10 10 -10 24t10 24t24 10t24 -10t10 -24t-10 -24t-24 -10t-24 10zM154 439q-10 10 -10 24t10 23.5t25 9.5q14 0 24 -10t10 -23q0 -14 -10 -24t-24 -10q-15 0 -25 10zM299 439q-10 10 -10 24q0 13 10 23t24 10
q15 0 25 -9.5t10 -23.5t-10 -24t-25 -10q-14 0 -24 10z" />
    <glyph glyph-name="uniFBE1" unicode="&#x6c5;" horiz-adv-x="527" arabic-form="final" 
d="M527 0h-108q-23 -102 -106.5 -165.5t-242.5 -92.5l-17 56q143 26 220 78l-186 4l-21 39l248 -10q37 38 54 91h-84q-102 0 -157 48.5t-55 126.5q0 50 23 93t63.5 69t88.5 26q53 0 94 -31.5t64.5 -91t23.5 -142.5q0 -15 -2 -41h105l15 -28zM291 57h88q1 11 1 34
q0 106 -35.5 160.5t-98.5 54.5q-54 0 -90 -37.5t-36 -90.5q0 -121 171 -121z" />
    <glyph glyph-name="uniFBE3" unicode="&#x6c9;" horiz-adv-x="527" arabic-form="final" 
d="M527 0h-108q-23 -102 -106.5 -165.5t-242.5 -92.5l-17 56q141 26 216 75.5t99 126.5h-84q-102 0 -157 48.5t-55 126.5q0 50 23 93t63.5 69t88.5 26q53 0 94 -31.5t64.5 -91t23.5 -142.5q0 -15 -2 -41h105l15 -28zM291 57h88q1 11 1 34q0 106 -35.5 160.5t-98.5 54.5
q-54 0 -90 -37.5t-36 -90.5q0 -121 171 -121zM157 441l77 140h33l78 -140l-30 -13l-64 109l-64 -109z" />
    <glyph glyph-name="uniFBE5" unicode="&#x6d0;" horiz-adv-x="722" arabic-form="final" 
d="M722 0q-28 0 -50.5 5t-46.5 16q11 -19 11 -40q0 -48 -37.5 -89.5t-113 -67.5t-183.5 -26q-128 0 -188.5 61t-60.5 167q0 93 42 184l40 -13q-30 -78 -30 -164q0 -83 48 -130.5t155 -47.5q89 0 152 20t95 50.5t32 60.5q0 19 -14.5 33.5t-52 30.5t-111.5 39l24 50
q56 -19 106 -37q66 -25 104 -35t84 -10l15 -28zM283.5 -341q-10.5 10 -10.5 24q0 15 10.5 25t24.5 10t24 -10t10 -25q0 -14 -10 -24t-24 -10t-24.5 10zM283.5 -476q-10.5 10 -10.5 25q0 14 10.5 24t24.5 10t24 -10t10 -24q0 -15 -10 -25t-24 -10t-24.5 10z" />
    <glyph glyph-name="uniFBE6" unicode="&#x6d0;" horiz-adv-x="269" arabic-form="initial" 
d="M99 68q32 11 43.5 35t11.5 68q0 83 -43 206l54 18q20 -58 30.5 -118t10.5 -109q0 -64 -18 -100t-62 -52t-126 -16l-20 29l25 28q62 0 94 11zM99.5 -151q-10.5 10 -10.5 24q0 15 10.5 25t24.5 10t24 -10t10 -25q0 -14 -10 -24t-24 -10t-24.5 10zM99.5 -286
q-10.5 10 -10.5 25q0 14 10.5 24t24.5 10t24 -10t10 -24q0 -15 -10 -25t-24 -10t-24.5 10z" />
    <glyph glyph-name="uniFBE7" unicode="&#x6d0;" horiz-adv-x="327" arabic-form="medial" 
d="M347 29l-20 -29q-62 0 -102 20.5t-60 64.5q-19 -45 -58.5 -65t-106.5 -20l-20 29l26 28q54 0 82 13.5t38 38.5t10 67v145h54v-145q0 -62 31.5 -90.5t110.5 -28.5zM139.5 -151q-10.5 10 -10.5 24q0 15 10.5 25t24.5 10t24 -10t10 -25q0 -14 -10 -24t-24 -10t-24.5 10z
M139.5 -286q-10.5 10 -10.5 25q0 14 10.5 24t24.5 10t24 -10t10 -24q0 -15 -10 -25t-24 -10t-24.5 10z" />
    <glyph glyph-name="uniFBE8" unicode="&#x649;" horiz-adv-x="269" arabic-form="initial" 
d="M99 68q32 11 43.5 35t11.5 68q0 83 -43 206l54 18q20 -58 30.5 -118t10.5 -109q0 -64 -18 -100t-62 -52t-126 -16l-20 29l25 28q62 0 94 11z" />
    <glyph glyph-name="uniFBE9" unicode="&#x649;" horiz-adv-x="327" arabic-form="medial" 
d="M347 29l-20 -29q-62 0 -102 20.5t-60 64.5q-19 -45 -58.5 -65t-106.5 -20l-20 29l26 28q54 0 82 13.5t38 38.5t10 67v145h54v-145q0 -62 31.5 -90.5t110.5 -28.5z" />
    <glyph glyph-name="uniFBFD" unicode="&#x6cc;" horiz-adv-x="722" arabic-form="final" 
d="M722 0q-28 0 -50.5 5t-46.5 16q11 -19 11 -40q0 -48 -37.5 -89.5t-113 -67.5t-183.5 -26q-128 0 -188.5 61t-60.5 167q0 93 42 184l40 -13q-30 -78 -30 -164q0 -83 48 -130.5t155 -47.5q89 0 152 20t95 50.5t32 60.5q0 19 -14.5 33.5t-52 30.5t-111.5 39l24 50
q56 -19 106 -37q66 -25 104 -35t84 -10l15 -28z" />
    <glyph glyph-name="uniFBFE" unicode="&#x6cc;" horiz-adv-x="269" arabic-form="initial" 
d="M99 68q32 11 43.5 35t11.5 68q0 83 -43 206l54 18q20 -58 30.5 -118t10.5 -109q0 -64 -18 -100t-62 -52t-126 -16l-20 29l25 28q62 0 94 11zM29.5 -166q-10.5 10 -10.5 24t10.5 24.5t24.5 10.5t24 -10.5t10 -24.5t-10 -24t-24 -10t-24.5 10zM167 -166q-10 10 -10 24
t10 24.5t25 10.5q14 0 24.5 -10.5t10.5 -24.5t-10.5 -24t-24.5 -10q-15 0 -25 10z" />
    <glyph glyph-name="uniFBFF" unicode="&#x6cc;" horiz-adv-x="327" arabic-form="medial" 
d="M347 29l-20 -29q-62 0 -102 20.5t-60 64.5q-19 -45 -58.5 -65t-106.5 -20l-20 29l26 28q54 0 82 13.5t38 38.5t10 67v145h54v-145q0 -62 31.5 -90.5t110.5 -28.5zM69.5 -166q-10.5 10 -10.5 24t10.5 24.5t24.5 10.5t24 -10.5t10 -24.5t-10 -24t-24 -10t-24.5 10z
M207 -166q-10 10 -10 24t10 24.5t25 10.5q14 0 24.5 -10.5t10.5 -24.5t-10.5 -24t-24.5 -10q-15 0 -25 10z" />
    <glyph glyph-name="uniFC5B" unicode="&#xfc5b;" horiz-adv-x="463" arabic-form="isolated" 
d="M27 8l17 56q69 -19 143 -19q69 0 121.5 25.5t52.5 72.5q0 74 -55.5 158t-133.5 163l42 38q196 -198 196 -359q0 -56 -34.5 -91t-85.5 -50t-103 -15q-93 0 -160 21zM134.5 586.5q-10.5 10.5 -10.5 26.5q0 15 10.5 26t26.5 11t26.5 -11t10.5 -26q0 -16 -10.5 -26.5
t-26.5 -10.5t-26.5 10.5zM180 890v-168h-39v164z" />
    <glyph glyph-name="uniFC5C" unicode="&#xfc5c;" horiz-adv-x="346" arabic-form="isolated" 
d="M-27 -190q262 79 262 264q0 54 -13.5 107.5t-43.5 128.5l58 20q47 -139 47 -252q0 -235 -286 -325zM210 587v-168h-39v164z" />
    <glyph glyph-name="uniFC61" unicode="&#xfc61;" arabic-form="isolated" 
d="M253 682q0 -36 -18 -55t-48 -19q-38 0 -53 30q-18 -34 -56 -34q-25 0 -44.5 19t-19.5 55q0 31 12 62l31 -7q-7 -23 -7 -48q0 -19 8 -30.5t23 -11.5q17 0 27 13t10 34v41h32v-43q0 -19 9 -31t24 -12q34 0 34 47q0 29 -14 62l32 11q18 -42 18 -83zM200.5 986
q19.5 -23 19.5 -57q0 -44 -42 -86.5t-114 -69.5l-15 31q51 19 87 44q-37 14 -54 35.5t-17 46.5q0 36 23.5 57.5t55.5 21.5q37 0 56.5 -23zM187 926q0 19 -11.5 32.5t-32.5 13.5q-19 0 -31 -11.5t-12 -31.5q0 -19 14.5 -33t48.5 -24q24 27 24 54z" />
    <glyph glyph-name="uniFC63" unicode="&#xfc63;" arabic-form="isolated" 
d="M253 682q0 -36 -18 -55t-48 -19q-38 0 -53 30q-18 -34 -56 -34q-25 0 -44.5 19t-19.5 55q0 31 12 62l31 -7q-7 -23 -7 -48q0 -19 8 -30.5t23 -11.5q17 0 27 13t10 34v41h32v-43q0 -19 9 -31t24 -12q34 0 34 47q0 29 -14 62l32 11q18 -42 18 -83zM152 959v-168h-39v164z
" />
    <glyph glyph-name="uniFD3C" unicode="&#xfd3c;" horiz-adv-x="229" arabic-form="final" 
d="M79 685l53 6v-518q0 -64 23.5 -90t79.5 -26l14 -28l-20 -29q-150 0 -150 169v516zM0 856l212 41l-2 -37l-212 -41zM0 776l212 41l-2 -37l-212 -41z" />
    <glyph glyph-name="uniFD3D" unicode="&#xfd3d;" horiz-adv-x="215" arabic-form="isolated" 
d="M81 0v625l53 7v-632h-53zM2 798l212 41l-2 -37l-212 -41zM2 718l212 41l-2 -37l-212 -41z" />
    <glyph glyph-name="uniFE70" unicode="&#xfe70;" horiz-adv-x="600" arabic-form="isolated" 
d="M38 694l212 41l-2 -37l-212 -41zM38 614l212 41l-2 -37l-212 -41z" />
    <glyph glyph-name="uniFE72" unicode="&#xfe72;" horiz-adv-x="600" arabic-form="isolated" 
d="M297 787q19 -23 19 -55q0 -42 -39 -84.5t-103 -71.5l-33 14q0 33 -6 49t-21 16q-11 0 -20.5 -6.5t-23.5 -21.5l-20 23q35 40 64 40q25 0 40.5 -19.5t17.5 -57.5q36 17 62 39q-37 14 -53.5 35.5t-16.5 45.5q0 35 23 56t55 21q36 0 55 -23zM283 729q0 17 -11 30.5t-31 13.5
q-18 0 -30.5 -12t-12.5 -30q0 -37 61 -55q24 27 24 53z" />
    <glyph glyph-name="uniFE74" unicode="&#xfe74;" horiz-adv-x="600" arabic-form="isolated" 
d="M38 -92l212 41l-2 -37l-212 -41zM38 -169l212 41l-2 -37l-212 -41z" />
    <glyph glyph-name="uniFE76" unicode="&#xfe76;" horiz-adv-x="600" arabic-form="isolated" 
d="M38 631l212 41l-2 -37l-212 -41z" />
    <glyph glyph-name="uniFE78" unicode="&#xfe78;" horiz-adv-x="600" arabic-form="isolated" 
d="M168.5 788q19.5 -23 19.5 -57q0 -44 -42 -86.5t-114 -69.5l-15 31q51 19 87 44q-37 14 -54 35.5t-17 46.5q0 36 23.5 57.5t55.5 21.5q37 0 56.5 -23zM155 728q0 19 -11.5 32.5t-32.5 13.5q-19 0 -31 -11.5t-12 -31.5q0 -19 14.5 -33t48.5 -24q24 27 24 54z" />
    <glyph glyph-name="uniFE7C" unicode="&#xfe7c;" horiz-adv-x="600" arabic-form="isolated" 
d="M253 682q0 -36 -18 -55t-48 -19q-38 0 -53 30q-18 -34 -56 -34q-25 0 -44.5 19t-19.5 55q0 31 12 62l31 -7q-7 -23 -7 -48q0 -19 8 -30.5t23 -11.5q17 0 27 13t10 34v41h32v-43q0 -19 9 -31t24 -12q34 0 34 47q0 29 -14 62l32 11q18 -42 18 -83z" />
    <glyph glyph-name="uniFE7E" unicode="&#xfe7e;" horiz-adv-x="600" arabic-form="isolated" 
d="M167 606.5q-27 -25.5 -67 -25.5t-67 25.5t-27 66.5t27 66.5t67 25.5t67 -25.5t27 -66.5t-27 -66.5zM143 714q-16 16 -43 16t-43 -16t-16 -41t16 -41t43 -16t43 16t16 41t-16 41z" />
    <glyph glyph-name="uniFE82" unicode="&#x622;" horiz-adv-x="229" arabic-form="final" 
d="M79 685l53 6v-518q0 -64 23.5 -90t79.5 -26l14 -28l-20 -29q-150 0 -150 169v516zM-4 770q11 32 31.5 52.5t45.5 20.5q15 0 25.5 -4t24.5 -12q12 -7 21 -10.5t21 -3.5q10 0 19.5 4t25.5 15l16 -27q-37 -30 -68 -30q-13 0 -22.5 3.5t-23.5 11.5q-12 7 -20.5 10.5
t-18.5 3.5q-26 0 -45 -44z" />
    <glyph glyph-name="uniFE84" unicode="&#x623;" horiz-adv-x="229" arabic-form="final" 
d="M79 685l53 6v-518q0 -64 23.5 -90t79.5 -26l14 -28l-20 -29q-150 0 -150 169v516zM207 780l-198 -32l-5 34l68 11q-23 17 -35.5 37t-12.5 39q0 35 24.5 58t71.5 23q34 0 68 -19l-19 -32q-29 15 -52 15q-29 0 -42.5 -13t-13.5 -32q0 -34 51 -69l90 15z" />
    <glyph glyph-name="uniFE86" unicode="&#x624;" horiz-adv-x="527" arabic-form="final" 
d="M527 0h-108q-23 -102 -106.5 -165.5t-242.5 -92.5l-17 56q141 26 216 75.5t99 126.5h-84q-102 0 -157 48.5t-55 126.5q0 50 23 93t63.5 69t88.5 26q53 0 94 -31.5t64.5 -91t23.5 -142.5q0 -15 -2 -41h105l15 -28zM291 57h88q1 11 1 34q0 106 -35.5 160.5t-98.5 54.5
q-54 0 -90 -37.5t-36 -90.5q0 -121 171 -121zM352 450l-198 -32l-5 34l68 11q-23 17 -35.5 37t-12.5 39q0 35 24.5 58t71.5 23q34 0 68 -19l-19 -32q-29 15 -52 15q-29 0 -42.5 -13t-13.5 -32q0 -34 51 -69l90 15z" />
    <glyph glyph-name="uniFE88" unicode="&#x625;" horiz-adv-x="223" arabic-form="final" 
d="M79 743l53 7v-577q0 -65 20.5 -90.5t75.5 -25.5l15 -28l-20 -29q-74 0 -109 41.5t-35 127.5v574zM227 -220l-198 -32l-5 34l68 11q-23 17 -35.5 37t-12.5 39q0 35 24.5 58t71.5 23q34 0 68 -19l-19 -32q-29 15 -52 15q-29 0 -42.5 -13t-13.5 -32q0 -34 51 -69l90 15z" />
    <glyph glyph-name="uniFE8A" unicode="&#x626;" horiz-adv-x="722" arabic-form="final" 
d="M722 0q-28 0 -50.5 5t-46.5 16q11 -19 11 -40q0 -48 -37.5 -89.5t-113 -67.5t-183.5 -26q-128 0 -188.5 61t-60.5 167q0 93 42 184l40 -13q-30 -78 -30 -164q0 -83 48 -130.5t155 -47.5q89 0 152 20t95 50.5t32 60.5q0 19 -14.5 33.5t-52 30.5t-111.5 39l24 50
q56 -19 106 -37q66 -25 104 -35t84 -10l15 -28zM243 332l-198 -32l-5 34l68 11q-23 17 -35.5 37t-12.5 39q0 35 24.5 58t71.5 23q34 0 68 -19l-19 -32q-29 15 -52 15q-29 0 -42.5 -13t-13.5 -32q0 -34 51 -69l90 15z" />
    <glyph glyph-name="uniFE8B" unicode="&#x626;" horiz-adv-x="269" arabic-form="initial" 
d="M99 68q32 11 43.5 35t11.5 68q0 83 -43 206l54 18q20 -58 30.5 -118t10.5 -109q0 -64 -18 -100t-62 -52t-126 -16l-20 29l25 28q62 0 94 11zM221 488l-198 -32l-5 34l68 11q-23 17 -35.5 37t-12.5 39q0 35 24.5 58t71.5 23q34 0 68 -19l-19 -32q-29 15 -52 15
q-29 0 -42.5 -13t-13.5 -32q0 -34 51 -69l90 15z" />
    <glyph glyph-name="uniFE8C" unicode="&#x626;" horiz-adv-x="327" arabic-form="medial" 
d="M347 29l-20 -29q-62 0 -102 20.5t-60 64.5q-19 -45 -58.5 -65t-106.5 -20l-20 29l26 28q54 0 82 13.5t38 38.5t10 67v145h54v-145q0 -62 31.5 -90.5t110.5 -28.5zM264 418l-198 -32l-5 34l68 11q-23 17 -35.5 37t-12.5 39q0 35 24.5 58t71.5 23q34 0 68 -19l-19 -32
q-29 15 -52 15q-29 0 -42.5 -13t-13.5 -32q0 -34 51 -69l90 15z" />
    <glyph glyph-name="uniFE8E" unicode="&#x627;" horiz-adv-x="223" arabic-form="final" 
d="M79 743l53 7v-577q0 -65 20.5 -90.5t75.5 -25.5l15 -28l-20 -29q-74 0 -109 41.5t-35 127.5v574z" />
    <glyph glyph-name="uniFE90" unicode="&#x628;" horiz-adv-x="917" arabic-form="final" 
d="M937 30l-20 -30q-67 0 -105 22.5t-62 59.5q-76 -47 -176 -71t-242 -24q-147 0 -213 46t-66 143q0 77 36 153l41 -14q-26 -66 -26 -132q0 -73 54 -106t179 -33q128 0 229.5 24t162.5 64v189h52v-147q0 -56 30 -86.5t111 -30.5zM336.5 -170.5q-10.5 10.5 -10.5 26.5
q0 15 10.5 26t26.5 11t26.5 -11t10.5 -26q0 -16 -10.5 -26.5t-26.5 -10.5t-26.5 10.5z" />
    <glyph glyph-name="uniFE91" unicode="&#x628;" horiz-adv-x="269" arabic-form="initial" 
d="M99 68q32 11 43.5 35t11.5 68q0 83 -43 206l54 18q20 -58 30.5 -118t10.5 -109q0 -64 -18 -100t-62 -52t-126 -16l-20 29l25 28q62 0 94 11zM96.5 -170.5q-10.5 10.5 -10.5 26.5q0 15 10.5 26t26.5 11t26.5 -11t10.5 -26q0 -16 -10.5 -26.5t-26.5 -10.5t-26.5 10.5z" />
    <glyph glyph-name="uniFE92" unicode="&#x628;" horiz-adv-x="327" arabic-form="medial" 
d="M347 29l-20 -29q-62 0 -102 20.5t-60 64.5q-19 -45 -58.5 -65t-106.5 -20l-20 29l26 28q54 0 82 13.5t38 38.5t10 67v145h54v-145q0 -62 31.5 -90.5t110.5 -28.5zM136.5 -170.5q-10.5 10.5 -10.5 26.5q0 15 10.5 26t26.5 11t26.5 -11t10.5 -26q0 -16 -10.5 -26.5
t-26.5 -10.5t-26.5 10.5z" />
    <glyph glyph-name="uniFE94" unicode="&#x629;" horiz-adv-x="498" arabic-form="final" 
d="M518 28l-20 -28h-15q-113 0 -139 111q-26 -34 -68.5 -54t-89.5 -20q-73 0 -116 39t-43 101q0 55 36 101t106 75t168 34v107l53 7v-319q0 -68 24.5 -96.5t73.5 -28.5h15zM276 109.5q37 18.5 61 49.5v176q-129 -5 -194 -47.5t-65 -105.5q0 -41 29 -66t87 -25q45 0 82 18.5z
M269.5 613q-10.5 10 -10.5 25q0 14 10.5 24.5t24.5 10.5t24 -10.5t10 -24.5q0 -15 -10 -25t-24 -10t-24.5 10zM407 613q-10 10 -10 25q0 14 10 24.5t25 10.5q14 0 24.5 -10.5t10.5 -24.5q0 -15 -10.5 -25t-24.5 -10q-15 0 -25 10z" />
    <glyph glyph-name="uniFE96" unicode="&#x62a;" horiz-adv-x="917" arabic-form="final" 
d="M937 30l-20 -30q-67 0 -105 22.5t-62 59.5q-76 -47 -176 -71t-242 -24q-147 0 -213 46t-66 143q0 77 36 153l41 -14q-26 -66 -26 -132q0 -73 54 -106t179 -33q128 0 229.5 24t162.5 64v189h52v-147q0 -56 30 -86.5t111 -30.5zM332.5 411q-10.5 10 -10.5 25
q0 14 10.5 24.5t24.5 10.5t24 -10.5t10 -24.5q0 -15 -10 -25t-24 -10t-24.5 10zM470 411q-10 10 -10 25q0 14 10 24.5t25 10.5q14 0 24.5 -10.5t10.5 -24.5q0 -15 -10.5 -25t-24.5 -10q-15 0 -25 10z" />
    <glyph glyph-name="uniFE97" unicode="&#x62a;" horiz-adv-x="269" arabic-form="initial" 
d="M99 68q32 11 43.5 35t11.5 68q0 83 -43 206l54 18q20 -58 30.5 -118t10.5 -109q0 -64 -18 -100t-62 -52t-126 -16l-20 29l25 28q62 0 94 11zM26.5 507q-10.5 10 -10.5 25q0 14 10.5 24.5t24.5 10.5t24 -10.5t10 -24.5q0 -15 -10 -25t-24 -10t-24.5 10zM164 507
q-10 10 -10 25q0 14 10 24.5t25 10.5q14 0 24.5 -10.5t10.5 -24.5q0 -15 -10.5 -25t-24.5 -10q-15 0 -25 10z" />
    <glyph glyph-name="uniFE98" unicode="&#x62a;" horiz-adv-x="327" arabic-form="medial" 
d="M347 29l-20 -29q-62 0 -102 20.5t-60 64.5q-19 -45 -58.5 -65t-106.5 -20l-20 29l26 28q54 0 82 13.5t38 38.5t10 67v145h54v-145q0 -62 31.5 -90.5t110.5 -28.5zM69.5 437q-10.5 10 -10.5 25q0 14 10.5 24.5t24.5 10.5t24 -10.5t10 -24.5q0 -15 -10 -25t-24 -10
t-24.5 10zM207 437q-10 10 -10 25q0 14 10 24.5t25 10.5q14 0 24.5 -10.5t10.5 -24.5q0 -15 -10.5 -25t-24.5 -10q-15 0 -25 10z" />
    <glyph glyph-name="uniFE9A" unicode="&#x62b;" horiz-adv-x="917" arabic-form="final" 
d="M937 30l-20 -30q-67 0 -105 22.5t-62 59.5q-76 -47 -176 -71t-242 -24q-147 0 -213 46t-66 143q0 77 36 153l41 -14q-26 -66 -26 -132q0 -73 54 -106t179 -33q128 0 229.5 24t162.5 64v189h52v-147q0 -56 30 -86.5t111 -30.5zM402 487q-10 10 -10 24t10 24t24 10t24 -10
t10 -24t-10 -24t-24 -10t-24 10zM329 381q-10 10 -10 24t10 23.5t25 9.5q14 0 24 -10t10 -23q0 -14 -10 -24t-24 -10q-15 0 -25 10zM474 381q-10 10 -10 24q0 13 10 23t24 10q15 0 25 -9.5t10 -23.5t-10 -24t-25 -10q-14 0 -24 10z" />
    <glyph glyph-name="uniFE9B" unicode="&#x62b;" horiz-adv-x="269" arabic-form="initial" 
d="M99 68q32 11 43.5 35t11.5 68q0 83 -43 206l54 18q20 -58 30.5 -118t10.5 -109q0 -64 -18 -100t-62 -52t-126 -16l-20 29l25 28q62 0 94 11zM96 583q-10 10 -10 24t10 24t24 10t24 -10t10 -24t-10 -24t-24 -10t-24 10zM23 477q-10 10 -10 24t10 23.5t25 9.5q14 0 24 -10
t10 -23q0 -14 -10 -24t-24 -10q-15 0 -25 10zM168 477q-10 10 -10 24q0 13 10 23t24 10q15 0 25 -9.5t10 -23.5t-10 -24t-25 -10q-14 0 -24 10z" />
    <glyph glyph-name="uniFE9C" unicode="&#x62b;" horiz-adv-x="327" arabic-form="medial" 
d="M347 29l-20 -29q-62 0 -102 20.5t-60 64.5q-19 -45 -58.5 -65t-106.5 -20l-20 29l26 28q54 0 82 13.5t38 38.5t10 67v145h54v-145q0 -62 31.5 -90.5t110.5 -28.5zM139 513q-10 10 -10 24t10 24t24 10t24 -10t10 -24t-10 -24t-24 -10t-24 10zM66 407q-10 10 -10 24
t10 23.5t25 9.5q14 0 24 -10t10 -23q0 -14 -10 -24t-24 -10q-15 0 -25 10zM211 407q-10 10 -10 24q0 13 10 23t24 10q15 0 25 -9.5t10 -23.5t-10 -24t-25 -10q-14 0 -24 10z" />
    <glyph glyph-name="uniFE9E" unicode="&#x62c;" horiz-adv-x="681" arabic-form="final" 
d="M199.5 106q-87.5 -73 -87.5 -184q0 -100 71.5 -159t207.5 -59q62 0 118.5 12.5t96.5 33.5l22 -50q-42 -24 -105.5 -39t-137.5 -15q-107 0 -179 34.5t-107 95t-35 138.5q0 143 109.5 231.5t316.5 102.5q-36 15 -62 31.5t-63 43.5q-42 32 -71 46t-71 14q-37 0 -66 -9
t-59 -27l-27 50q72 43 156 43q54 0 92 -20t87 -62q49 -41 90 -65.5t101 -37.5l-6 -49l-59 -2q-11 0 -31 -2q11 -58 34 -89.5t59 -43.5t92 -12l15 -28l-20 -29q-99 0 -155 47.5t-68 150.5q-171 -19 -258.5 -92zM333.5 -95.5q-10.5 10.5 -10.5 26.5q0 15 10.5 26t26.5 11
t26.5 -11t10.5 -26q0 -16 -10.5 -26.5t-26.5 -10.5t-26.5 10.5z" />
    <glyph glyph-name="uniFE9F" unicode="&#x62c;" horiz-adv-x="695" arabic-form="initial" 
d="M310 427.5q36 -12.5 61.5 -31t61.5 -51.5q53 -49 98.5 -79t119.5 -50l-9 -50l-65 -5q-83 -4 -149 -25t-154 -61q-85 -38 -144 -56.5t-130 -18.5l-20 29l25 29q65 0 118.5 16.5t134.5 51.5q81 36 145 56.5t145 26.5q-51 19 -85.5 42.5t-73.5 57.5q-31 26 -51.5 40.5
t-49 24t-66.5 9.5q-59 0 -118 -36l-27 50q72 43 147 43q50 0 86 -12.5zM271.5 -170.5q-10.5 10.5 -10.5 26.5q0 15 10.5 26t26.5 11t26.5 -11t10.5 -26q0 -16 -10.5 -26.5t-26.5 -10.5t-26.5 10.5z" />
    <glyph glyph-name="uniFEA0" unicode="&#x62c;" horiz-adv-x="727" arabic-form="medial" 
d="M747 29l-20 -29q-205 0 -234 187q-45 -11 -85.5 -30t-110.5 -56q-63 -34 -104 -53.5t-90.5 -33.5t-102.5 -14l-20 29l25 28q68 0 126 21.5t142 65.5q82 42 138 64.5t124 31.5q-50 17 -85.5 36.5t-73.5 47.5q-45 31 -75.5 45t-78.5 14q-32 0 -60.5 -8.5t-59.5 -25.5
l-27 49q75 42 148 42q46 0 79 -9.5t57 -24.5t59 -42q52 -41 99.5 -67.5t124.5 -46.5l-7 -50l-65 -2q-17 0 -34 -3q16 -80 63 -109t134 -29zM357.5 -120.5q-10.5 10.5 -10.5 26.5q0 15 10.5 26t26.5 11t26.5 -11t10.5 -26q0 -16 -10.5 -26.5t-26.5 -10.5t-26.5 10.5z" />
    <glyph glyph-name="uniFEA2" unicode="&#x62d;" horiz-adv-x="681" arabic-form="final" 
d="M199.5 106q-87.5 -73 -87.5 -184q0 -100 71.5 -159t207.5 -59q62 0 118.5 12.5t96.5 33.5l22 -50q-42 -24 -105.5 -39t-137.5 -15q-107 0 -179 34.5t-107 95t-35 138.5q0 143 109.5 231.5t316.5 102.5q-36 15 -62 31.5t-63 43.5q-42 32 -71 46t-71 14q-37 0 -66 -9
t-59 -27l-27 50q72 43 156 43q54 0 92 -20t87 -62q49 -41 90 -65.5t101 -37.5l-6 -49l-59 -2q-11 0 -31 -2q11 -58 34 -89.5t59 -43.5t92 -12l15 -28l-20 -29q-99 0 -155 47.5t-68 150.5q-171 -19 -258.5 -92z" />
    <glyph glyph-name="uniFEA3" unicode="&#x62d;" horiz-adv-x="695" arabic-form="initial" 
d="M310 427.5q36 -12.5 61.5 -31t61.5 -51.5q53 -49 98.5 -79t119.5 -50l-9 -50l-65 -5q-83 -4 -149 -25t-154 -61q-85 -38 -144 -56.5t-130 -18.5l-20 29l25 29q65 0 118.5 16.5t134.5 51.5q81 36 145 56.5t145 26.5q-51 19 -85.5 42.5t-73.5 57.5q-31 26 -51.5 40.5
t-49 24t-66.5 9.5q-59 0 -118 -36l-27 50q72 43 147 43q50 0 86 -12.5z" />
    <glyph glyph-name="uniFEA4" unicode="&#x62d;" horiz-adv-x="727" arabic-form="medial" 
d="M747 29l-20 -29q-205 0 -234 187q-45 -11 -85.5 -30t-110.5 -56q-63 -34 -104 -53.5t-90.5 -33.5t-102.5 -14l-20 29l25 28q68 0 126 21.5t142 65.5q82 42 138 64.5t124 31.5q-50 17 -85.5 36.5t-73.5 47.5q-45 31 -75.5 45t-78.5 14q-32 0 -60.5 -8.5t-59.5 -25.5
l-27 49q75 42 148 42q46 0 79 -9.5t57 -24.5t59 -42q52 -41 99.5 -67.5t124.5 -46.5l-7 -50l-65 -2q-17 0 -34 -3q16 -80 63 -109t134 -29z" />
    <glyph glyph-name="uniFEA6" unicode="&#x62e;" horiz-adv-x="681" arabic-form="final" 
d="M199.5 106q-87.5 -73 -87.5 -184q0 -100 71.5 -159t207.5 -59q62 0 118.5 12.5t96.5 33.5l22 -50q-42 -24 -105.5 -39t-137.5 -15q-107 0 -179 34.5t-107 95t-35 138.5q0 143 109.5 231.5t316.5 102.5q-36 15 -62 31.5t-63 43.5q-42 32 -71 46t-71 14q-37 0 -66 -9
t-59 -27l-27 50q72 43 156 43q54 0 92 -20t87 -62q49 -41 90 -65.5t101 -37.5l-6 -49l-59 -2q-11 0 -31 -2q11 -58 34 -89.5t59 -43.5t92 -12l15 -28l-20 -29q-99 0 -155 47.5t-68 150.5q-171 -19 -258.5 -92zM198.5 515.5q-10.5 10.5 -10.5 26.5q0 15 10.5 26t26.5 11
t26.5 -11t10.5 -26q0 -16 -10.5 -26.5t-26.5 -10.5t-26.5 10.5z" />
    <glyph glyph-name="uniFEA7" unicode="&#x62e;" horiz-adv-x="695" arabic-form="initial" 
d="M310 427.5q36 -12.5 61.5 -31t61.5 -51.5q53 -49 98.5 -79t119.5 -50l-9 -50l-65 -5q-83 -4 -149 -25t-154 -61q-85 -38 -144 -56.5t-130 -18.5l-20 29l25 29q65 0 118.5 16.5t134.5 51.5q81 36 145 56.5t145 26.5q-51 19 -85.5 42.5t-73.5 57.5q-31 26 -51.5 40.5
t-49 24t-66.5 9.5q-59 0 -118 -36l-27 50q72 43 147 43q50 0 86 -12.5zM196.5 515.5q-10.5 10.5 -10.5 26.5q0 15 10.5 26t26.5 11t26.5 -11t10.5 -26q0 -16 -10.5 -26.5t-26.5 -10.5t-26.5 10.5z" />
    <glyph glyph-name="uniFEA8" unicode="&#x62e;" horiz-adv-x="727" arabic-form="medial" 
d="M747 29l-20 -29q-205 0 -234 187q-45 -11 -85.5 -30t-110.5 -56q-63 -34 -104 -53.5t-90.5 -33.5t-102.5 -14l-20 29l25 28q68 0 126 21.5t142 65.5q82 42 138 64.5t124 31.5q-50 17 -85.5 36.5t-73.5 47.5q-45 31 -75.5 45t-78.5 14q-32 0 -60.5 -8.5t-59.5 -25.5
l-27 49q75 42 148 42q46 0 79 -9.5t57 -24.5t59 -42q52 -41 99.5 -67.5t124.5 -46.5l-7 -50l-65 -2q-17 0 -34 -3q16 -80 63 -109t134 -29zM195.5 515.5q-10.5 10.5 -10.5 26.5q0 15 10.5 26t26.5 11t26.5 -11t10.5 -26q0 -16 -10.5 -26.5t-26.5 -10.5t-26.5 10.5z" />
    <glyph glyph-name="uniFEAA" unicode="&#x62f;" horiz-adv-x="518" arabic-form="final" 
d="M538 29l-20 -29q-48 0 -81.5 21.5t-51.5 59.5q-30 -47 -82.5 -70.5t-121.5 -23.5q-75 0 -154 25l17 56q73 -22 141 -22q57 0 103 19t78 54l-150 355l57 27l131 -340q23 -59 47 -81.5t71 -22.5z" />
    <glyph glyph-name="uniFEAC" unicode="&#x630;" horiz-adv-x="518" arabic-form="final" 
d="M538 29l-20 -29q-48 0 -81.5 21.5t-51.5 59.5q-30 -47 -82.5 -70.5t-121.5 -23.5q-75 0 -154 25l17 56q73 -22 141 -22q57 0 103 19t78 54l-150 355l57 27l131 -340q23 -59 47 -81.5t71 -22.5zM160.5 587.5q-10.5 10.5 -10.5 26.5q0 15 10.5 26t26.5 11t26.5 -11
t10.5 -26q0 -16 -10.5 -26.5t-26.5 -10.5t-26.5 10.5z" />
    <glyph glyph-name="uniFEAE" unicode="&#x631;" horiz-adv-x="382" arabic-form="final" 
d="M402 29l-20 -29q-41 0 -65.5 14.5t-37.5 41.5q-7 -112 -77 -186.5t-206 -116.5l-23 55q262 79 262 269q0 89 -58 234l58 19q21 -70 36 -149q13 -67 39.5 -95.5t77.5 -28.5z" />
    <glyph glyph-name="uniFEB0" unicode="&#x632;" horiz-adv-x="382" arabic-form="final" 
d="M402 29l-20 -29q-41 0 -65.5 14.5t-37.5 41.5q-7 -112 -77 -186.5t-206 -116.5l-23 55q262 79 262 269q0 89 -58 234l58 19q21 -70 36 -149q13 -67 39.5 -95.5t77.5 -28.5zM161.5 437.5q-10.5 10.5 -10.5 26.5q0 15 10.5 26t26.5 11t26.5 -11t10.5 -26q0 -16 -10.5 -26.5
t-26.5 -10.5t-26.5 10.5z" />
    <glyph glyph-name="uniFEB2" unicode="&#x633;" horiz-adv-x="1310" arabic-form="final" 
d="M1330 29l-20 -29q-146 0 -178 77q-19 -38 -56 -57.5t-88 -19.5q-47 0 -83 20t-53 57q-37 -77 -137 -77h-1v0q-74 0 -112 44q-4 -156 -76 -223t-224 -67q-128 0 -188.5 61t-60.5 167q0 91 42 184l40 -13q-30 -78 -30 -164q0 -83 48 -130.5t155 -47.5q89 0 142 25t77 77.5
t24 138.5q0 51 -14 102t-45 126l58 24q5 -19 15 -51q16 -54 25 -87q17 -60 46.5 -84.5t83.5 -24.5q50 0 76.5 30.5t26.5 90.5v143h53v-142q0 -122 115 -122q52 0 79.5 27t27.5 82v195h53v-179q0 -48 15.5 -75t51 -38.5t97.5 -11.5z" />
    <glyph glyph-name="uniFEB3" unicode="&#x633;" horiz-adv-x="813" arabic-form="initial" 
d="M740 281q10 -57 10 -106q0 -88 -41 -131.5t-115 -43.5q-49 0 -85 20.5t-53 57.5q-17 -37 -51.5 -57.5t-84.5 -20.5t-86 20t-51 56q-21 -39 -65.5 -57.5t-117.5 -18.5l-20 29l25 28q77 0 114.5 26t37.5 82v156h51v-142q0 -67 28.5 -94.5t84.5 -27.5q52 0 79.5 30.5
t27.5 90.5v143h52v-142q0 -122 118 -122q51 0 75 27.5t24 85.5q0 94 -39 207l51 17q21 -56 31 -113z" />
    <glyph glyph-name="uniFEB4" unicode="&#x633;" horiz-adv-x="926" arabic-form="medial" 
d="M946 29l-20 -29q-145 0 -178 76q-38 -76 -143 -76q-49 0 -85.5 20.5t-53.5 56.5q-18 -36 -52.5 -56.5t-84.5 -20.5t-86.5 20t-52.5 56q-22 -39 -68.5 -57.5t-121.5 -18.5l-20 29l26 28q78 0 117.5 26.5t39.5 81.5v156h52v-142q0 -66 29.5 -94t85.5 -28q53 0 80.5 30.5
t27.5 90.5v143h52v-142q0 -122 118 -122q106 0 106 109v200h53v-184q0 -48 15.5 -75t51 -38.5t97.5 -11.5z" />
    <glyph glyph-name="uniFEB6" unicode="&#x634;" horiz-adv-x="1310" arabic-form="final" 
d="M1330 29l-20 -29q-146 0 -178 77q-19 -38 -56 -57.5t-88 -19.5q-47 0 -83 20t-53 57q-37 -77 -137 -77h-1v0q-74 0 -112 44q-4 -156 -76 -223t-224 -67q-128 0 -188.5 61t-60.5 167q0 91 42 184l40 -13q-30 -78 -30 -164q0 -83 48 -130.5t155 -47.5q89 0 142 25t77 77.5
t24 138.5q0 51 -14 102t-45 126l58 24q5 -19 15 -51q16 -54 25 -87q17 -60 46.5 -84.5t83.5 -24.5q50 0 76.5 30.5t26.5 90.5v143h53v-142q0 -122 115 -122q52 0 79.5 27t27.5 82v195h53v-179q0 -48 15.5 -75t51 -38.5t97.5 -11.5zM825 513q-10 10 -10 24t10 24t24 10
t24 -10t10 -24t-10 -24t-24 -10t-24 10zM752 407q-10 10 -10 24t10 23.5t25 9.5q14 0 24 -10t10 -23q0 -14 -10 -24t-24 -10q-15 0 -25 10zM897 407q-10 10 -10 24q0 13 10 23t24 10q15 0 25 -9.5t10 -23.5t-10 -24t-25 -10q-14 0 -24 10z" />
    <glyph glyph-name="uniFEB7" unicode="&#x634;" horiz-adv-x="813" arabic-form="initial" 
d="M740 281q10 -57 10 -106q0 -88 -41 -131.5t-115 -43.5q-49 0 -85 20.5t-53 57.5q-17 -37 -51.5 -57.5t-84.5 -20.5t-86 20t-51 56q-21 -39 -65.5 -57.5t-117.5 -18.5l-20 29l25 28q77 0 114.5 26t37.5 82v156h51v-142q0 -67 28.5 -94.5t84.5 -27.5q52 0 79.5 30.5
t27.5 90.5v143h52v-142q0 -122 118 -122q51 0 75 27.5t24 85.5q0 94 -39 207l51 17q21 -56 31 -113zM430 513q-10 10 -10 24t10 24t24 10t24 -10t10 -24t-10 -24t-24 -10t-24 10zM357 407q-10 10 -10 24t10 23.5t25 9.5q14 0 24 -10t10 -23q0 -14 -10 -24t-24 -10
q-15 0 -25 10zM502 407q-10 10 -10 24q0 13 10 23t24 10q15 0 25 -9.5t10 -23.5t-10 -24t-25 -10q-14 0 -24 10z" />
    <glyph glyph-name="uniFEB8" unicode="&#x634;" horiz-adv-x="926" arabic-form="medial" 
d="M946 29l-20 -29q-145 0 -178 76q-38 -76 -143 -76q-49 0 -85.5 20.5t-53.5 56.5q-18 -36 -52.5 -56.5t-84.5 -20.5t-86.5 20t-52.5 56q-22 -39 -68.5 -57.5t-121.5 -18.5l-20 29l26 28q78 0 117.5 26.5t39.5 81.5v156h52v-142q0 -66 29.5 -94t85.5 -28q53 0 80.5 30.5
t27.5 90.5v143h52v-142q0 -122 118 -122q106 0 106 109v200h53v-184q0 -48 15.5 -75t51 -38.5t97.5 -11.5zM440 513q-10 10 -10 24t10 24t24 10t24 -10t10 -24t-10 -24t-24 -10t-24 10zM367 407q-10 10 -10 24t10 23.5t25 9.5q14 0 24 -10t10 -23q0 -14 -10 -24t-24 -10
q-15 0 -25 10zM512 407q-10 10 -10 24q0 13 10 23t24 10q15 0 25 -9.5t10 -23.5t-10 -24t-25 -10q-14 0 -24 10z" />
    <glyph glyph-name="uniFEBA" unicode="&#x635;" horiz-adv-x="1356" arabic-form="final" 
d="M1376 29l-20 -29q-43 0 -79 20t-60 54q-40 -42 -126 -58t-244 -16h-132v2q-75 0 -113 44q-4 -156 -76 -223t-224 -67q-128 0 -188.5 61t-60.5 168q0 92 42 183l40 -13q-30 -78 -30 -164q0 -83 48 -130.5t155 -47.5q89 0 142 25t77 77.5t24 138.5q0 51 -14 102t-45 126
l58 24l16 -55q5 -16 24 -82q15 -53 38.5 -78t63.5 -30q37 115 93.5 199.5t126.5 130.5t144 46q95 0 149 -59.5t54 -166.5q0 -58 -16 -96q22 -31 51 -44.5t67 -13.5zM1065 69.5q77 12.5 111.5 46t34.5 98.5q0 164 -151 164q-196 0 -320 -321h107q141 0 218 12.5z" />
    <glyph glyph-name="uniFEBB" unicode="&#x635;" horiz-adv-x="923" arabic-form="initial" 
d="M806 377.5q54 -59.5 54 -166.5q0 -88 -39 -133t-125.5 -61.5t-248.5 -16.5h-132q-59 0 -97.5 20t-58.5 63q-19 -44 -57 -63.5t-102 -19.5l-20 29l26 28q51 0 78 13t37 37.5t10 65.5v207h53v-207q0 -54 24.5 -82t82.5 -33q37 116 94.5 201.5t127.5 131.5t144 46
q95 0 149 -59.5zM665.5 69.5q76.5 12.5 111 46t34.5 98.5q0 164 -150 164q-98 0 -177.5 -79.5t-143.5 -241.5h107q142 0 218.5 12.5z" />
    <glyph glyph-name="uniFEBC" unicode="&#x635;" horiz-adv-x="957" arabic-form="medial" 
d="M977 29l-20 -29q-43 0 -79 20t-60 54q-40 -42 -126.5 -58t-244.5 -16h-132q-59 0 -97.5 20t-58.5 63q-19 -44 -57 -63.5t-102 -19.5l-20 29l26 28q51 0 78 13t37 37.5t10 65.5v207h53v-207q0 -54 24.5 -82t82.5 -33q37 116 94.5 201.5t127.5 131.5t144 46q95 0 149 -59.5
t54 -166.5q0 -58 -16 -96q23 -31 51 -44.5t67 -13.5zM665.5 69.5q76.5 12.5 111 46t34.5 98.5q0 164 -150 164q-98 0 -177.5 -79.5t-143.5 -241.5h107q142 0 218.5 12.5z" />
    <glyph glyph-name="uniFEBE" unicode="&#x636;" horiz-adv-x="1356" arabic-form="final" 
d="M995.5 501q-10.5 11 -10.5 26q0 16 10.5 26.5t26.5 10.5t26.5 -10.5t10.5 -26.5q0 -15 -10.5 -26t-26.5 -11t-26.5 11zM1376 29l-20 -29q-43 0 -79 20t-60 54q-40 -42 -126 -58t-244 -16h-132v2q-75 0 -113 44q-4 -156 -76 -223t-224 -67q-128 0 -188.5 61t-60.5 168
q0 92 42 183l40 -13q-30 -78 -30 -164q0 -83 48 -130.5t155 -47.5q89 0 142 25t77 77.5t24 138.5q0 51 -14 102t-45 126l58 24l16 -55q5 -16 24 -82q15 -53 38.5 -78t63.5 -30q37 115 93.5 199.5t126.5 130.5t144 46q95 0 149 -59.5t54 -166.5q0 -58 -16 -96
q22 -31 51 -44.5t67 -13.5zM1065 69.5q77 12.5 111.5 46t34.5 98.5q0 164 -151 164q-196 0 -320 -321h107q141 0 218 12.5z" />
    <glyph glyph-name="uniFEBF" unicode="&#x636;" horiz-adv-x="923" arabic-form="initial" 
d="M596.5 501q-10.5 11 -10.5 26q0 16 10.5 26.5t26.5 10.5t26.5 -10.5t10.5 -26.5q0 -15 -10.5 -26t-26.5 -11t-26.5 11zM806 377.5q54 -59.5 54 -166.5q0 -88 -39 -133t-125.5 -61.5t-248.5 -16.5h-132q-59 0 -97.5 20t-58.5 63q-19 -44 -57 -63.5t-102 -19.5l-20 29
l26 28q51 0 78 13t37 37.5t10 65.5v207h53v-207q0 -54 24.5 -82t82.5 -33q37 116 94.5 201.5t127.5 131.5t144 46q95 0 149 -59.5zM665.5 69.5q76.5 12.5 111 46t34.5 98.5q0 164 -150 164q-98 0 -177.5 -79.5t-143.5 -241.5h107q142 0 218.5 12.5z" />
    <glyph glyph-name="uniFEC0" unicode="&#x636;" horiz-adv-x="957" arabic-form="medial" 
d="M596.5 501q-10.5 11 -10.5 26q0 16 10.5 26.5t26.5 10.5t26.5 -10.5t10.5 -26.5q0 -15 -10.5 -26t-26.5 -11t-26.5 11zM977 29l-20 -29q-43 0 -79 20t-60 54q-40 -42 -126.5 -58t-244.5 -16h-132q-59 0 -97.5 20t-58.5 63q-19 -44 -57 -63.5t-102 -19.5l-20 29l26 28
q51 0 78 13t37 37.5t10 65.5v207h53v-207q0 -54 24.5 -82t82.5 -33q37 116 94.5 201.5t127.5 131.5t144 46q95 0 149 -59.5t54 -166.5q0 -58 -16 -96q23 -31 51 -44.5t67 -13.5zM665.5 69.5q76.5 12.5 111 46t34.5 98.5q0 164 -150 164q-98 0 -177.5 -79.5t-143.5 -241.5
h107q142 0 218.5 12.5z" />
    <glyph glyph-name="uniFEC2" unicode="&#x637;" horiz-adv-x="826" arabic-form="final" 
d="M846 29l-20 -29q-43 0 -79 20t-60 54q-40 -42 -126.5 -58t-244.5 -16h-281l11 57h114q10 33 31 84v602l53 8v-508q57 93 130.5 143.5t151.5 50.5q95 0 149 -59.5t54 -166.5q0 -58 -16 -96q23 -31 51 -44.5t67 -13.5zM534.5 69.5q76.5 12.5 111 46t34.5 98.5
q0 164 -151 164q-196 0 -320 -321h107q142 0 218.5 12.5z" />
    <glyph glyph-name="uniFEC3" unicode="&#x637;" horiz-adv-x="794" arabic-form="initial" 
d="M677 377.5q54 -59.5 54 -166.5q0 -88 -39 -133t-125.5 -61.5t-248.5 -16.5h-318l-20 29l25 28h157q10 33 31 84v602l53 8v-508q57 93 130.5 143.5t151.5 50.5q95 0 149 -59.5zM536.5 69.5q76.5 12.5 111 46t34.5 98.5q0 164 -151 164q-196 0 -320 -321h107
q142 0 218.5 12.5z" />
    <glyph glyph-name="uniFEC4" unicode="&#x637;" horiz-adv-x="828" arabic-form="medial" 
d="M848 29l-20 -29q-43 0 -79 20t-60 54q-40 -42 -126.5 -58t-244.5 -16h-318l-20 29l25 28h157q10 33 31 84v602l53 8v-508q57 93 130.5 143.5t151.5 50.5q95 0 149 -59.5t54 -166.5q0 -58 -16 -96q23 -31 51 -44.5t67 -13.5zM536.5 69.5q76.5 12.5 111 46t34.5 98.5
q0 164 -151 164q-196 0 -320 -321h107q142 0 218.5 12.5z" />
    <glyph glyph-name="uniFEC6" unicode="&#x638;" horiz-adv-x="826" arabic-form="final" 
d="M846 29l-20 -29q-43 0 -79 20t-60 54q-40 -42 -126.5 -58t-244.5 -16h-281l11 57h114q10 33 31 84v602l53 8v-508q57 93 130.5 143.5t151.5 50.5q95 0 149 -59.5t54 -166.5q0 -58 -16 -96q23 -31 51 -44.5t67 -13.5zM534.5 69.5q76.5 12.5 111 46t34.5 98.5
q0 164 -151 164q-196 0 -320 -321h107q142 0 218.5 12.5zM459.5 500.5q-10.5 10.5 -10.5 26.5q0 15 10.5 26t26.5 11t26.5 -11t10.5 -26q0 -16 -10.5 -26.5t-26.5 -10.5t-26.5 10.5z" />
    <glyph glyph-name="uniFEC7" unicode="&#x638;" horiz-adv-x="793" arabic-form="initial" 
d="M677 377.5q54 -59.5 54 -166.5q0 -88 -39 -133t-125.5 -61.5t-248.5 -16.5h-318l-20 29l25 28h157q10 33 31 84v602l53 8v-508q57 93 130.5 143.5t151.5 50.5q95 0 149 -59.5zM536.5 69.5q76.5 12.5 111 46t34.5 98.5q0 164 -151 164q-196 0 -320 -321h107
q142 0 218.5 12.5zM460.5 500.5q-10.5 10.5 -10.5 26.5q0 15 10.5 26t26.5 11t26.5 -11t10.5 -26q0 -16 -10.5 -26.5t-26.5 -10.5t-26.5 10.5z" />
    <glyph glyph-name="uniFEC8" unicode="&#x638;" horiz-adv-x="827" arabic-form="medial" 
d="M848 29l-20 -29q-43 0 -79 20t-60 54q-40 -42 -126.5 -58t-244.5 -16h-318l-20 29l25 28h157q10 33 31 84v602l53 8v-508q57 93 130.5 143.5t151.5 50.5q95 0 149 -59.5t54 -166.5q0 -58 -16 -96q23 -31 51 -44.5t67 -13.5zM536.5 69.5q76.5 12.5 111 46t34.5 98.5
q0 164 -151 164q-196 0 -320 -321h107q142 0 218.5 12.5zM460.5 500.5q-10.5 10.5 -10.5 26.5q0 15 10.5 26t26.5 11t26.5 -11t10.5 -26q0 -16 -10.5 -26.5t-26.5 -10.5t-26.5 10.5z" />
    <glyph glyph-name="uniFECA" unicode="&#x639;" horiz-adv-x="559" arabic-form="final" 
d="M546 -252l22 -50q-91 -52 -230 -52q-95 0 -160 31.5t-97.5 84.5t-32.5 118q0 176 188 259l-25 26q-40 41 -76 74.5t-89 73.5l7 57q109 44 225 44q104 0 151.5 -31.5t47.5 -91.5q0 -52 -35 -90.5t-110 -74.5q51 -41 91.5 -55t112.5 -14h28l15 -28l-20 -29h-34
q-70 0 -127 23.5t-121 77.5q-95 -42 -137.5 -92t-42.5 -121q0 -53 28 -94.5t83.5 -65.5t135.5 -24q116 0 202 44zM224 222q43 -41 65 -60q73 31 106.5 59t33.5 65t-36.5 55t-114.5 18q-46 0 -92.5 -9t-81.5 -21q51 -38 120 -107z" />
    <glyph glyph-name="uniFECB" unicode="&#x639;" horiz-adv-x="548" arabic-form="initial" 
d="M527 52q-131 -31 -219.5 -41.5t-205.5 -10.5h-102l-20 29l25 28h85q78 0 110 2q-63 37 -94.5 87.5t-31.5 104.5q0 47 23.5 88t70.5 66.5t113 25.5q33 0 72 -9t74 -28l-25 -54q-30 16 -62.5 24.5t-58.5 8.5q-76 0 -115 -36.5t-39 -89.5q0 -107 149 -183q52 5 107.5 15.5
t137.5 29.5z" />
    <glyph glyph-name="uniFECC" unicode="&#x639;" horiz-adv-x="562" arabic-form="medial" 
d="M582 28l-20 -28h-27q-66 0 -120.5 20t-103.5 60q-69 -37 -146 -58.5t-136 -21.5h-29l-20 28l25 29h14q57 0 124 16t127 44q-8 7 -45 47q-42 45 -77.5 78.5t-88.5 70.5l7 57q107 44 216 44q102 0 152.5 -33.5t50.5 -93.5q0 -49 -33.5 -94t-90.5 -83q41 -30 80.5 -41.5
t104.5 -11.5h22zM173.5 282q26.5 -24 63.5 -61q53 -53 83 -78q54 31 85.5 66.5t31.5 72.5t-39 57t-116 20q-82 0 -166 -30q31 -23 57.5 -47z" />
    <glyph glyph-name="uniFECE" unicode="&#x63a;" horiz-adv-x="559" arabic-form="final" 
d="M546 -252l22 -50q-91 -52 -230 -52q-95 0 -160 31.5t-97.5 84.5t-32.5 118q0 176 188 259l-25 26q-40 41 -76 74.5t-89 73.5l7 57q109 44 225 44q104 0 151.5 -31.5t47.5 -91.5q0 -52 -35 -90.5t-110 -74.5q51 -41 91.5 -55t112.5 -14h28l15 -28l-20 -29h-34
q-70 0 -127 23.5t-121 77.5q-95 -42 -137.5 -92t-42.5 -121q0 -53 28 -94.5t83.5 -65.5t135.5 -24q116 0 202 44zM224 222q43 -41 65 -60q73 31 106.5 59t33.5 65t-36.5 55t-114.5 18q-46 0 -92.5 -9t-81.5 -21q51 -38 120 -107zM256.5 498.5q-10.5 10.5 -10.5 26.5
q0 15 10.5 26t26.5 11t26.5 -11t10.5 -26q0 -16 -10.5 -26.5t-26.5 -10.5t-26.5 10.5z" />
    <glyph glyph-name="uniFECF" unicode="&#x63a;" horiz-adv-x="548" arabic-form="initial" 
d="M527 52q-131 -31 -219.5 -41.5t-205.5 -10.5h-102l-20 29l25 28h85q78 0 110 2q-63 37 -94.5 87.5t-31.5 104.5q0 47 23.5 88t70.5 66.5t113 25.5q33 0 72 -9t74 -28l-25 -54q-30 16 -62.5 24.5t-58.5 8.5q-76 0 -115 -36.5t-39 -89.5q0 -107 149 -183q52 5 107.5 15.5
t137.5 29.5zM253.5 505.5q-10.5 10.5 -10.5 26.5q0 15 10.5 26t26.5 11t26.5 -11t10.5 -26q0 -16 -10.5 -26.5t-26.5 -10.5t-26.5 10.5z" />
    <glyph glyph-name="uniFED0" unicode="&#x63a;" horiz-adv-x="562" arabic-form="medial" 
d="M582 28l-20 -28h-27q-66 0 -120.5 20t-103.5 60q-69 -37 -146 -58.5t-136 -21.5h-29l-20 28l25 29h14q57 0 124 16t127 44q-8 7 -45 47q-42 45 -77.5 78.5t-88.5 70.5l7 57q107 44 216 44q102 0 152.5 -33.5t50.5 -93.5q0 -49 -33.5 -94t-90.5 -83q41 -30 80.5 -41.5
t104.5 -11.5h22zM173.5 282q26.5 -24 63.5 -61q53 -53 83 -78q54 31 85.5 66.5t31.5 72.5t-39 57t-116 20q-82 0 -166 -30q31 -23 57.5 -47zM254.5 499.5q-10.5 10.5 -10.5 26.5q0 15 10.5 26t26.5 11t26.5 -11t10.5 -26q0 -16 -10.5 -26.5t-26.5 -10.5t-26.5 10.5z" />
    <glyph glyph-name="uniFED2" unicode="&#x641;" horiz-adv-x="959" arabic-form="final" 
d="M979 29l-20 -29h-37q-53 0 -107 12.5t-102 35.5q-142 -61 -381 -61q-147 0 -213 46t-66 143q0 77 36 153l41 -14q-26 -66 -26 -132q0 -73 54 -106t179 -33q194 0 319 37q-52 37 -82.5 85t-30.5 102q0 51 22.5 96t61.5 71.5t85 26.5q53 0 93 -26.5t62 -71.5t22 -97
q0 -51 -28.5 -100.5t-89.5 -87.5q74 -22 151 -22h41zM624.5 172q32.5 -42 88.5 -69q64 29 95.5 71t31.5 93q0 60 -34.5 99t-90.5 39q-54 0 -88.5 -39t-34.5 -98q0 -54 32.5 -96zM684.5 538.5q-10.5 10.5 -10.5 26.5q0 15 10.5 26t26.5 11t26.5 -11t10.5 -26
q0 -16 -10.5 -26.5t-26.5 -10.5t-26.5 10.5z" />
    <glyph glyph-name="uniFED3" unicode="&#x641;" horiz-adv-x="459" arabic-form="initial" 
d="M308 514.5q41 -31.5 64.5 -92.5t23.5 -146q0 -103 -34.5 -162t-119.5 -86.5t-242 -27.5l-20 30l25 27q133 0 205.5 18t101.5 53t34 94q-20 -19 -52.5 -28.5t-71.5 -9.5q-83 0 -133.5 48t-50.5 125q0 50 23 93.5t63.5 69.5t89.5 26q53 0 94 -31.5zM296 241q30 7 52 19v7
q0 111 -36 166.5t-99 55.5q-55 0 -90.5 -37.5t-35.5 -90.5q0 -59 39 -93t113 -34q27 0 57 7zM185.5 623.5q-10.5 10.5 -10.5 26.5q0 15 10.5 26t26.5 11t26.5 -11t10.5 -26q0 -16 -10.5 -26.5t-26.5 -10.5t-26.5 10.5z" />
    <glyph glyph-name="uniFED4" unicode="&#x641;" horiz-adv-x="494" arabic-form="medial" 
d="M514 29l-20 -29h-37q-52 0 -104.5 12t-98.5 34q-100 -46 -223 -46h-31l-20 29l25 28h32q90 0 159 21q-54 37 -85.5 85.5t-31.5 104.5q0 51 22.5 96t61.5 71.5t85 26.5q53 0 93 -26.5t62 -71.5t22 -97q0 -50 -30 -100.5t-85 -88.5q69 -21 147 -21h42zM161.5 171
q33.5 -42 91.5 -71q59 28 91 71t32 96q0 60 -34.5 99t-91.5 39q-53 0 -87.5 -39t-34.5 -98q0 -55 33.5 -97zM220.5 537.5q-10.5 10.5 -10.5 26.5q0 15 10.5 26t26.5 11t26.5 -11t10.5 -26q0 -16 -10.5 -26.5t-26.5 -10.5t-26.5 10.5z" />
    <glyph glyph-name="uniFED6" unicode="&#x642;" horiz-adv-x="764" arabic-form="final" 
d="M764 0h-98q-14 -120 -83.5 -183t-225.5 -63q-165 0 -234.5 59t-69.5 169q0 91 42 184l40 -13q-30 -78 -30 -164q0 -85 57.5 -131.5t199.5 -46.5q134 0 190 49.5t67 139.5h-88q-105 0 -161 48.5t-56 127.5q0 50 23 93.5t63.5 69t88.5 25.5q53 0 94 -31.5t64.5 -93.5
t23.5 -150q0 -22 -1 -32h99l15 -28zM623 57v24q0 114 -35.5 170.5t-98.5 56.5q-55 0 -91 -37.5t-36 -90.5q0 -58 42.5 -90.5t121.5 -32.5h97zM396.5 467q-10.5 10 -10.5 25q0 14 10.5 24.5t24.5 10.5t24 -10.5t10 -24.5q0 -15 -10 -25t-24 -10t-24.5 10zM534 467
q-10 10 -10 25q0 14 10 24.5t25 10.5q14 0 24.5 -10.5t10.5 -24.5q0 -15 -10.5 -25t-24.5 -10q-15 0 -25 10z" />
    <glyph glyph-name="uniFED7" unicode="&#x642;" horiz-adv-x="459" arabic-form="initial" 
d="M308 514.5q41 -31.5 64.5 -92.5t23.5 -146q0 -103 -34.5 -162t-119.5 -86.5t-242 -27.5l-20 30l25 27q133 0 205.5 18t101.5 53t34 94q-20 -19 -52.5 -28.5t-71.5 -9.5q-83 0 -133.5 48t-50.5 125q0 50 23 93.5t63.5 69.5t89.5 26q53 0 94 -31.5zM296 241q30 7 52 19v7
q0 111 -36 166.5t-99 55.5q-55 0 -90.5 -37.5t-35.5 -90.5q0 -59 39 -93t113 -34q27 0 57 7zM119.5 651q-10.5 10 -10.5 25q0 14 10.5 24.5t24.5 10.5t24 -10.5t10 -24.5q0 -15 -10 -25t-24 -10t-24.5 10zM257 651q-10 10 -10 25q0 14 10 24.5t25 10.5q14 0 24.5 -10.5
t10.5 -24.5q0 -15 -10.5 -25t-24.5 -10q-15 0 -25 10z" />
    <glyph glyph-name="uniFED8" unicode="&#x642;" horiz-adv-x="494" arabic-form="medial" 
d="M514 29l-20 -29h-37q-52 0 -104.5 12t-98.5 34q-100 -46 -223 -46h-31l-20 29l25 28h32q90 0 159 21q-54 37 -85.5 85.5t-31.5 104.5q0 51 22.5 96t61.5 71.5t85 26.5q53 0 93 -26.5t62 -71.5t22 -97q0 -50 -30 -100.5t-85 -88.5q69 -21 147 -21h42zM161.5 171
q33.5 -42 91.5 -71q59 28 91 71t32 96q0 60 -34.5 99t-91.5 39q-53 0 -87.5 -39t-34.5 -98q0 -55 33.5 -97zM154.5 565q-10.5 10 -10.5 25q0 14 10.5 24.5t24.5 10.5t24 -10.5t10 -24.5q0 -15 -10 -25t-24 -10t-24.5 10zM292 565q-10 10 -10 25q0 14 10 24.5t25 10.5
q14 0 24.5 -10.5t10.5 -24.5q0 -15 -10.5 -25t-24.5 -10q-15 0 -25 10z" />
    <glyph glyph-name="uniFEDA" unicode="&#x643;" horiz-adv-x="832" arabic-form="final" 
d="M852 30l-20 -30q-50 0 -81 22.5t-52 58.5q-66 -47 -155 -70.5t-212 -23.5q-147 0 -213 46t-66 143q0 77 36 153l41 -14q-26 -66 -26 -132q0 -73 54 -106t179 -33q110 0 196 23.5t146 65.5v612l53 6v-587q0 -107 106 -107zM411.5 326q37.5 12 37.5 34q0 19 -26 33t-95 28
l8 41l159 93l-2 -43l-116 -66q60 -16 85.5 -36t25.5 -50q0 -46 -52 -65t-133 -19l-6 38q77 0 114.5 12z" />
    <glyph glyph-name="uniFEDB" unicode="&#x643;" horiz-adv-x="459" arabic-form="initial" 
d="M402 695l-341 -220q106 -46 167 -88t86.5 -84t25.5 -92q0 -104 -89 -157.5t-251 -53.5l-20 29l25 28q145 0 214.5 40t69.5 119q0 56 -62.5 110t-223.5 120l12 54l391 255z" />
    <glyph glyph-name="uniFEDC" unicode="&#x643;" horiz-adv-x="543" arabic-form="medial" 
d="M563 30l-20 -30q-57 0 -100 17t-87.5 60t-103.5 124q1 -6 1 -16q0 -85 -65 -135t-188 -50l-20 29l25 28q102 0 152 36.5t50 101.5q0 63 -55 131l-98 121l12 52l391 256l-3 -60l-350 -226l164 -205q77 -96 115 -136t73.5 -55.5t91.5 -15.5z" />
    <glyph glyph-name="uniFEDE" unicode="&#x644;" horiz-adv-x="703" arabic-form="final" 
d="M723 29l-20 -29q-80 0 -114 47q-9 -133 -82.5 -189t-204.5 -56q-128 0 -188.5 61t-60.5 167q0 92 42 183l40 -12q-30 -78 -30 -164q0 -178 203 -178q123 0 176 53t53 169v662l53 7v-566q0 -71 26.5 -99t91.5 -28z" />
    <glyph glyph-name="uniFEDF" unicode="&#x644;" horiz-adv-x="232" arabic-form="initial" 
d="M-20 29l25 28q47 0 69.5 26.5t22.5 85.5v574l54 7v-584q0 -93 -39 -129.5t-112 -36.5z" />
    <glyph glyph-name="uniFEE0" unicode="&#x644;" horiz-adv-x="244" arabic-form="medial" 
d="M264 29l-20 -29q-89 0 -121 66q-17 -36 -48 -51t-75 -15l-20 29l25 28q52 0 71.5 24.5t19.5 77.5v585l53 7v-592q0 -53 24.5 -77.5t75.5 -24.5z" />
    <glyph glyph-name="uniFEE2" unicode="&#x645;" horiz-adv-x="703" arabic-form="final" 
d="M723 29l-20 -29q-119 0 -146 79q-17 -44 -48.5 -68t-73.5 -24q-46 0 -88 19.5t-98 54.5q-35 22 -55 32.5t-36 10.5q-28 0 -39.5 -27.5t-11.5 -81.5q0 -110 45 -325l-59 -9q-40 197 -40 329q0 85 24 131.5t74 46.5q17 0 32 -7q55 129 109 183t123 54q46 0 82.5 -25t57 -72
t20.5 -110v-8v0q0 -71 29.5 -98.5t103.5 -27.5zM501 84q25 38 25 106q0 71 -33 110t-87 39q-35 0 -62.5 -19t-55 -62t-61.5 -120l33 -21q53 -35 91 -53t79 -18q46 0 71 38z" />
    <glyph glyph-name="uniFEE3" unicode="&#x645;" horiz-adv-x="602" arabic-form="initial" 
d="M462 373q36 -25 56.5 -72.5t20.5 -110.5q0 -94 -37.5 -148.5t-103.5 -54.5q-50 0 -107.5 26t-126.5 75q-31 -50 -69.5 -69t-86.5 -19h-8l-20 29l25 28h12q32 0 54 10.5t42 37t44 77.5q39 84 72 130t68.5 66t84.5 20q44 0 80 -25zM465.5 85q24.5 39 24.5 105
q0 71 -32.5 110.5t-84.5 39.5q-37 0 -64 -16.5t-54.5 -60t-65.5 -128.5q70 -46 118 -67.5t89 -21.5q45 0 69.5 39z" />
    <glyph glyph-name="uniFEE4" unicode="&#x645;" horiz-adv-x="667" arabic-form="medial" 
d="M687 29l-20 -29q-117 0 -146 77q-17 -43 -48.5 -66.5t-74.5 -23.5q-50 0 -107.5 26t-126.5 75q-31 -50 -69.5 -69t-86.5 -19h-8l-20 29l25 28h12q32 0 54 10.5t42 37t44 77.5q39 84 72 130t68.5 66t84.5 20q44 0 80 -25t56.5 -72.5t20.5 -110.5v-7v0q0 -71 29 -98.5
t104 -27.5zM465.5 85q24.5 39 24.5 105q0 71 -32.5 110.5t-84.5 39.5q-37 0 -64 -16.5t-54.5 -60t-65.5 -128.5q70 -46 118 -67.5t89 -21.5q45 0 69.5 39z" />
    <glyph glyph-name="uniFEE6" unicode="&#x646;" horiz-adv-x="715" arabic-form="final" 
d="M735 29l-20 -29q-75 0 -113 44q-4 -156 -76 -223t-224 -67q-128 0 -188.5 61t-60.5 167q0 91 42 184l40 -13q-30 -78 -30 -164q0 -83 48 -130.5t155 -47.5q89 0 142 25t77 77.5t24 138.5q0 51 -14 102t-45 126l58 24q5 -19 15 -51q16 -54 25 -87q17 -60 46.5 -84.5
t83.5 -24.5zM287.5 329.5q-10.5 10.5 -10.5 26.5q0 15 10.5 26t26.5 11t26.5 -11t10.5 -26q0 -16 -10.5 -26.5t-26.5 -10.5t-26.5 10.5z" />
    <glyph glyph-name="uniFEE7" unicode="&#x646;" horiz-adv-x="269" arabic-form="initial" 
d="M99 68q32 11 43.5 35t11.5 68q0 83 -43 206l54 18q20 -58 30.5 -118t10.5 -109q0 -64 -18 -100t-62 -52t-126 -16l-20 29l25 28q62 0 94 11zM92.5 479.5q-10.5 10.5 -10.5 26.5q0 15 10.5 26t26.5 11t26.5 -11t10.5 -26q0 -16 -10.5 -26.5t-26.5 -10.5t-26.5 10.5z" />
    <glyph glyph-name="uniFEE8" unicode="&#x646;" horiz-adv-x="327" arabic-form="medial" 
d="M347 29l-20 -29q-62 0 -102 20.5t-60 64.5q-19 -45 -58.5 -65t-106.5 -20l-20 29l26 28q54 0 82 13.5t38 38.5t10 67v145h54v-145q0 -62 31.5 -90.5t110.5 -28.5zM135.5 409.5q-10.5 10.5 -10.5 26.5q0 15 10.5 26t26.5 11t26.5 -11t10.5 -26q0 -16 -10.5 -26.5
t-26.5 -10.5t-26.5 10.5z" />
    <glyph glyph-name="uniFEEA" unicode="&#x647;" horiz-adv-x="498" arabic-form="final" 
d="M518 28l-20 -28h-15q-113 0 -139 111q-26 -34 -68.5 -54t-89.5 -20q-73 0 -116 39t-43 101q0 55 36 101t106 75t168 34v107l53 7v-319q0 -68 24.5 -96.5t73.5 -28.5h15zM276 109.5q37 18.5 61 49.5v176q-129 -5 -194 -47.5t-65 -105.5q0 -41 29 -66t87 -25q45 0 82 18.5z
" />
    <glyph glyph-name="uniFEEB" unicode="&#x647;" horiz-adv-x="631" arabic-form="initial" 
d="M390 371.5q90 -59.5 133.5 -111t43.5 -105.5q0 -45 -23.5 -84t-61.5 -61.5t-81 -22.5q-48 0 -95 13t-89 36q-81 -36 -194 -36h-23l-20 29l25 28h14q80 0 143 17q-46 39 -72 87.5t-26 101.5q0 62 34.5 108.5t89.5 58.5l-23 13q-10 5 -25 14t-37 20l29 50
q168 -96 258 -155.5zM138 170q31 -43 83 -74q56 27 85.5 69t29.5 94q0 56 -32.5 94t-81.5 38q-50 0 -82.5 -37t-32.5 -93q0 -48 31 -91zM485.5 72q35.5 28 35.5 72q0 38 -37 80.5t-116 96.5q10 -27 10 -59q0 -56 -26 -106.5t-77 -86.5q63 -25 126 -25q49 0 84.5 28z" />
    <glyph glyph-name="uniFEEC" unicode="&#x647;" horiz-adv-x="484" arabic-form="medial" 
d="M484 0h-141q44 -22 66.5 -54t22.5 -80q0 -55 -35 -90.5t-95 -35.5q-59 0 -107 33t-76.5 92.5t-31.5 134.5h-87l-20 29l25 28h82q3 91 34.5 168t82.5 121.5t109 44.5q57 0 90.5 -36t33.5 -105q0 -53 -31 -108.5t-83 -84.5h167l14 -28zM224.5 298.5q-38.5 -35.5 -64 -99
t-29.5 -142.5h65q55 0 98.5 27t67.5 70t24 89q0 44 -21.5 67.5t-59.5 23.5q-42 0 -80.5 -35.5zM335.5 -33.5q-47.5 33.5 -116.5 33.5h-88q6 -94 50.5 -148.5t114.5 -54.5q43 0 65 22.5t22 56.5q0 57 -47.5 90.5z" />
    <glyph glyph-name="uniFEEE" unicode="&#x648;" horiz-adv-x="527" arabic-form="final" 
d="M527 0h-108q-23 -102 -106.5 -165.5t-242.5 -92.5l-17 56q141 26 216 75.5t99 126.5h-84q-102 0 -157 48.5t-55 126.5q0 50 23 93t63.5 69t88.5 26q53 0 94 -31.5t64.5 -91t23.5 -142.5q0 -15 -2 -41h105l15 -28zM291 57h88q1 11 1 34q0 106 -35.5 160.5t-98.5 54.5
q-54 0 -90 -37.5t-36 -90.5q0 -121 171 -121z" />
    <glyph glyph-name="uniFEF0" unicode="&#x649;" horiz-adv-x="722" arabic-form="final" 
d="M722 0q-28 0 -50.5 5t-46.5 16q11 -19 11 -40q0 -48 -37.5 -89.5t-113 -67.5t-183.5 -26q-128 0 -188.5 61t-60.5 167q0 93 42 184l40 -13q-30 -78 -30 -164q0 -83 48 -130.5t155 -47.5q89 0 152 20t95 50.5t32 60.5q0 19 -14.5 33.5t-52 30.5t-111.5 39l24 50
q56 -19 106 -37q66 -25 104 -35t84 -10l15 -28z" />
    <glyph glyph-name="uniFEF2" unicode="&#x64a;" horiz-adv-x="722" arabic-form="final" 
d="M722 0q-28 0 -50.5 5t-46.5 16q11 -19 11 -40q0 -48 -37.5 -89.5t-113 -67.5t-183.5 -26q-128 0 -188.5 61t-60.5 167q0 93 42 184l40 -13q-30 -78 -30 -164q0 -83 48 -130.5t155 -47.5q89 0 152 20t95 50.5t32 60.5q0 19 -14.5 33.5t-52 30.5t-111.5 39l24 50
q56 -19 106 -37q66 -25 104 -35t84 -10l15 -28zM214.5 -356q-10.5 10 -10.5 24t10.5 24.5t24.5 10.5t24 -10.5t10 -24.5t-10 -24t-24 -10t-24.5 10zM352 -356q-10 10 -10 24t10 24.5t25 10.5q14 0 24.5 -10.5t10.5 -24.5t-10.5 -24t-24.5 -10q-15 0 -25 10z" />
    <glyph glyph-name="uniFEF3" unicode="&#x64a;" horiz-adv-x="269" arabic-form="initial" 
d="M99 68q32 11 43.5 35t11.5 68q0 83 -43 206l54 18q20 -58 30.5 -118t10.5 -109q0 -64 -18 -100t-62 -52t-126 -16l-20 29l25 28q62 0 94 11zM29.5 -166q-10.5 10 -10.5 24t10.5 24.5t24.5 10.5t24 -10.5t10 -24.5t-10 -24t-24 -10t-24.5 10zM167 -166q-10 10 -10 24
t10 24.5t25 10.5q14 0 24.5 -10.5t10.5 -24.5t-10.5 -24t-24.5 -10q-15 0 -25 10z" />
    <glyph glyph-name="uniFEF4" unicode="&#x64a;" horiz-adv-x="327" arabic-form="medial" 
d="M347 29l-20 -29q-62 0 -102 20.5t-60 64.5q-19 -45 -58.5 -65t-106.5 -20l-20 29l26 28q54 0 82 13.5t38 38.5t10 67v145h54v-145q0 -62 31.5 -90.5t110.5 -28.5zM69.5 -166q-10.5 10 -10.5 24t10.5 24.5t24.5 10.5t24 -10.5t10 -24.5t-10 -24t-24 -10t-24.5 10z
M207 -166q-10 10 -10 24t10 24.5t25 10.5q14 0 24.5 -10.5t10.5 -24.5t-10.5 -24t-24.5 -10q-15 0 -25 10z" />
    <glyph glyph-name=".notdef" horiz-adv-x="666" 
d="M543 -350h-420v1400h420v-1400zM178 998v-1296h311v1296h-311zM409.5 419q25.5 -32 25.5 -83q0 -53 -22.5 -82t-72.5 -36v-45q0 -11 -7.5 -17.5t-17.5 -6.5t-17.5 6.5t-7.5 17.5v84q53 3 72 19.5t19 57.5q0 33 -13 51t-48 18q-29 0 -52 -11q-8 -3 -13 -3q-11 0 -17.5 6.5
t-6.5 16.5q0 19 29.5 29t63.5 10q60 0 85.5 -32zM340 110q10 -10 10 -25q0 -16 -10 -26.5t-25 -10.5t-25 10.5t-10 26.5q0 15 10 25t25 10t25 -10z" />
    <glyph glyph-name=".null" 
 />
    <glyph glyph-name="nonmarkingreturn" unicode="&#xd;" horiz-adv-x="279" 
 />
    <glyph glyph-name="space" unicode=" " horiz-adv-x="279" 
 />
    <glyph glyph-name="exclam" unicode="!" horiz-adv-x="240" 
d="M146 218h-53l-5 467h62zM154.5 70.5q13.5 -13.5 13.5 -33.5t-13.5 -34t-34.5 -14q-20 0 -34 14t-14 34t14 33.5t34 13.5q21 0 34.5 -13.5z" />
    <glyph glyph-name="quotedbl" unicode="&#x22;" horiz-adv-x="362" 
d="M71 685h62l-9 -251h-44zM229 685h62l-9 -251h-44z" />
    <glyph glyph-name="numbersign" unicode="#" horiz-adv-x="503" 
d="M410 452l-30 -226h71v-46h-77l-24 -180h-52l24 180h-183l-24 -180h-52l24 180h-72v46h78l30 226h-71v47h77l22 166h52l-22 -166h183l22 166h52l-22 -166h72v-47h-78zM328 226l30 226h-183l-30 -226h183z" />
    <glyph glyph-name="dollar" unicode="$" horiz-adv-x="526" 
d="M422.5 53.5q-49.5 -51.5 -133.5 -62.5v-142h-51v140q-117 4 -199 83l35 37q36 -34 78.5 -52t97.5 -18q72 0 117 37.5t45 103.5q0 40 -14.5 66t-48 45t-95.5 38q-102 32 -145.5 72.5t-43.5 109.5q0 67 47.5 112t125.5 51v145h51v-145q51 -4 88.5 -22t73.5 -51l-35 -37
q-35 33 -71.5 47t-83.5 14q-61 0 -98.5 -30t-37.5 -82q0 -35 14 -57.5t46.5 -40.5t93.5 -36q66 -21 107 -44t63.5 -60t22.5 -93q0 -77 -49.5 -128.5z" />
    <glyph glyph-name="percent" unicode="%" horiz-adv-x="793" 
d="M653 676l-464 -700l-42 28l463 699zM311 632q41 -44 41 -118t-40.5 -118.5t-108.5 -44.5q-67 0 -108.5 44t-41.5 118t41 118.5t109 44.5q67 0 108 -44zM130 600q-23 -34 -23 -87q0 -52 23 -86t73 -34t72.5 34t22.5 87q0 52 -22.5 86t-72.5 34t-73 -34zM698.5 270
q41.5 -44 41.5 -117q0 -75 -41 -119.5t-109 -44.5q-66 0 -107.5 44.5t-41.5 117.5q0 75 40.5 119t108.5 44q67 0 108.5 -44zM518 238q-23 -34 -23 -87q0 -52 23 -86t72 -34q50 0 73 34t23 88q0 51 -23 85t-73 34q-49 0 -72 -34z" />
    <glyph glyph-name="ampersand" unicode="&#x26;" horiz-adv-x="722" 
d="M420.5 654.5q46.5 -41.5 46.5 -106.5q0 -57 -37.5 -99t-115.5 -85l205 -192q44 90 66 190l55 -16q-32 -120 -85 -209l124 -114l-43 -34l-112 105q-43 -51 -96.5 -78t-127.5 -27q-59 0 -107 22.5t-75.5 64t-27.5 95.5q0 64 36 110.5t108 88.5q-55 52 -78 88.5t-23 85.5
q0 66 46 109t122 43q73 0 119.5 -41.5zM221 620.5q-30 -30.5 -30 -75.5q0 -38 18.5 -68.5t70.5 -80.5q67 37 98.5 71.5t31.5 78.5q0 49 -30.5 77t-78.5 28q-50 0 -80 -30.5zM179.5 262.5q-29.5 -39.5 -29.5 -89.5q0 -61 43.5 -98.5t111.5 -37.5q60 0 103 22.5t80 67.5
l-219 211q-60 -36 -89.5 -75.5z" />
    <glyph glyph-name="quotesingle" unicode="'" horiz-adv-x="204" 
d="M71 685h62l-9 -251h-44z" />
    <glyph glyph-name="parenleft" unicode="(" horiz-adv-x="324" 
d="M270 813q-53 -79 -85 -140.5t-51.5 -140.5t-19.5 -182t19.5 -182t51.5 -140.5t85 -140.5l-37 -24q-62 87 -97.5 149t-58.5 145t-23 193t23 193t58.5 145t97.5 149z" />
    <glyph glyph-name="parenright" unicode=")" horiz-adv-x="324" 
d="M188.5 688q35.5 -62 58.5 -145t23 -193t-23 -193t-58.5 -145t-97.5 -149l-37 24q53 79 85 140.5t51.5 140.5t19.5 182t-19.5 182t-51.5 140.5t-85 140.5l37 24q62 -87 97.5 -149z" />
    <glyph glyph-name="asterisk" unicode="*" horiz-adv-x="436" 
d="M250 542l99 -122l-46 -34l-85 132l-85 -132l-46 33l99 122l-152 41l17 52l147 -57l-9 159h57l-8 -159l146 57l18 -52z" />
    <glyph glyph-name="plus" unicode="+" horiz-adv-x="493" 
d="M274 356h150v-50h-150v-152h-55v152h-150v50h150v152h55v-152z" />
    <glyph glyph-name="comma" unicode="," horiz-adv-x="207" 
d="M137.5 70.5q13.5 -13.5 13.5 -33.5q0 -22 -15 -55l-56 -133h-42l40 147q-11 6 -17 17t-6 24q0 20 14 33.5t34 13.5q21 0 34.5 -13.5z" />
    <glyph glyph-name="hyphen" unicode="-" horiz-adv-x="401" 
d="M68 338h265v-50h-265v50z" />
    <glyph glyph-name="period" unicode="." horiz-adv-x="207" 
d="M137.5 70.5q13.5 -13.5 13.5 -33.5q0 -21 -13.5 -34.5t-34.5 -13.5q-20 0 -34 14t-14 34t14 33.5t34 13.5q21 0 34.5 -13.5z" />
    <glyph glyph-name="slash" unicode="/" horiz-adv-x="520" 
d="M401 790l-232 -890l-50 13l232 890z" />
    <glyph glyph-name="zero" unicode="0" horiz-adv-x="550" 
d="M431 588.5q53 -87.5 53 -256.5q0 -168 -53.5 -255.5t-155.5 -87.5q-103 0 -156 87.5t-53 256.5t53 256t156 87t156 -87.5zM126 333q0 -296 149 -296q73 0 110.5 72t37.5 223t-37.5 223.5t-110.5 72.5q-149 0 -149 -295z" />
    <glyph glyph-name="one" unicode="1" horiz-adv-x="413" 
d="M292 0h-58v601l-164 -102l-27 43l199 123h50v-665z" />
    <glyph glyph-name="two" unicode="2" horiz-adv-x="479" 
d="M358.5 627q49.5 -49 49.5 -126q0 -65 -27 -122t-84.5 -125t-185.5 -203h315l-8 -51h-375v49q137 146 196.5 216.5t84 122t24.5 110.5t-34.5 94t-91.5 35q-46 0 -81.5 -19t-67.5 -57l-40 30q40 49 86.5 72t105.5 23q84 0 133.5 -49z" />
    <glyph glyph-name="three" unicode="3" horiz-adv-x="486" 
d="M318.5 654q41.5 -22 63.5 -59.5t22 -84.5q0 -65 -36.5 -105.5t-94.5 -50.5q65 -3 107.5 -46.5t42.5 -119.5q0 -58 -26 -103t-74.5 -70.5t-111.5 -25.5q-116 0 -191 86l37 33q34 -37 70.5 -53.5t81.5 -16.5q72 0 113 41t41 108q0 140 -150 140h-44l8 47h32q57 0 97 34.5
t40 98.5q0 55 -35 87.5t-93 32.5q-42 0 -77 -14.5t-71 -47.5l-31 36q40 38 84 56.5t98 18.5q56 0 97.5 -22z" />
    <glyph glyph-name="four" unicode="4" horiz-adv-x="518" 
d="M483 175h-90v-175h-57v175h-291v43l203 458l49 -20l-190 -433h229l7 195h50v-195h90v-48z" />
    </font>
</defs>
</svg>
