<?xml version="1.0" standalone="no"?>
<!DOCTYPE svg PUBLIC "-//W3C//DTD SVG 1.1//EN" "http://www.w3.org/Graphics/SVG/1.1/DTD/svg11.dtd" >
<svg xmlns="http://www.w3.org/2000/svg" xmlns:xlink="http://www.w3.org/1999/xlink" version="1.1">
<metadata>
Created by FontForge 20170731 at Tue Mar 20 17:39:46 2018
 By Aleksey,,,
Digitized data copyright 2012-2018 for FiraGO, bBox Type GmbH and HERE Europe B.V. All rights reserved, with Reserved Font Name "Fira" / Digitized data copyright 2012-2018 for Fira Sans The Mozilla Foundation, Telefonica S.A., Carrois Corporate GbR and bBox Type GmbH, with Reserved Font Name "Fira"
</metadata>
<defs>
<font id="FiraGO-Book" horiz-adv-x="0" >
  <font-face 
    font-family="FiraGO Book"
    font-weight="350"
    font-stretch="normal"
    units-per-em="1000"
    panose-1="2 11 5 3 5 0 0 2 0 4"
    ascent="800"
    descent="-200"
    x-height="526"
    cap-height="688"
    bbox="-751 -719 2415 1274"
    underline-thickness="50"
    underline-position="-150"
    unicode-range="U+000D-FEFF"
  />
<missing-glyph horiz-adv-x="666" 
d="M543 -350h-420v1400h420v-1400zM178 998v-1296h311v1296h-311zM409.5 419q25.5 -32 25.5 -83q0 -53 -22.5 -82t-72.5 -36v-45q0 -11 -7.5 -17.5t-17.5 -6.5t-17.5 6.5t-7.5 17.5v84q53 3 72 19.5t19 57.5q0 33 -13 51t-48 18q-29 0 -52 -11q-8 -3 -13 -3q-11 0 -17.5 6.5
t-6.5 16.5q0 19 29.5 29t63.5 10q60 0 85.5 -32zM340 110q10 -10 10 -25q0 -16 -10 -26.5t-25 -10.5t-25 10.5t-10 26.5q0 15 10 25t25 10t25 -10z" />
    <glyph glyph-name="fi" unicode="fi" horiz-adv-x="570" 
d="M419 712l-30 -59q-54 27 -114 27q-52 0 -73 -19.5t-21 -61.5v-73h294v-526h-84v461h-210v-461h-84v461h-84v65h84v73q0 69 43.5 109t131.5 40q77 0 147 -36z" />
    <glyph glyph-name="fl" unicode="fl" horiz-adv-x="596" 
d="M567 5q-36 -17 -74 -17q-49 0 -75 28.5t-26 84.5v561q-32 10 -59 14t-61 4q-49 0 -70 -18.5t-21 -59.5v-76h130l-9 -65h-121v-461h-84v461h-84v65h84v75q0 67 43.5 107t126.5 40q35 0 63 -5t62 -15l84 11v-637q0 -22 8 -33t27 -11t34 6z" />
    <glyph glyph-name="uniFDF2" unicode="&#x627;&#xfedf;&#xfee0;&#xfeea;" horiz-adv-x="1140" arabic-form="isolated" 
d="M604 740h-52v173l52 6v-179zM476 620.5q-21 19.5 -21 57.5q0 26 13 65l41 -10q-6 -22 -6 -45q0 -15 6.5 -25t17.5 -10q13 0 21.5 11t8.5 30v38h44v-42q0 -15 7 -24.5t19 -9.5q13 0 20 10.5t7 30.5q0 12 -3 28t-9 29l42 14q9 -21 13.5 -44t4.5 -41q0 -37 -20 -57t-51 -20
q-36 0 -51 25q-19 -30 -57 -30q-26 0 -47 19.5zM1067 763v-763h-77v753zM770 655l76 10v-473q0 -103 -37.5 -147.5t-108.5 -44.5q-42 0 -73 18.5t-47 50.5q-15 -32 -44.5 -50.5t-70.5 -18.5q-113 0 -141 100q-22 -30 -60.5 -47.5t-84.5 -17.5q-70 0 -112 37.5t-42 99.5
q0 78 76 135t210 76v84l77 10v-281q0 -64 16.5 -89t58.5 -25t59.5 24t17.5 90v358l77 10v-368q0 -63 18 -88.5t62 -25.5q40 0 56.5 25.5t16.5 87.5v460zM311 313q-69 -6 -117 -25.5t-72 -47.5t-24 -58q0 -36 22 -56t65 -20q42 0 74 17t52 47v143z" />
    <glyph glyph-name="uniFEF5" unicode="&#xfedf;&#xfe82;" horiz-adv-x="640" arabic-form="isolated" 
d="M549 258.5q24 -46.5 24 -93.5q0 -86 -56 -125.5t-185 -39.5h-232l7 78q114 86 179.5 145t102.5 118l-304 290l97 14l242 -237q19 47 27.5 103.5t8.5 130.5v111l77 9v-126q0 -161 -61 -281q49 -50 73 -96.5zM432 87.5q38 6.5 56.5 24.5t18.5 53q0 53 -68 127
q-39 -56 -94 -107t-131 -104h113q67 0 105 6.5zM24 716q12 36 35 59.5t50 23.5q15 0 26.5 -4t26.5 -12q24 -13 40 -13q12 0 19 3t22 14l22 -37q-21 -18 -37.5 -25t-35.5 -7q-11 0 -21 3.5t-23 11.5l-14 7t-24 6q-26 0 -42 -43z" />
    <glyph glyph-name="uniFEF6" unicode="&#xfee0;&#xfe82;" horiz-adv-x="689" arabic-form="final" 
d="M709 41l-20 -41q-52 0 -90.5 25t-53.5 74q-37 -50 -107.5 -74.5t-181.5 -24.5h-161l-10 82h181q104 0 161 21l-292 473l89 13l163 -280q60 -103 87 -181q29 23 39 57t10 85v483l76 10v-552q0 -71 22 -100t75 -29zM67 661q12 36 35 59.5t50 23.5q15 0 26.5 -4t26.5 -12
q24 -13 40 -13q12 0 19 3t22 14l22 -37q-21 -18 -37.5 -25t-35.5 -7q-11 0 -21 3.5t-23 11.5l-14 7t-24 6q-26 0 -42 -43z" />
    <glyph glyph-name="uniFEF7" unicode="&#xfedf;&#xfe84;" horiz-adv-x="640" arabic-form="isolated" 
d="M549 258.5q24 -46.5 24 -93.5q0 -86 -56 -125.5t-185 -39.5h-232l7 78q114 86 179.5 145t102.5 118l-304 290l97 14l242 -237q19 47 27.5 103.5t8.5 130.5v111l77 9v-126q0 -161 -61 -281q49 -50 73 -96.5zM432 87.5q38 6.5 56.5 24.5t18.5 53q0 53 -68 127
q-39 -56 -94 -107t-131 -104h113q67 0 105 6.5zM246 727l-209 -34l-6 46l65 11q-44 38 -44 73q0 38 26.5 63t76.5 25q33 0 74 -22l-28 -45q-27 16 -52 16t-35.5 -11.5t-10.5 -27.5q0 -28 44 -63l93 16z" />
    <glyph glyph-name="uniFEF8" unicode="&#xfee0;&#xfe84;" horiz-adv-x="689" arabic-form="final" 
d="M709 41l-20 -41q-52 0 -90.5 25t-53.5 74q-37 -50 -107.5 -74.5t-181.5 -24.5h-161l-10 82h181q104 0 161 21l-292 473l89 13l163 -280q60 -103 87 -181q29 23 39 57t10 85v483l76 10v-552q0 -71 22 -100t75 -29zM288 672l-209 -34l-6 46l65 11q-44 38 -44 73
q0 38 26.5 63t76.5 25q33 0 74 -22l-28 -45q-27 16 -52 16t-35.5 -11.5t-10.5 -27.5q0 -28 44 -63l93 16z" />
    <glyph glyph-name="uniFEF9" unicode="&#xfedf;&#xfe88;" horiz-adv-x="640" arabic-form="isolated" 
d="M549 258.5q24 -46.5 24 -93.5q0 -86 -56 -125.5t-185 -39.5h-232l7 78q114 86 179.5 145t102.5 118l-304 290l97 14l242 -237q19 47 27.5 103.5t8.5 130.5v111l77 9v-126q0 -161 -61 -281q49 -50 73 -96.5zM432 87.5q38 6.5 56.5 24.5t18.5 53q0 53 -68 127
q-39 -56 -94 -107t-131 -104h113q67 0 105 6.5zM302 -226l-209 -34l-6 46l65 11q-44 38 -44 73q0 38 26.5 63t76.5 25q33 0 74 -22l-28 -45q-27 16 -52 16t-35.5 -11.5t-10.5 -27.5q0 -28 44 -63l93 16z" />
    <glyph glyph-name="uniFEFA" unicode="&#xfee0;&#xfe88;" horiz-adv-x="689" arabic-form="final" 
d="M709 41l-20 -41q-52 0 -90.5 25t-53.5 74q-37 -50 -107.5 -74.5t-181.5 -24.5h-161l-10 82h181q104 0 161 21l-292 473l89 13l163 -280q60 -103 87 -181q29 23 39 57t10 85v483l76 10v-552q0 -71 22 -100t75 -29zM304 -226l-209 -34l-6 46l65 11q-44 38 -44 73
q0 38 26.5 63t76.5 25q33 0 74 -22l-28 -45q-27 16 -52 16t-35.5 -11.5t-10.5 -27.5q0 -28 44 -63l93 16z" />
    <glyph glyph-name="uniFEFB" unicode="&#xfedf;&#xfe8e;" horiz-adv-x="640" arabic-form="isolated" 
d="M549 258.5q24 -46.5 24 -93.5q0 -86 -56 -125.5t-185 -39.5h-232l7 78q114 86 179.5 145t102.5 118l-304 290l97 14l242 -237q19 47 27.5 103.5t8.5 130.5v111l77 9v-126q0 -161 -61 -281q49 -50 73 -96.5zM432 87.5q38 6.5 56.5 24.5t18.5 53q0 53 -68 127
q-39 -56 -94 -107t-131 -104h113q67 0 105 6.5z" />
    <glyph glyph-name="uniFEFC" unicode="&#xfee0;&#xfe8e;" horiz-adv-x="689" arabic-form="final" 
d="M709 41l-20 -41q-52 0 -90.5 25t-53.5 74q-37 -50 -107.5 -74.5t-181.5 -24.5h-161l-10 82h181q104 0 161 21l-292 473l89 13l163 -280q60 -103 87 -181q29 23 39 57t10 85v483l76 10v-552q0 -71 22 -100t75 -29z" />
    <glyph glyph-name="f_f" unicode="ff" horiz-adv-x="608" 
d="M485 661q-19 -19 -19 -59v-76h130l-9 -65h-121v-461h-84v461h-201v-461h-84v461h-84v65h84v65q0 67 43.5 107t126.5 40q41 0 75 -7.5t78 -26.5q42 44 122 44q36 0 64.5 -6.5t60.5 -20.5l-27 -61q-45 20 -93 20q-43 0 -62 -19zM382 601q0 26 6 47q-31 12 -58 17t-58 5
q-49 0 -70 -18.5t-21 -59.5v-66h201v75z" />
    <glyph glyph-name="f_f_i" unicode="ffi" horiz-adv-x="854" 
d="M759 526v-526h-84v461h-209v-461h-84v461h-201v-461h-84v461h-84v65h84v65q0 67 43.5 107t126.5 40q41 0 75.5 -8t78.5 -27q45 45 136 45q77 0 146 -36l-29 -59q-54 27 -114 27q-52 0 -73 -19.5t-21 -61.5v-73h293zM382 599q0 28 7 49q-32 12 -58.5 17t-58.5 5
q-49 0 -70 -18.5t-21 -59.5v-66h201v73z" />
    <glyph glyph-name="f_f_j" unicode="ffj" horiz-adv-x="854" 
d="M759 29q0 -72 -17 -115t-50 -70t-93 -54l-25 61q39 19 59.5 36.5t31 49t10.5 87.5v437h-209v-461h-84v461h-201v-461h-84v461h-84v65h84v65q0 67 43.5 107t126.5 40q41 0 75.5 -8t78.5 -27q45 45 136 45q77 0 146 -36l-29 -59q-54 27 -114 27q-52 0 -73 -19.5t-21 -61.5
v-73h293v-497zM382 599q0 28 7 49q-32 12 -58.5 17t-58.5 5q-49 0 -70 -18.5t-21 -59.5v-66h201v73z" />
    <glyph glyph-name="f_f_l" unicode="ffl" horiz-adv-x="880" 
d="M852 5q-36 -17 -74 -17q-49 0 -75.5 28.5t-26.5 84.5v561q-31 10 -58 14t-61 4q-50 0 -70.5 -18.5t-20.5 -59.5v-76h130l-9 -65h-121v-461h-84v461h-201v-461h-84v461h-84v65h84v65q0 67 43.5 107t126.5 40q41 0 75.5 -8t77.5 -27q43 45 132 45q35 0 63 -5t61 -15l84 11
v-637q0 -22 8.5 -33t27.5 -11t34 6zM382 601q0 26 6 47q-31 12 -58 17t-58 5q-49 0 -70 -18.5t-21 -59.5v-66h201v75z" />
    <glyph glyph-name="f_j" unicode="fj" horiz-adv-x="570" 
d="M475 29q0 -72 -17 -115t-50.5 -70t-93.5 -54l-25 61q39 19 60 36.5t31.5 49.5t10.5 87v437h-210v-461h-84v461h-84v65h84v73q0 69 43.5 109t131.5 40q77 0 147 -36l-30 -59q-54 27 -114 27q-52 0 -73 -19.5t-21 -61.5v-73h294v-497z" />
    <glyph glyph-name="uni0E240E45" unicode="&#xe24;&#xe45;" horiz-adv-x="928" 
d="M784 540.5q48 -42.5 48 -130.5v-601l-84 11v587q0 57 -31 82t-97 25q-55 0 -124 -18q33 -49 33 -125v-572l-84 11v561q0 70 -33.5 103t-102.5 33q-104 0 -172 -70q79 -14 152 -44v-65q-60 -2 -88.5 -30.5t-28.5 -88.5v-98q0 -29 11 -41t32 -12q22 0 44 10l18 -61
q-44 -19 -80 -19q-106 0 -106 126v95q0 67 33.5 106.5t93.5 47.5q-76 27 -155 33v56q35 44 96.5 82.5t152.5 38.5q84 0 137 -33q100 43 185 43q102 0 150 -42.5z" />
    <glyph glyph-name="uni0E260E45" unicode="&#xe26;&#xe45;" horiz-adv-x="921" 
d="M776.5 540.5q48.5 -42.5 48.5 -130.5v-601l-84 11v587q0 57 -31.5 82t-97.5 25q-53 0 -122 -18q33 -48 33 -125v-572l-84 11v561q0 70 -33 103t-101 33q-102 0 -168 -70q75 -12 152 -44v-65q-48 -3 -72 -31t-24 -93v-90q0 -54 -25 -87.5t-91 -33.5q-11 0 -21 1l-4 61h7
q24 0 35 8t13 21.5t2 44.5v90q0 61 29 97.5t82 45.5q-76 28 -157 34v56q37 46 96.5 83.5t149.5 37.5q82 0 134 -32q99 42 184 42q101 0 149.5 -42.5z" />
    <glyph glyph-name="uni06440671" unicode="&#xfedf;&#xfb51;" horiz-adv-x="640" 
d="M549 258.5q24 -46.5 24 -93.5q0 -86 -56 -125.5t-185 -39.5h-232l7 78q114 86 179.5 145t102.5 118l-304 290l97 14l242 -237q19 47 27.5 103.5t8.5 130.5v111l77 9v-126q0 -161 -61 -281q49 -50 73 -96.5zM432 87.5q38 6.5 56.5 24.5t18.5 53q0 53 -68 127
q-39 -56 -94 -107t-131 -104h113q67 0 105 6.5zM253 875.5q22 -20.5 22 -54.5q0 -45 -33 -66t-84 -21q-37 0 -80 13l-18 -38l-42 15l27 81l35 -11q24 53 54.5 77.5t64.5 24.5q32 0 54 -20.5zM228 816q0 15 -8 22t-26 7q-38 0 -74 -59q24 -4 49 -4q59 0 59 34z" />
    <glyph glyph-name="uni06440671.fina" unicode="&#xfee0;&#xfb51;" horiz-adv-x="689" 
d="M709 41l-20 -41q-52 0 -90.5 25t-53.5 74q-37 -50 -107.5 -74.5t-181.5 -24.5h-161l-10 82h181q104 0 161 21l-292 473l89 13l163 -280q60 -103 87 -181q29 23 39 57t10 85v483l76 10v-552q0 -71 22 -100t75 -29zM295 820.5q22 -20.5 22 -54.5q0 -45 -33 -66t-84 -21
q-37 0 -80 13l-18 -38l-42 15l27 81l35 -11q24 53 54.5 77.5t64.5 24.5q32 0 54 -20.5zM270 761q0 15 -8 22t-26 7q-38 0 -74 -59q24 -4 49 -4q59 0 59 34z" />
    <glyph glyph-name="uni0E1B0E31" unicode="&#xe1b;&#xe31;" horiz-adv-x="606" 
d="M511 657v-454q0 -96 -57 -155.5t-158 -59.5q-103 0 -157 56.5t-54 158.5v191q0 61 -5.5 96.5t-17.5 64.5l80 11q11 -19 19 -55.5t8 -73.5v-229q0 -75 32 -114t95 -39q64 0 97.5 39t33.5 114v442h-18q-72 0 -109.5 21.5t-37.5 74.5q0 25 8 55h61q-5 -20 -5 -41
q0 -30 19 -41.5t74 -11.5h8v74l84 -10v-59q78 10 121 21l11 -53q-55 -14 -132 -23z" />
    <glyph glyph-name="uni0E1B0E49" unicode="&#xe1b;&#xe49;" horiz-adv-x="606" 
d="M511 771v-568q0 -96 -57 -155.5t-158 -59.5q-103 0 -157 56.5t-54 158.5v191q0 61 -5.5 96.5t-17.5 64.5l80 11q11 -19 19 -55.5t8 -73.5v-229q0 -75 32 -114t95 -39q64 0 97.5 39t33.5 114v498q-38 -30 -99.5 -44t-157.5 -16l-19 26q25 34 25 59q0 24 -11 33.5t-34 9.5
q-18 0 -41 -5l-8 50q29 11 62 11q45 0 74 -20.5t29 -56.5q0 -29 -15 -51q75 3 120 22t74 57h1z" />
    <glyph glyph-name="uni0E1B0E4A" unicode="&#xe1b;&#xe4a;" horiz-adv-x="606" 
d="M511 771v-568q0 -96 -57 -155.5t-158 -59.5q-103 0 -157 56.5t-54 158.5v191q0 61 -5.5 96.5t-17.5 64.5l80 11q11 -19 19 -55.5t8 -73.5v-229q0 -75 32 -114t95 -39q64 0 97.5 39t33.5 114v487q-50 -47 -142 -47q-20 0 -38 3q6 41 6 77q0 22 -11 34t-29 12
q-21 0 -33.5 -17t-12.5 -47v-38l-65 -5v43q0 29 -12 46.5t-32 17.5q-19 0 -29.5 -12t-10.5 -35q0 -34 8 -76h-64q-4 14 -7 38.5t-3 44.5q0 41 25 68.5t69 27.5q39 0 60.5 -19.5t28.5 -49.5q5 30 28 49.5t62 19.5q44 0 68.5 -24.5t24.5 -60.5q0 -23 -8 -47q44 4 73.5 26.5
t43.5 56.5z" />
    <glyph glyph-name="uni0E1B0E4B" unicode="&#xe1b;&#xe4b;" horiz-adv-x="606" 
d="M511 771v-568q0 -96 -57 -155.5t-158 -59.5q-103 0 -157 56.5t-54 158.5v191q0 61 -5.5 96.5t-17.5 64.5l80 11q11 -19 19 -55.5t8 -73.5v-229q0 -75 32 -114t95 -39q64 0 97.5 39t33.5 114v573zM371 714l-75 1l1 -64h-67l1 64l-78 -1l6 56l72 -1l-1 55l67 9l-1 -64l75 1
v-56z" />
    <glyph glyph-name="uni0E1B0E4C" unicode="&#xe1b;&#xe4c;" horiz-adv-x="606" 
d="M599 690h-88v-487q0 -96 -57 -155.5t-158 -59.5q-103 0 -157 56.5t-54 158.5v191q0 61 -5.5 96.5t-17.5 64.5l80 11q11 -19 19 -55.5t8 -73.5v-229q0 -75 32 -114t95 -39q64 0 97.5 39t33.5 114v482h-57q-25 0 -34 -10.5t-9 -37.5q0 -13 2 -33h-68q-4 28 -4 48
q0 48 27 68t77 20h66v36l84 -10v-26h88v-55z" />
    <glyph glyph-name="uni0E1B0E4D" unicode="&#xe1b;&#xe4d;" horiz-adv-x="606" 
d="M511 771v-568q0 -96 -57 -155.5t-158 -59.5q-103 0 -157 56.5t-54 158.5v191q0 61 -5.5 96.5t-17.5 64.5l80 11q11 -19 19 -55.5t8 -73.5v-229q0 -75 32 -114t95 -39q64 0 97.5 39t33.5 114v573zM350 805.5q28 -26.5 28 -66.5t-28 -66.5t-72 -26.5q-43 0 -71 26.5
t-28 66.5q0 39 28 66t71 27q44 0 72 -26.5zM250.5 768.5q-10.5 -10.5 -10.5 -29.5t10.5 -30t27.5 -11q18 0 28.5 11t10.5 30t-10.5 29.5t-28.5 10.5q-17 0 -27.5 -10.5z" />
    <glyph glyph-name="uni0E1D0E31" unicode="&#xe1d;&#xe31;" horiz-adv-x="734" 
d="M639 657v-451q0 -113 -43.5 -165.5t-112.5 -52.5q-108 0 -124 118q-13 -61 -44 -89.5t-87 -28.5q-68 0 -109.5 52t-41.5 166v89q0 110 17 170.5t50 84t85 23.5q36 0 71 -15l-13 -59q-24 8 -44 8q-30 0 -47.5 -19t-26 -65t-8.5 -129v-80q0 -86 20 -122t61 -36
q37 0 56 26.5t19 98.5v122l81 9v-132q0 -124 74 -124q38 0 60.5 32t22.5 118v444h-18q-72 0 -109.5 21.5t-37.5 74.5q0 25 8 55h61q-5 -20 -5 -41q0 -30 19 -41.5t74 -11.5h8v74l84 -10v-59q78 10 121 21l11 -53q-55 -14 -132 -23z" />
    <glyph glyph-name="uni0E1D0E49" unicode="&#xe1d;&#xe49;" horiz-adv-x="734" 
d="M639 771v-565q0 -113 -43.5 -165.5t-112.5 -52.5q-108 0 -124 118q-13 -61 -44 -89.5t-87 -28.5q-68 0 -109.5 52t-41.5 166v89q0 110 17 170.5t50 84t85 23.5q36 0 71 -15l-13 -59q-24 8 -44 8q-30 0 -47.5 -19t-26 -65t-8.5 -129v-80q0 -86 20 -122t61 -36
q37 0 56 26.5t19 98.5v122l81 9v-132q0 -124 74 -124q38 0 60.5 32t22.5 118v500q-38 -30 -99.5 -44t-157.5 -16l-19 26q25 34 25 59q0 24 -11 33.5t-34 9.5q-18 0 -41 -5l-8 50q28 11 62 11q45 0 74 -20.5t29 -56.5q0 -29 -15 -51q75 3 120 22t74 57h1z" />
    <glyph glyph-name="uni0E1D0E4A" unicode="&#xe1d;&#xe4a;" horiz-adv-x="734" 
d="M639 771v-565q0 -113 -43.5 -165.5t-112.5 -52.5q-108 0 -124 118q-13 -61 -44 -89.5t-87 -28.5q-68 0 -109.5 52t-41.5 166v89q0 110 17 170.5t50 84t85 23.5q36 0 71 -15l-13 -59q-24 8 -44 8q-30 0 -47.5 -19t-26 -65t-8.5 -129v-80q0 -86 20 -122t61 -36
q37 0 56 26.5t19 98.5v122l81 9v-132q0 -124 74 -124q38 0 60.5 32t22.5 118v489q-50 -47 -142 -47q-20 0 -38 3q6 41 6 77q0 22 -11 34t-29 12q-21 0 -33.5 -17t-12.5 -47v-38l-65 -5v43q0 29 -12 46.5t-32 17.5q-19 0 -29.5 -12t-10.5 -35q0 -34 8 -76h-64q-4 14 -7 38.5
t-3 44.5q0 41 25 68.5t69 27.5q39 0 60.5 -19.5t28.5 -49.5q5 30 28 49.5t62 19.5q44 0 68.5 -24.5t24.5 -60.5q0 -23 -8 -47q44 4 73.5 26.5t43.5 56.5z" />
    <glyph glyph-name="uni0E1D0E4B" unicode="&#xe1d;&#xe4b;" horiz-adv-x="734" 
d="M639 771v-565q0 -113 -43.5 -165.5t-112.5 -52.5q-108 0 -124 118q-13 -61 -44 -89.5t-87 -28.5q-68 0 -109.5 52t-41.5 166v89q0 110 17 170.5t50 84t85 23.5q36 0 71 -15l-13 -59q-24 8 -44 8q-30 0 -47.5 -19t-26 -65t-8.5 -129v-80q0 -86 20 -122t61 -36
q37 0 56 26.5t19 98.5v122l81 9v-132q0 -124 74 -124q38 0 60.5 32t22.5 118v575zM499 714l-75 1l1 -64h-67l1 64l-78 -1l6 56l72 -1l-1 55l67 9l-1 -64l75 1v-56z" />
    <glyph glyph-name="uni0E1D0E4C" unicode="&#xe1d;&#xe4c;" horiz-adv-x="734" 
d="M727 690h-88v-484q0 -113 -43.5 -165.5t-112.5 -52.5q-108 0 -124 118q-13 -61 -44 -89.5t-87 -28.5q-68 0 -109.5 52t-41.5 166v89q0 110 17 170.5t50 84t85 23.5q36 0 71 -15l-13 -59q-24 8 -44 8q-30 0 -47.5 -19t-26 -65t-8.5 -129v-80q0 -86 20 -122t61 -36
q37 0 56 26.5t19 98.5v122l81 9v-132q0 -124 74 -124q38 0 60.5 32t22.5 118v484h-57q-25 0 -34 -10.5t-9 -37.5q0 -13 2 -33h-68q-4 28 -4 48q0 48 27 68t77 20h66v36l84 -10v-26h88v-55z" />
    <glyph glyph-name="uni0E1D0E4D" unicode="&#xe1d;&#xe4d;" horiz-adv-x="734" 
d="M639 771v-565q0 -113 -43.5 -165.5t-112.5 -52.5q-108 0 -124 118q-13 -61 -44 -89.5t-87 -28.5q-68 0 -109.5 52t-41.5 166v89q0 110 17 170.5t50 84t85 23.5q36 0 71 -15l-13 -59q-24 8 -44 8q-30 0 -47.5 -19t-26 -65t-8.5 -129v-80q0 -86 20 -122t61 -36
q37 0 56 26.5t19 98.5v122l81 9v-132q0 -124 74 -124q38 0 60.5 32t22.5 118v575zM478 805.5q28 -26.5 28 -66.5t-28 -66.5t-72 -26.5q-43 0 -71 26.5t-28 66.5q0 39 28 66t71 27q44 0 72 -26.5zM378.5 768.5q-10.5 -10.5 -10.5 -29.5t10.5 -30t27.5 -11q18 0 28.5 11
t10.5 30t-10.5 29.5t-28.5 10.5q-17 0 -27.5 -10.5z" />
    <glyph glyph-name="uni0E1F0E31" unicode="&#xe1f;&#xe31;" horiz-adv-x="771" 
d="M732 654l-19 -91l-114 -563h-108l-112 466l-115 -466h-104l-73 371q-16 79 -30.5 117t-34.5 67l74 15q45 -53 68 -191l53 -310l118 494h89l121 -494l107 581q-72 0 -109.5 21.5t-37.5 74.5q0 29 7 55h61q-4 -24 -4 -41q0 -30 19 -41.5t73 -11.5h1l14 74h82l-14 -70
q77 9 131 22l11 -53q-75 -18 -154 -26z" />
    <glyph glyph-name="uni0E1F0E49" unicode="&#xe1f;&#xe49;" horiz-adv-x="761" 
d="M758 781l-45 -218l-114 -563h-108l-112 466l-115 -466h-104l-73 371q-16 79 -30.5 117t-34.5 67l74 15q45 -53 68 -191l53 -310l118 494h89l121 -494l91 494l13 71q6 37 15 64q-40 -26 -97.5 -38t-138.5 -14l-19 27q25 33 25 58q0 24 -11.5 33.5t-33.5 9.5q-18 0 -41 -5
l-8 50q28 11 62 11q45 0 74 -21t29 -59q0 -25 -16 -48q65 4 111 23t76 56h82z" />
    <glyph glyph-name="uni0E1F0E4A" unicode="&#xe1f;&#xe4a;" horiz-adv-x="761" 
d="M758 781l-45 -218l-114 -563h-108l-112 466l-115 -466h-104l-73 371q-16 79 -30.5 117t-34.5 67l74 15q45 -53 68 -191l53 -310l118 494h89l121 -494l91 494l9 51q7 37 17 68q-44 -34 -121 -34q-21 0 -39 3q7 38 7 77q0 22 -11 34t-29 12q-21 0 -33.5 -17t-12.5 -47v-38
l-65 -5v43q0 29 -12 46.5t-32 17.5q-19 0 -30 -12t-11 -35q0 -38 9 -76h-64q-4 14 -7 38.5t-3 44.5q0 41 25 68.5t69 27.5q39 0 60.5 -19.5t28.5 -49.5q5 30 28 49.5t62 19.5q44 0 68.5 -24.5t24.5 -60.5q0 -23 -8 -47q42 4 70 27t40 56h82z" />
    <glyph glyph-name="uni0E1F0E4B" unicode="&#xe1f;&#xe4b;" horiz-adv-x="761" 
d="M758 781l-45 -218l-114 -563h-108l-112 466l-115 -466h-104l-73 371q-16 79 -30.5 117t-34.5 67l74 15q45 -53 68 -191l53 -310l118 494h89l121 -494l91 494l40 218h82zM609 714l-75 1l1 -64h-67l1 64l-78 -1l6 56l72 -1l-1 55l67 9l-1 -64l75 1v-56z" />
    <glyph glyph-name="uni0E1F0E4C" unicode="&#xe1f;&#xe4c;" horiz-adv-x="771" 
d="M842 690h-103l-26 -127l-114 -563h-108l-112 466l-115 -466h-104l-73 371q-16 79 -30.5 117t-34.5 67l74 15q45 -53 68 -191l53 -310l118 494h89l121 -494l91 494l23 127h-47q-25 0 -34 -10.5t-9 -37.5q0 -18 3 -33h-68q-4 28 -4 48q0 48 27 68t77 20h65l7 36h82l-7 -36
h91v-55z" />
    <glyph glyph-name="uni0E1F0E4D" unicode="&#xe1f;&#xe4d;" horiz-adv-x="761" 
d="M758 781l-45 -218l-114 -563h-108l-112 466l-115 -466h-104l-73 371q-16 79 -30.5 117t-34.5 67l74 15q45 -53 68 -191l53 -310l118 494h89l121 -494l91 494l40 218h82zM588 805.5q28 -26.5 28 -66.5t-28 -66.5t-72 -26.5q-43 0 -71 26.5t-28 66.5q0 39 28 66t71 27
q44 0 72 -26.5zM488.5 768.5q-10.5 -10.5 -10.5 -29.5t10.5 -30t27.5 -11q18 0 28.5 11t10.5 30t-10.5 29.5t-28.5 10.5q-17 0 -27.5 -10.5z" />
    <glyph glyph-name="uni0E310E4A" unicode="&#xe31;&#xe4a;" 
d="M-469 670q-35 22 -35 76q0 29 8 55h61q-5 -20 -5 -41q0 -29 17.5 -40t66.5 -11q36 0 92 10.5t103 30.5l15 -59q-54 -20 -115 -31.5t-105 -11.5q-68 0 -103 22zM-31 1003q-30 -76 -79.5 -106.5t-115.5 -30.5q-17 0 -35 3q6 36 6 70q0 19 -9.5 30t-26.5 11
q-18 0 -29.5 -15.5t-11.5 -41.5v-35l-59 -4v39q0 26 -11 41.5t-29 15.5q-17 0 -26.5 -10.5t-9.5 -31.5q0 -31 8 -69h-58q-3 13 -6 35t-3 40q0 37 23 61.5t62 24.5q35 0 54.5 -17.5t25.5 -44.5q4 27 25 44.5t56 17.5q39 0 61.5 -22t22.5 -54q0 -19 -7 -42q81 9 114 104z" />
    <glyph glyph-name="uni0620.init" unicode="&#x620;" horiz-adv-x="287" 
d="M217 14q10 -19 10 -40q0 -35 -23 -59t-61 -24q-37 0 -61.5 24.5t-24.5 58.5q0 13 5 28q-38 -2 -62 -2l-20 41l27 41q63 0 94 9.5t42.5 30.5t11.5 61q0 39 -11.5 87.5t-34.5 114.5l79 25q20 -60 31 -122.5t11 -108.5q0 -49 -9.5 -82t-31.5 -53q18 -11 28 -30zM173 -53.5
q11 11.5 11 27.5q0 17 -11.5 27.5t-29.5 10.5t-30 -10.5t-12 -27.5q0 -16 11.5 -27.5t30.5 -11.5t30 11.5z" />
    <glyph glyph-name="uni0620.medi" unicode="&#x620;" horiz-adv-x="341" 
d="M235 17q-39 17 -63 60q-10 -18 -16 -26q22 -10 35.5 -30t13.5 -45q0 -35 -23.5 -59t-61.5 -24q-37 0 -61 24.5t-24 58.5q0 14 4 25q-12 -1 -39 -1l-20 41l28 41q59 0 85.5 12.5t32.5 35t6 68.5v136h77v-136q0 -44 10 -68t40 -36t90 -12l12 -41l-20 -41q-67 0 -106 17z
M150.5 -51.5q11.5 11.5 11.5 27.5q0 17 -12 28t-30 11t-29.5 -11t-11.5 -28q0 -16 11 -27.5t30 -11.5t30.5 11.5z" />
    <glyph glyph-name="uni0620.fina" unicode="&#x620;" horiz-adv-x="734" 
d="M734 0q-49 0 -87 18q7 -21 7 -36q0 -45 -31 -85.5t-92.5 -69t-149.5 -37.5q10 -20 10 -40q0 -34 -23.5 -58t-61.5 -24q-37 0 -61.5 24t-24.5 58q0 22 12 43q-95 17 -140 79.5t-45 158.5q0 99 46 193l57 -17q-28 -78 -28 -164q0 -80 45.5 -126.5t148.5 -46.5
q84 0 145 18.5t92 46t31 53.5q0 19 -15 33.5t-52 29.5t-106 35l36 72q23 -7 86 -29q71 -25 115 -36t93 -11l13 -41zM340.5 -226.5q-7.5 9.5 -20.5 13.5h-12h-16q-12 -3 -20 -13t-8 -24q0 -16 11.5 -27.5t30.5 -11.5t30.5 11.5t11.5 27.5q0 14 -7.5 23.5z" />
    <glyph glyph-name="uni063B.init" unicode="&#x63b;" horiz-adv-x="464" 
d="M413 680l-327 -198q107 -47 165.5 -89t80.5 -84t22 -95q0 -105 -89 -159.5t-265 -54.5l-20 41l27 41q152 0 213.5 36t61.5 105q0 34 -22 64.5t-83.5 68.5t-175.5 86l17 78l400 247zM-54 736q-14 14 -14 34t14.5 34t33.5 14q20 0 34 -14t14 -34t-14 -34t-34 -14t-34 14z
M97 736q-14 14 -14 34t14 34t34 14t34 -14t14 -34t-14 -34t-34 -14t-34 14z" />
    <glyph glyph-name="uni063B.medi" unicode="&#x63b;" horiz-adv-x="548" 
d="M568 43l-20 -43q-60 0 -105.5 15t-88 53t-90.5 107q-2 -79 -71 -127t-193 -48l-20 41l27 41q97 0 144.5 30t47.5 84q0 62 -65 144l-84 105l17 74l399 248l-4 -87l-340 -205l180 -225q62 -79 95 -111.5t66.5 -44.5t91.5 -12zM-12 736q-14 14 -14 34t14.5 34t33.5 14
q20 0 34 -14t14 -34t-14 -34t-34 -14t-34 14zM139 736q-14 14 -14 34t14 34t34 14t34 -14t14 -34t-14 -34t-34 -14t-34 14z" />
    <glyph glyph-name="uni063B.fina" unicode="&#x63b;" horiz-adv-x="995" 
d="M1015 43l-20 -43q-60 0 -105.5 15t-88.5 53.5t-91 107.5q-2 -87 -88.5 -138.5t-285.5 -51.5q-105 0 -168.5 21.5t-92 66t-28.5 114.5q0 38 9.5 79.5t27.5 78.5l57 -19q-22 -66 -22 -127q0 -48 21.5 -76.5t70 -41.5t132.5 -13q172 0 237.5 33.5t65.5 93.5q0 62 -65 144
l-84 105l17 74l399 248l-5 -87l-339 -205l179 -225q62 -79 95.5 -111.5t67 -44.5t91.5 -12zM426 736q-14 14 -14 34t14.5 34t33.5 14q20 0 34 -14t14 -34t-14 -34t-34 -14t-34 14zM577 736q-14 14 -14 34t14 34t34 14t34 -14t14 -34t-14 -34t-34 -14t-34 14z" />
    <glyph glyph-name="uni063C.init" unicode="&#x63c;" horiz-adv-x="464" 
d="M413 680l-327 -198q107 -47 165.5 -89t80.5 -84t22 -95q0 -105 -89 -159.5t-265 -54.5l-20 41l27 41q152 0 213.5 36t61.5 105q0 34 -22 64.5t-83.5 68.5t-175.5 86l17 78l400 247zM79.5 -113.5q12.5 -12.5 12.5 -29.5t-12.5 -29.5t-29.5 -12.5q-18 0 -30.5 12.5
t-12.5 29.5t12.5 29.5t30.5 12.5q17 0 29.5 -12.5zM218.5 -125.5q12.5 -12.5 12.5 -29.5t-12.5 -29.5t-30.5 -12.5q-17 0 -29.5 12.5t-12.5 29.5t12.5 29.5t29.5 12.5q18 0 30.5 -12.5zM136.5 -220q12.5 -12 12.5 -29t-12.5 -29.5t-29.5 -12.5t-29.5 12.5t-12.5 29.5
t12.5 29t29.5 12t29.5 -12z" />
    <glyph glyph-name="uni063C.medi" unicode="&#x63c;" horiz-adv-x="548" 
d="M568 43l-20 -43q-60 0 -105.5 15t-88 53t-90.5 107q-2 -79 -71 -127t-193 -48l-20 41l27 41q97 0 144.5 30t47.5 84q0 62 -65 144l-84 105l17 74l399 248l-4 -87l-340 -205l180 -225q62 -79 95 -111.5t66.5 -44.5t91.5 -12zM249.5 -113.5q12.5 -12.5 12.5 -29.5
t-12.5 -29.5t-29.5 -12.5q-18 0 -30.5 12.5t-12.5 29.5t12.5 29.5t30.5 12.5q17 0 29.5 -12.5zM388.5 -125.5q12.5 -12.5 12.5 -29.5t-12.5 -29.5t-30.5 -12.5q-17 0 -29.5 12.5t-12.5 29.5t12.5 29.5t29.5 12.5q18 0 30.5 -12.5zM306.5 -220q12.5 -12 12.5 -29t-12.5 -29.5
t-29.5 -12.5t-29.5 12.5t-12.5 29.5t12.5 29t29.5 12t29.5 -12z" />
    <glyph glyph-name="uni063C.fina" unicode="&#x63c;" horiz-adv-x="995" 
d="M1015 43l-20 -43q-60 0 -105.5 15t-88.5 53.5t-91 107.5q-2 -87 -88.5 -138.5t-285.5 -51.5q-105 0 -168.5 21.5t-92 66t-28.5 114.5q0 38 9.5 79.5t27.5 78.5l57 -19q-22 -66 -22 -127q0 -48 21.5 -76.5t70 -41.5t132.5 -13q172 0 237.5 33.5t65.5 93.5q0 62 -65 144
l-84 105l17 74l399 248l-5 -87l-339 -205l179 -225q62 -79 95.5 -111.5t67 -44.5t91.5 -12zM342.5 -113.5q12.5 -12.5 12.5 -29.5t-12.5 -29.5t-29.5 -12.5q-18 0 -30.5 12.5t-12.5 29.5t12.5 29.5t30.5 12.5q17 0 29.5 -12.5zM481.5 -125.5q12.5 -12.5 12.5 -29.5
t-12.5 -29.5t-30.5 -12.5q-17 0 -29.5 12.5t-12.5 29.5t12.5 29.5t29.5 12.5q18 0 30.5 -12.5zM399.5 -220q12.5 -12 12.5 -29t-12.5 -29.5t-29.5 -12.5t-29.5 12.5t-12.5 29.5t12.5 29t29.5 12t29.5 -12z" />
    <glyph glyph-name="uni066E.init" unicode="&#x66e;" horiz-adv-x="287" 
d="M101 91.5q31 9.5 42.5 30.5t11.5 61q0 39 -11.5 87.5t-34.5 114.5l79 25q20 -60 31 -122.5t11 -108.5q0 -70 -20.5 -108t-69.5 -54.5t-140 -16.5l-20 41l27 41q63 0 94 9.5z" />
    <glyph glyph-name="uni066E.medi" unicode="&#x66e;" horiz-adv-x="341" 
d="M361 41l-20 -41q-67 0 -106 17t-63 60q-22 -44 -61.5 -60.5t-110.5 -16.5l-20 41l28 41q59 0 85.5 12.5t32.5 35t6 68.5v136h77v-136q0 -44 10 -68t40 -36t90 -12z" />
    <glyph glyph-name="uni066E.fina" unicode="&#x66e;" horiz-adv-x="962" 
d="M982 43l-20 -43q-75 0 -116.5 19.5t-69.5 59.5q-81 -46 -184.5 -69.5t-255.5 -23.5q-105 0 -168.5 21.5t-92 66t-28.5 114.5q0 38 9.5 79.5t27.5 78.5l57 -19q-22 -66 -22 -127q0 -48 21.5 -76.5t70 -41.5t132.5 -13q130 0 234.5 22.5t167.5 57.5v185h77v-125
q0 -49 11 -75.5t42.5 -39t93.5 -12.5z" />
    <glyph glyph-name="uni066F.init" unicode="&#x66f;" horiz-adv-x="470" 
d="M319 530q44 -33 69 -97t25 -153q0 -111 -40.5 -171.5t-128.5 -84.5t-244 -24l-20 42l27 40q128 0 198 13.5t100.5 41.5t37.5 77q-39 -33 -118 -33q-57 0 -101 23.5t-68 65t-24 93.5q0 54 25 100t68 73t95 27q55 0 99 -33zM138.5 282q39.5 -32 114.5 -32q22 0 47.5 4.5
t45.5 11.5q0 110 -33.5 163t-92.5 53q-53 0 -87 -32.5t-34 -81.5q0 -54 39.5 -86z" />
    <glyph glyph-name="uni066F.medi" unicode="&#x66f;" horiz-adv-x="509" 
d="M529 41l-20 -41h-47q-103 0 -201 45q-98 -45 -222 -45h-39l-20 41l27 41h42q71 0 129 13q-48 37 -75 83.5t-27 98.5t24 99t65.5 76t89.5 29q55 0 98 -28.5t66.5 -75.5t23.5 -100q0 -48 -26.5 -95.5t-74.5 -86.5q56 -13 120 -13h52zM175.5 187q31.5 -39 86.5 -65
q53 25 83 64t30 91q0 50 -33 86t-83 36q-49 0 -82 -35.5t-33 -86.5t31.5 -90z" />
    <glyph glyph-name="uni066F.fina" unicode="&#x66f;" horiz-adv-x="777" 
d="M777 0h-84q-16 -127 -90.5 -191.5t-233.5 -64.5q-170 0 -246 62.5t-76 181.5q0 97 46 193l57 -17q-28 -80 -28 -164q0 -83 58 -128.5t197 -45.5q127 0 182.5 46t68.5 128h-70q-123 0 -181 49.5t-58 133.5q0 54 25 99.5t68 72.5t95 27q55 0 98.5 -33t68.5 -97t25 -154v-16
h85l13 -40zM633 82v2q0 111 -33.5 164.5t-92.5 53.5q-53 0 -87 -32.5t-34 -81.5q0 -106 157 -106h90z" />
    <glyph glyph-name="uni0676.fina" unicode="&#x676;" horiz-adv-x="536" 
d="M415 541l-209 -34l-6 46l65 11q-44 38 -44 73q0 38 26.5 63t76.5 25q33 0 74 -22l-28 -45q-27 16 -52 16t-35.5 -11.5t-10.5 -27.5q0 -28 44 -63l93 16zM536 0h-104q-25 -105 -109.5 -170.5t-250.5 -99.5l-25 79q140 30 214 76t99 115h-78q-104 0 -161 51.5t-57 133.5
q0 53 25 99t68 73t95 27q55 0 98.5 -32.5t68 -94t24.5 -145.5q0 -20 -1 -30h102l12 -40zM376 82v17q0 101 -33 152t-92 51q-52 0 -85.5 -32.5t-33.5 -80.5q0 -107 157 -107h87z" />
    <glyph glyph-name="uni0677.fina" unicode="&#x677;" horiz-adv-x="536" 
d="M536 0h-104q-25 -105 -109.5 -170.5t-250.5 -99.5l-25 79q140 30 214 76t99 115h-78q-104 0 -161 51.5t-57 133.5q0 53 25 99t68 73t95 27q55 0 98.5 -32.5t68 -94t24.5 -145.5q0 -20 -1 -30h102l12 -40zM376 82v17q0 101 -33 152t-92 51q-52 0 -85.5 -32.5t-33.5 -80.5
q0 -107 157 -107h87zM362 465l-209 -34l-6 46l65 11q-44 38 -44 73q0 38 26.5 63t76.5 25q33 0 74 -22l-28 -45q-27 16 -52 16t-35.5 -11.5t-10.5 -27.5q0 -28 44 -63l93 16zM324.5 899.5q20.5 -24.5 20.5 -60.5q0 -46 -40.5 -90.5t-119.5 -73.5l-21 43q43 13 82 39
q-66 27 -66 81q0 40 25 63t60 23q39 0 59.5 -24.5zM239.5 810.5q12.5 -11.5 42.5 -20.5q18 23 18 45q0 16 -9.5 26.5t-26.5 10.5q-16 0 -26.5 -9t-10.5 -26q0 -15 12.5 -26.5z" />
    <glyph glyph-name="uni0678.init" unicode="&#x678;" horiz-adv-x="287" 
d="M258 581l-209 -34l-6 46l65 11q-44 38 -44 73q0 38 26.5 63t76.5 25q33 0 74 -22l-28 -45q-27 16 -52 16t-35.5 -11.5t-10.5 -27.5q0 -28 44 -63l93 16zM101 91.5q31 9.5 42.5 30.5t11.5 61q0 39 -11.5 87.5t-34.5 114.5l79 25q20 -60 31 -122.5t11 -108.5
q0 -70 -20.5 -108t-69.5 -54.5t-140 -16.5l-20 41l27 41q63 0 94 9.5z" />
    <glyph glyph-name="uni0678.medi" unicode="&#x678;" horiz-adv-x="341" 
d="M92 523l65 11q-43 37 -43 73q0 38 26.5 63t76.5 25q33 0 74 -22l-29 -45q-27 16 -52 16q-24 0 -35 -11.5t-11 -27.5q0 -29 45 -62l92 15l6 -47l-209 -34zM361 41l-20 -41q-67 0 -106 17t-63 60q-22 -44 -61.5 -60.5t-110.5 -16.5l-20 41l28 41q59 0 85.5 12.5t32.5 35
t6 68.5v136h77v-136q0 -44 10 -68t40 -36t90 -12z" />
    <glyph glyph-name="uni0678.fina" unicode="&#x678;" horiz-adv-x="734" 
d="M734 0q-49 0 -87 18q7 -21 7 -36q0 -51 -39.5 -95.5t-117.5 -72t-189 -27.5q-134 0 -197.5 65t-63.5 179q0 99 46 193l57 -17q-28 -78 -28 -164q0 -80 45.5 -126.5t148.5 -46.5q84 0 145 18.5t92 46t31 53.5q0 19 -15 33.5t-52 29.5t-106 35l36 72q23 -7 86 -29
q71 -25 115 -36t93 -11l13 -41zM633 292l-209 -34l-6 46l65 11q-44 38 -44 73q0 38 26.5 63t76.5 25q33 0 74 -22l-28 -45q-27 16 -52 16t-35.5 -11.5t-10.5 -27.5q0 -28 44 -63l93 16z" />
    <glyph glyph-name="uni067C.init" unicode="&#x67c;" horiz-adv-x="283" 
d="M15 520q-14 14 -14 34t14 34t34 14t34 -14t14 -34t-14 -34t-34 -14t-34 14zM234 588q14 -14 14 -34t-14 -34t-34 -14t-33.5 14t-13.5 34t13.5 34t33.5 14t34 -14zM218 90.5q-12 -34.5 -39 -54.5q13 -11 20.5 -28t7.5 -35q0 -34 -23 -58t-61 -24q-37 0 -61.5 24t-24.5 58
q0 13 5 28q-13 -1 -42 -1l-20 41l27 41q63 0 94 9.5t42.5 30.5t11.5 61q0 39 -11.5 87.5t-34.5 114.5l79 25q20 -60 31 -122.5t11 -108.5q0 -54 -12 -88.5zM153 0.5q-11 10.5 -28 11.5q-16 -4 -24 -5q-20 -12 -20 -34q0 -15 11.5 -26.5t30.5 -11.5t30 11.5t11 26.5
q0 17 -11 27.5z" />
    <glyph glyph-name="uni067C.medi" unicode="&#x67c;" horiz-adv-x="341" 
d="M61 455q-14 14 -14 34t14.5 34t33.5 14q20 0 34 -14t14 -34t-14 -34t-34 -14t-34 14zM212 455q-14 14 -14 34t14 34t34 14t34 -14t14 -34t-14 -34t-34 -14t-34 14zM361 41l-20 -41q-67 0 -106 17t-63 60q-6 -14 -18 -29q19 -11 30.5 -30t11.5 -42q0 -35 -23 -59t-61 -24
q-37 0 -61.5 24.5t-24.5 58.5q0 14 4 25q-10 -1 -30 -1l-20 41l28 41q59 0 85.5 12.5t32.5 35t6 68.5v136h77v-136q0 -44 10 -68t40 -36t90 -12zM142 -51.5q11 11.5 11 27.5q0 17 -11.5 28t-29.5 11h-6q-3 -2 -8.5 -3.5t-8.5 -2.5q-19 -11 -19 -33q0 -16 11.5 -27.5
t30.5 -11.5t30 11.5z" />
    <glyph glyph-name="uni067C.fina" unicode="&#x67c;" horiz-adv-x="962" 
d="M340 418q-14 14 -14 34t14 34t34 14t34 -14t14 -34t-14 -34t-34 -14t-34 14zM491 418q-14 14 -14 34t14 34t34 14t34 -14t14 -34t-14 -34t-34 -14t-34 14zM982 43l-20 -43q-75 0 -116.5 19.5t-69.5 59.5q-67 -38 -147.5 -60.5t-190.5 -29.5q9 -18 9 -39q0 -35 -23.5 -59
t-61.5 -24q-37 0 -61 24.5t-24 58.5q0 21 9 37q-128 7 -183.5 55.5t-55.5 145.5q0 38 9.5 79.5t27.5 78.5l57 -19q-22 -66 -22 -127q0 -48 21.5 -76.5t70 -41.5t132.5 -13q130 0 234.5 22.5t167.5 57.5v185h77v-125q0 -49 11 -75.5t42.5 -39t93.5 -12.5zM397 -27.5
q-7 9.5 -19 13.5h-33q-24 -10 -24 -36q0 -16 11 -27.5t30 -11.5t30.5 11.5t11.5 27.5q0 13 -7 22.5z" />
    <glyph glyph-name="uni067D.init" unicode="&#x67d;" horiz-adv-x="287" 
d="M101 91.5q31 9.5 42.5 30.5t11.5 61q0 39 -11.5 87.5t-34.5 114.5l79 25q20 -60 31 -122.5t11 -108.5q0 -70 -20.5 -108t-69.5 -54.5t-140 -16.5l-20 41l27 41q63 0 94 9.5zM89.5 661.5q12.5 -12.5 12.5 -29.5t-12.5 -29.5t-29.5 -12.5q-18 0 -30.5 12.5t-12.5 29.5
t12.5 29.5t30.5 12.5q17 0 29.5 -12.5zM228.5 649.5q12.5 -12.5 12.5 -29.5t-12.5 -29.5t-30.5 -12.5q-17 0 -29.5 12.5t-12.5 29.5t12.5 29.5t29.5 12.5q18 0 30.5 -12.5zM146.5 555.5q12.5 -12.5 12.5 -29.5t-12.5 -29.5t-29.5 -12.5t-29.5 12.5t-12.5 29.5t12.5 29.5
t29.5 12.5t29.5 -12.5z" />
    <glyph glyph-name="uni067D.medi" unicode="&#x67d;" horiz-adv-x="341" 
d="M361 41l-20 -41q-67 0 -106 17t-63 60q-22 -44 -61.5 -60.5t-110.5 -16.5l-20 41l28 41q59 0 85.5 12.5t32.5 35t6 68.5v136h77v-136q0 -44 10 -68t40 -36t90 -12zM135.5 596.5q12.5 -12.5 12.5 -29.5t-12.5 -29.5t-29.5 -12.5q-18 0 -30.5 12.5t-12.5 29.5t12.5 29.5
t30.5 12.5q17 0 29.5 -12.5zM274.5 584.5q12.5 -12.5 12.5 -29.5t-12.5 -29.5t-30.5 -12.5q-17 0 -29.5 12.5t-12.5 29.5t12.5 29.5t29.5 12.5q18 0 30.5 -12.5zM192.5 490.5q12.5 -12.5 12.5 -29.5t-12.5 -29.5t-29.5 -12.5t-29.5 12.5t-12.5 29.5t12.5 29.5t29.5 12.5
t29.5 -12.5z" />
    <glyph glyph-name="uni067D.fina" unicode="&#x67d;" horiz-adv-x="962" 
d="M982 43l-20 -43q-75 0 -116.5 19.5t-69.5 59.5q-81 -46 -184.5 -69.5t-255.5 -23.5q-105 0 -168.5 21.5t-92 66t-28.5 114.5q0 38 9.5 79.5t27.5 78.5l57 -19q-22 -66 -22 -127q0 -48 21.5 -76.5t70 -41.5t132.5 -13q130 0 234.5 22.5t167.5 57.5v185h77v-125
q0 -49 11 -75.5t42.5 -39t93.5 -12.5zM414.5 559.5q12.5 -12.5 12.5 -29.5t-12.5 -29.5t-29.5 -12.5q-18 0 -30.5 12.5t-12.5 29.5t12.5 29.5t30.5 12.5q17 0 29.5 -12.5zM553.5 547.5q12.5 -12.5 12.5 -29.5t-12.5 -29.5t-30.5 -12.5q-17 0 -29.5 12.5t-12.5 29.5
t12.5 29.5t29.5 12.5q18 0 30.5 -12.5zM471.5 453.5q12.5 -12.5 12.5 -29.5t-12.5 -29.5t-29.5 -12.5t-29.5 12.5t-12.5 29.5t12.5 29.5t29.5 12.5t29.5 -12.5z" />
    <glyph glyph-name="uni0681.init" unicode="&#x681;" horiz-adv-x="703" 
d="M330 445.5q40 -12.5 65.5 -31.5t61.5 -53q48 -46 91 -75t115 -48l-11 -71l-93 -8q-77 -5 -137.5 -25.5t-143.5 -57.5q-82 -38 -142.5 -57t-135.5 -19l-20 41l27 42q65 0 118.5 16t130.5 50q79 34 135.5 52.5t130.5 25.5q-40 17 -66.5 35t-59.5 46q-28 24 -48 37.5t-49 22
t-70 8.5q-59 0 -120 -37l-39 72q40 23 82 35t81 12q57 0 97 -12.5zM340 538l-209 -34l-6 46l65 11q-44 38 -44 73q0 38 26.5 63t76.5 25q33 0 74 -22l-28 -45q-27 16 -52 16t-35.5 -11.5t-10.5 -27.5q0 -28 44 -63l93 16z" />
    <glyph glyph-name="uni0681.medi" unicode="&#x681;" horiz-adv-x="716" 
d="M736 41l-20 -41q-101 0 -162 45t-72 138q-46 -11 -89 -31.5t-101 -52.5q-60 -33 -100.5 -52.5t-89.5 -33t-102 -13.5l-20 41l27 41q67 0 121.5 20t134.5 61q74 37 129 59t123 33q-41 13 -69.5 28.5t-61.5 38.5q-43 28 -74 41t-81 13q-58 0 -121 -36l-38 71q40 23 81.5 35
t78.5 12q53 0 90.5 -10t62.5 -25.5t61 -43.5q50 -40 96 -65.5t121 -44.5l-11 -71l-94 -4q-8 0 -12 -1q10 -48 32.5 -72t56 -31.5t90.5 -7.5zM337 539l-209 -34l-6 46l65 11q-44 38 -44 73q0 38 26.5 63t76.5 25q33 0 74 -22l-28 -45q-27 16 -52 16t-35.5 -11.5t-10.5 -27.5
q0 -28 44 -63l93 16z" />
    <glyph glyph-name="uni0681.fina" unicode="&#x681;" horiz-adv-x="667" 
d="M262.5 140q-75.5 -39 -110.5 -94.5t-35 -120.5q0 -98 71 -151t207 -53q64 0 120 12.5t97 34.5l31 -73q-44 -27 -110 -42.5t-146 -15.5q-168 0 -252.5 74t-84.5 201q0 93 45.5 166.5t138.5 120.5t231 60q-37 16 -66 36t-34 23q-42 30 -71.5 43.5t-71.5 13.5
q-38 0 -68.5 -9.5t-60.5 -27.5l-38 71q80 49 173 49q60 0 101.5 -22.5t92.5 -66.5q53 -43 91.5 -66.5t94.5 -32.5l-9 -72l-83 -3q10 -48 28 -72t48 -32.5t83 -8.5l12 -41l-20 -41q-99 0 -151.5 46.5t-61.5 144.5q-116 -12 -191.5 -51zM337 538l-209 -34l-6 46l65 11
q-44 38 -44 73q0 38 26.5 63t76.5 25q33 0 74 -22l-28 -45q-27 16 -52 16t-35.5 -11.5t-10.5 -27.5q0 -28 44 -63l93 16z" />
    <glyph glyph-name="uni0682.init" unicode="&#x682;" horiz-adv-x="703" 
d="M330 445.5q40 -12.5 65.5 -31.5t61.5 -53q48 -46 91 -75t115 -48l-11 -71l-93 -8q-77 -5 -137.5 -25.5t-143.5 -57.5q-82 -38 -142.5 -57t-135.5 -19l-20 41l27 42q65 0 118.5 16t130.5 50q79 34 135.5 52.5t130.5 25.5q-40 17 -66.5 35t-59.5 46q-28 24 -48 37.5t-49 22
t-70 8.5q-59 0 -120 -37l-39 72q40 23 82 35t81 12q57 0 97 -12.5zM200 664q-14 14 -14 34t14 34t34 14t34 -14t14 -34t-14 -34t-34 -14t-34 14zM201 519q-14 14 -14 34t14 34t34 14t34 -14t14 -34t-14 -34t-34 -14t-34 14z" />
    <glyph glyph-name="uni0682.medi" unicode="&#x682;" horiz-adv-x="716" 
d="M736 41l-20 -41q-101 0 -162 45t-72 138q-46 -11 -89 -31.5t-101 -52.5q-60 -33 -100.5 -52.5t-89.5 -33t-102 -13.5l-20 41l27 41q67 0 121.5 20t134.5 61q74 37 129 59t123 33q-41 13 -69.5 28.5t-61.5 38.5q-43 28 -74 41t-81 13q-58 0 -121 -36l-38 71q40 23 81.5 35
t78.5 12q53 0 90.5 -10t62.5 -25.5t61 -43.5q50 -40 96 -65.5t121 -44.5l-11 -71l-94 -4q-8 0 -12 -1q10 -48 32.5 -72t56 -31.5t90.5 -7.5zM197 665q-14 14 -14 34t14 34t34 14t34 -14t14 -34t-14 -34t-34 -14t-34 14zM198 520q-14 14 -14 34t14 34t34 14t34 -14t14 -34
t-14 -34t-34 -14t-34 14z" />
    <glyph glyph-name="uni0682.fina" unicode="&#x682;" horiz-adv-x="667" 
d="M262.5 140q-75.5 -39 -110.5 -94.5t-35 -120.5q0 -98 71 -151t207 -53q64 0 120 12.5t97 34.5l31 -73q-44 -27 -110 -42.5t-146 -15.5q-168 0 -252.5 74t-84.5 201q0 93 45.5 166.5t138.5 120.5t231 60q-37 16 -66 36t-34 23q-42 30 -71.5 43.5t-71.5 13.5
q-38 0 -68.5 -9.5t-60.5 -27.5l-38 71q80 49 173 49q60 0 101.5 -22.5t92.5 -66.5q53 -43 91.5 -66.5t94.5 -32.5l-9 -72l-83 -3q10 -48 28 -72t48 -32.5t83 -8.5l12 -41l-20 -41q-99 0 -151.5 46.5t-61.5 144.5q-116 -12 -191.5 -51zM197 664q-14 14 -14 34t14 34t34 14
t34 -14t14 -34t-14 -34t-34 -14t-34 14zM198 519q-14 14 -14 34t14 34t34 14t34 -14t14 -34t-14 -34t-34 -14t-34 14z" />
    <glyph glyph-name="uni0685.init" unicode="&#x685;" horiz-adv-x="703" 
d="M330 445.5q40 -12.5 65.5 -31.5t61.5 -53q48 -46 91 -75t115 -48l-11 -71l-93 -8q-77 -5 -137.5 -25.5t-143.5 -57.5q-82 -38 -142.5 -57t-135.5 -19l-20 41l27 42q65 0 118.5 16t130.5 50q79 34 135.5 52.5t130.5 25.5q-40 17 -66.5 35t-59.5 46q-28 24 -48 37.5t-49 22
t-70 8.5q-59 0 -120 -37l-39 72q40 23 82 35t81 12q57 0 97 -12.5zM200 658q-14 14 -14 33t14 33t33 14t33 -14t14 -33t-14 -33t-33 -14t-33 14zM118 539q-14 14 -14 33q0 20 14 33.5t34 13.5q19 0 33 -14t14 -33t-14 -33t-33 -14q-20 0 -34 14zM281 539q-14 14 -14 33
t14 33t33 14q20 0 34 -13.5t14 -33.5q0 -19 -14 -33t-34 -14q-19 0 -33 14z" />
    <glyph glyph-name="uni0685.medi" unicode="&#x685;" horiz-adv-x="716" 
d="M736 41l-20 -41q-101 0 -162 45t-72 138q-46 -11 -89 -31.5t-101 -52.5q-60 -33 -100.5 -52.5t-89.5 -33t-102 -13.5l-20 41l27 41q67 0 121.5 20t134.5 61q74 37 129 59t123 33q-41 13 -69.5 28.5t-61.5 38.5q-43 28 -74 41t-81 13q-58 0 -121 -36l-38 71q40 23 81.5 35
t78.5 12q53 0 90.5 -10t62.5 -25.5t61 -43.5q50 -40 96 -65.5t121 -44.5l-11 -71l-94 -4q-8 0 -12 -1q10 -48 32.5 -72t56 -31.5t90.5 -7.5zM197 659q-14 14 -14 33t14 33t33 14t33 -14t14 -33t-14 -33t-33 -14t-33 14zM115 540q-14 14 -14 33q0 20 14 33.5t34 13.5
q19 0 33 -14t14 -33t-14 -33t-33 -14q-20 0 -34 14zM278 540q-14 14 -14 33t14 33t33 14q20 0 34 -13.5t14 -33.5q0 -19 -14 -33t-34 -14q-19 0 -33 14z" />
    <glyph glyph-name="uni0685.fina" unicode="&#x685;" horiz-adv-x="667" 
d="M262.5 140q-75.5 -39 -110.5 -94.5t-35 -120.5q0 -98 71 -151t207 -53q64 0 120 12.5t97 34.5l31 -73q-44 -27 -110 -42.5t-146 -15.5q-168 0 -252.5 74t-84.5 201q0 93 45.5 166.5t138.5 120.5t231 60q-37 16 -66 36t-34 23q-42 30 -71.5 43.5t-71.5 13.5
q-38 0 -68.5 -9.5t-60.5 -27.5l-38 71q80 49 173 49q60 0 101.5 -22.5t92.5 -66.5q53 -43 91.5 -66.5t94.5 -32.5l-9 -72l-83 -3q10 -48 28 -72t48 -32.5t83 -8.5l12 -41l-20 -41q-99 0 -151.5 46.5t-61.5 144.5q-116 -12 -191.5 -51zM197 658q-14 14 -14 33t14 33t33 14
t33 -14t14 -33t-14 -33t-33 -14t-33 14zM115 539q-14 14 -14 33q0 20 14 33.5t34 13.5q19 0 33 -14t14 -33t-14 -33t-33 -14q-20 0 -34 14zM278 539q-14 14 -14 33t14 33t33 14q20 0 34 -13.5t14 -33.5q0 -19 -14 -33t-34 -14q-19 0 -33 14z" />
    <glyph glyph-name="uni0689.fina" unicode="&#x689;" horiz-adv-x="529" 
d="M549 41l-20 -41q-47 0 -83.5 23t-56.5 62q-37 -66 -120 -89q14 -20 14 -47q0 -34 -23.5 -58.5t-60.5 -24.5t-61.5 24.5t-24.5 58.5q0 20 10 40q-49 5 -98 19l25 81q37 -9 68.5 -14t70.5 -5q106 0 174 66l-152 346l81 39l126 -323q18 -46 32 -69.5t34 -35t52 -11.5z
M232 -26.5q-8 10.5 -22 13.5q-8 -1 -25 -1q-13 -4 -20.5 -14t-7.5 -23q0 -16 11.5 -27.5t30.5 -11.5t30 11.5t11 27.5q0 14 -8 24.5z" />
    <glyph glyph-name="uni068A.fina" unicode="&#x68a;" horiz-adv-x="529" 
d="M549 41l-20 -41q-47 0 -83.5 23t-56.5 62q-28 -49 -80 -74t-126 -25q-81 0 -158 22l25 81q37 -9 68.5 -14t70.5 -5q106 0 174 66l-152 346l81 39l126 -323q18 -46 32 -69.5t34 -35t52 -11.5zM173.5 -187q-14.5 15 -14.5 36q0 22 14.5 36.5t36.5 14.5t36.5 -14.5
t14.5 -36.5q0 -21 -14.5 -36t-36.5 -15t-36.5 15z" />
    <glyph glyph-name="uni068B.fina" unicode="&#x68b;" horiz-adv-x="529" 
d="M549 41l-20 -41q-47 0 -83.5 23t-56.5 62q-28 -49 -80 -74t-126 -25q-81 0 -158 22l25 81q37 -9 68.5 -14t70.5 -5q106 0 174 66l-152 346l81 39l126 -323q18 -46 32 -69.5t34 -35t52 -11.5zM173.5 -187q-14.5 15 -14.5 36q0 22 14.5 36.5t36.5 14.5t36.5 -14.5
t14.5 -36.5q0 -21 -14.5 -36t-36.5 -15t-36.5 15zM309.5 736q22.5 -25 22.5 -62q0 -33 -24.5 -59.5t-74.5 -26.5h-152l5 46h25l12 20v143h46v-80q40 44 83 44q35 0 57.5 -25zM272.5 644q14.5 10 14.5 31q0 39 -39 39q-46 0 -98 -80h75q33 0 47.5 10z" />
    <glyph glyph-name="uni068F.fina" unicode="&#x68f;" horiz-adv-x="529" 
d="M549 41l-20 -41q-47 0 -83.5 23t-56.5 62q-28 -49 -80 -74t-126 -25q-81 0 -158 22l25 81q37 -9 68.5 -14t70.5 -5q106 0 174 66l-152 346l81 39l126 -323q18 -46 32 -69.5t34 -35t52 -11.5zM172.5 769.5q12.5 -12.5 12.5 -29.5t-12.5 -29.5t-29.5 -12.5
q-18 0 -30.5 12.5t-12.5 29.5t12.5 29.5t30.5 12.5q17 0 29.5 -12.5zM311.5 757.5q12.5 -12.5 12.5 -29.5t-12.5 -29.5t-30.5 -12.5q-17 0 -29.5 12.5t-12.5 29.5t12.5 29.5t29.5 12.5q18 0 30.5 -12.5zM229.5 663.5q12.5 -12.5 12.5 -29.5t-12.5 -29.5t-29.5 -12.5
t-29.5 12.5t-12.5 29.5t12.5 29.5t29.5 12.5t29.5 -12.5z" />
    <glyph glyph-name="uni0690.fina" unicode="&#x690;" horiz-adv-x="529" 
d="M549 41l-20 -41q-47 0 -83.5 23t-56.5 62q-28 -49 -80 -74t-126 -25q-81 0 -158 22l25 81q37 -9 68.5 -14t70.5 -5q106 0 174 66l-152 346l81 39l126 -323q18 -46 32 -69.5t34 -35t52 -11.5zM100 722q-14 14 -14 32q0 22 14 36t34 14t34 -14t14 -36q0 -18 -14 -32
t-34 -14t-34 14zM250 722q-14 14 -14 32q0 22 14 36t34 14t34 -14.5t14 -35.5q0 -18 -14.5 -32t-33.5 -14q-20 0 -34 14zM100 580q-14 14 -14 34t14 33.5t34 13.5t34 -13.5t14 -33.5t-14 -34t-34 -14t-34 14zM250 580q-14 14 -14 34t14 33.5t34 13.5t34 -14t14 -33
q0 -20 -14 -34t-34 -14t-34 14z" />
    <glyph glyph-name="uni0692.fina" unicode="&#x692;" horiz-adv-x="406" 
d="M426 41l-20 -41q-42 0 -67.5 12.5t-40.5 37.5q-22 -223 -294 -300l-33 79q137 39 200 105.5t63 147.5q0 47 -19.5 107.5t-53.5 133.5l86 28q13 -37 38 -133q19 -77 46.5 -106.5t81.5 -29.5zM183 475l58 98l41 -16l-78 -142h-44l-76 142l41 16z" />
    <glyph glyph-name="uni0693.fina" unicode="&#x693;" horiz-adv-x="406" 
d="M426 41l-20 -41q-42 0 -67.5 12.5t-40.5 37.5q-10 -111 -85 -186q32 -3 54.5 -27t22.5 -56q0 -35 -23.5 -59t-61.5 -24q-37 0 -61.5 24.5t-24.5 58.5q0 10 1 15q-54 -29 -116 -46l-33 79q137 39 200 105.5t63 147.5q0 47 -19.5 107.5t-53.5 133.5l86 28q13 -37 38 -133
q19 -77 46.5 -106.5t81.5 -29.5zM235 -191.5q-12 10.5 -30 10.5t-30 -10.5t-12 -27.5q0 -16 11.5 -27.5t30.5 -11.5t30.5 11.5t11.5 27.5q0 17 -12 27.5z" />
    <glyph glyph-name="uni0694.fina" unicode="&#x694;" horiz-adv-x="406" 
d="M426 41l-20 -41q-42 0 -67.5 12.5t-40.5 37.5q-22 -223 -294 -300l-33 79q137 39 200 105.5t63 147.5q0 47 -19.5 107.5t-53.5 133.5l86 28q13 -37 38 -133q19 -77 46.5 -106.5t81.5 -29.5zM179.5 -357q-14.5 15 -14.5 36q0 22 14.5 36.5t36.5 14.5t36.5 -14.5
t14.5 -36.5q0 -21 -14.5 -36t-36.5 -15t-36.5 15z" />
    <glyph glyph-name="uni0695.fina" unicode="&#x695;" horiz-adv-x="406" 
d="M426 41l-20 -41q-42 0 -67.5 12.5t-40.5 37.5q-22 -223 -294 -300l-33 79q137 39 200 105.5t63 147.5q0 47 -19.5 107.5t-53.5 133.5l86 28q13 -37 38 -133q19 -77 46.5 -106.5t81.5 -29.5zM216 -327l58 98l41 -16l-78 -142h-44l-76 142l41 16z" />
    <glyph glyph-name="uni0696.fina" unicode="&#x696;" horiz-adv-x="406" 
d="M426 41l-20 -41q-42 0 -67.5 12.5t-40.5 37.5q-22 -223 -294 -300l-33 79q137 39 200 105.5t63 147.5q0 47 -19.5 107.5t-53.5 133.5l86 28q13 -37 38 -133q19 -77 46.5 -106.5t81.5 -29.5zM179.5 -357q-14.5 15 -14.5 36q0 22 14.5 36.5t36.5 14.5t36.5 -14.5
t14.5 -36.5q0 -21 -14.5 -36t-36.5 -15t-36.5 15zM143.5 454q-14.5 15 -14.5 36q0 22 14.5 36.5t36.5 14.5t36.5 -14.5t14.5 -36.5q0 -21 -14.5 -36t-36.5 -15t-36.5 15z" />
    <glyph glyph-name="uni0697.fina" unicode="&#x697;" horiz-adv-x="406" 
d="M426 41l-20 -41q-42 0 -67.5 12.5t-40.5 37.5q-22 -223 -294 -300l-33 79q137 39 200 105.5t63 147.5q0 47 -19.5 107.5t-53.5 133.5l86 28q13 -37 38 -133q19 -77 46.5 -106.5t81.5 -29.5zM73 481q-14 14 -14 34t14.5 34t33.5 14q20 0 34 -14t14 -34t-14 -34t-34 -14
t-34 14zM224 481q-14 14 -14 34t14 34t34 14t34 -14t14 -34t-14 -34t-34 -14t-34 14z" />
    <glyph glyph-name="uni0699.fina" unicode="&#x699;" horiz-adv-x="406" 
d="M426 41l-20 -41q-42 0 -67.5 12.5t-40.5 37.5q-22 -223 -294 -300l-33 79q137 39 200 105.5t63 147.5q0 47 -19.5 107.5t-53.5 133.5l86 28q13 -37 38 -133q19 -77 46.5 -106.5t81.5 -29.5zM75 575q-14 14 -14 32q0 22 14 36t34 14t34 -14t14 -36q0 -18 -14 -32t-34 -14
t-34 14zM225 575q-14 14 -14 32q0 22 14 36t34 14t34 -14.5t14 -35.5q0 -18 -14.5 -32t-33.5 -14q-20 0 -34 14zM75 433q-14 14 -14 34t14 33.5t34 13.5t34 -13.5t14 -33.5t-14 -34t-34 -14t-34 14zM225 433q-14 14 -14 34t14 33.5t34 13.5t34 -14t14 -33q0 -20 -14 -34
t-34 -14t-34 14z" />
    <glyph glyph-name="uni069A.init" unicode="&#x69a;" horiz-adv-x="830" 
d="M763 295q10 -59 10 -105q0 -97 -45 -143.5t-124 -46.5q-45 0 -81 18t-57 51q-22 -33 -57.5 -51t-82.5 -18q-46 0 -84 17.5t-57 49.5q-25 -36 -70.5 -51.5t-114.5 -15.5l-20 42l27 40q70 0 105.5 22.5t35.5 77.5v152h74v-132q0 -70 26.5 -95t78.5 -25q47 0 73 29t26 90
v133h75v-132q0 -64 27.5 -92t80.5 -28q46 0 67.5 24t21.5 76q0 41 -10.5 94t-30.5 109l74 25q22 -56 32 -115zM437.5 -187q-14.5 15 -14.5 36q0 22 14.5 36.5t36.5 14.5t36.5 -14.5t14.5 -36.5q0 -21 -14.5 -36t-36.5 -15t-36.5 15zM424.5 428q-14.5 15 -14.5 36
q0 22 14.5 36.5t36.5 14.5t36.5 -14.5t14.5 -36.5q0 -21 -14.5 -36t-36.5 -15t-36.5 15z" />
    <glyph glyph-name="uni069A.medi" unicode="&#x69a;" horiz-adv-x="928" 
d="M948 43l-20 -43q-68 0 -111 18t-60 51q-43 -69 -149 -69q-45 0 -81.5 18t-56.5 51q-22 -33 -57.5 -51t-82.5 -18t-85 17.5t-57 49.5q-25 -36 -71 -51.5t-117 -15.5l-20 42l28 40q71 0 107 22.5t36 77.5v152h74v-132q0 -70 27 -95t79 -25q47 0 73 29t26 90v133h75v-132
q0 -64 27.5 -92t80.5 -28q96 0 96 99v187h77v-176q0 -43 14 -66.5t46 -33.5t90 -10zM430.5 -187q-14.5 15 -14.5 36q0 22 14.5 36.5t36.5 14.5t36.5 -14.5t14.5 -36.5q0 -21 -14.5 -36t-36.5 -15t-36.5 15zM427.5 428q-14.5 15 -14.5 36q0 22 14.5 36.5t36.5 14.5
t36.5 -14.5t14.5 -36.5q0 -21 -14.5 -36t-36.5 -15t-36.5 15z" />
    <glyph glyph-name="uni069A.fina" unicode="&#x69a;" horiz-adv-x="1333" 
d="M1353 43l-20 -43q-68 0 -111 18t-60 51q-43 -69 -149 -69q-45 0 -81.5 18t-56.5 51q-44 -69 -144 -69h-1v0q-71 0 -110 38q-3 -108 -39 -173t-103 -93t-170 -28q-134 0 -197.5 65t-63.5 179q0 97 46 193l57 -17q-28 -80 -28 -164q0 -80 45.5 -127t148.5 -47
q85 0 135 22.5t72.5 71t22.5 130.5q0 56 -15 108t-49 129l84 34q12 -44 22 -73l13 -42q22 -72 53 -98t84 -26q46 0 71.5 29t25.5 90v133h75v-132q0 -64 27.5 -92t80.5 -28q96 0 96 99v192h77v-181q0 -43 14 -66.5t45.5 -33.5t89.5 -10zM837.5 -187q-14.5 15 -14.5 36
q0 22 14.5 36.5t36.5 14.5t36.5 -14.5t14.5 -36.5q0 -21 -14.5 -36t-36.5 -15t-36.5 15zM832.5 428q-14.5 15 -14.5 36q0 22 14.5 36.5t36.5 14.5t36.5 -14.5t14.5 -36.5q0 -21 -14.5 -36t-36.5 -15t-36.5 15z" />
    <glyph glyph-name="uni069B.init" unicode="&#x69b;" horiz-adv-x="830" 
d="M763 295q10 -59 10 -105q0 -97 -45 -143.5t-124 -46.5q-45 0 -81 18t-57 51q-22 -33 -57.5 -51t-82.5 -18q-46 0 -84 17.5t-57 49.5q-25 -36 -70.5 -51.5t-114.5 -15.5l-20 42l27 40q70 0 105.5 22.5t35.5 77.5v152h74v-132q0 -70 26.5 -95t78.5 -25q47 0 73 29t26 90
v133h75v-132q0 -64 27.5 -92t80.5 -28q46 0 67.5 24t21.5 76q0 41 -10.5 94t-30.5 109l74 25q22 -56 32 -115zM438.5 -113.5q12.5 -12.5 12.5 -29.5t-12.5 -29.5t-29.5 -12.5q-18 0 -30.5 12.5t-12.5 29.5t12.5 29.5t30.5 12.5q17 0 29.5 -12.5zM577.5 -125.5
q12.5 -12.5 12.5 -29.5t-12.5 -29.5t-30.5 -12.5q-17 0 -29.5 12.5t-12.5 29.5t12.5 29.5t29.5 12.5q18 0 30.5 -12.5zM495.5 -220q12.5 -12 12.5 -29t-12.5 -29.5t-29.5 -12.5t-29.5 12.5t-12.5 29.5t12.5 29t29.5 12t29.5 -12z" />
    <glyph glyph-name="uni069B.medi" unicode="&#x69b;" horiz-adv-x="928" 
d="M948 43l-20 -43q-68 0 -111 18t-60 51q-43 -69 -149 -69q-45 0 -81.5 18t-56.5 51q-22 -33 -57.5 -51t-82.5 -18t-85 17.5t-57 49.5q-25 -36 -71 -51.5t-117 -15.5l-20 42l28 40q71 0 107 22.5t36 77.5v152h74v-132q0 -70 27 -95t79 -25q47 0 73 29t26 90v133h75v-132
q0 -64 27.5 -92t80.5 -28q96 0 96 99v187h77v-176q0 -43 14 -66.5t46 -33.5t90 -10zM431.5 -113.5q12.5 -12.5 12.5 -29.5t-12.5 -29.5t-29.5 -12.5q-18 0 -30.5 12.5t-12.5 29.5t12.5 29.5t30.5 12.5q17 0 29.5 -12.5zM570.5 -125.5q12.5 -12.5 12.5 -29.5t-12.5 -29.5
t-30.5 -12.5q-17 0 -29.5 12.5t-12.5 29.5t12.5 29.5t29.5 12.5q18 0 30.5 -12.5zM488.5 -220q12.5 -12 12.5 -29t-12.5 -29.5t-29.5 -12.5t-29.5 12.5t-12.5 29.5t12.5 29t29.5 12t29.5 -12z" />
    <glyph glyph-name="uni069B.fina" unicode="&#x69b;" horiz-adv-x="1333" 
d="M1353 43l-20 -43q-68 0 -111 18t-60 51q-43 -69 -149 -69q-45 0 -81.5 18t-56.5 51q-44 -69 -144 -69h-1v0q-71 0 -110 38q-3 -108 -39 -173t-103 -93t-170 -28q-134 0 -197.5 65t-63.5 179q0 97 46 193l57 -17q-28 -80 -28 -164q0 -80 45.5 -127t148.5 -47
q85 0 135 22.5t72.5 71t22.5 130.5q0 56 -15 108t-49 129l84 34q12 -44 22 -73l13 -42q22 -72 53 -98t84 -26q46 0 71.5 29t25.5 90v133h75v-132q0 -64 27.5 -92t80.5 -28q96 0 96 99v192h77v-181q0 -43 14 -66.5t45.5 -33.5t89.5 -10zM838.5 -113.5q12.5 -12.5 12.5 -29.5
t-12.5 -29.5t-29.5 -12.5q-18 0 -30.5 12.5t-12.5 29.5t12.5 29.5t30.5 12.5q17 0 29.5 -12.5zM977.5 -125.5q12.5 -12.5 12.5 -29.5t-12.5 -29.5t-30.5 -12.5q-17 0 -29.5 12.5t-12.5 29.5t12.5 29.5t29.5 12.5q18 0 30.5 -12.5zM895.5 -220q12.5 -12 12.5 -29t-12.5 -29.5
t-29.5 -12.5t-29.5 12.5t-12.5 29.5t12.5 29t29.5 12t29.5 -12z" />
    <glyph glyph-name="uni069C.init" unicode="&#x69c;" horiz-adv-x="830" 
d="M763 295q10 -59 10 -105q0 -97 -45 -143.5t-124 -46.5q-45 0 -81 18t-57 51q-22 -33 -57.5 -51t-82.5 -18q-46 0 -84 17.5t-57 49.5q-25 -36 -70.5 -51.5t-114.5 -15.5l-20 42l27 40q70 0 105.5 22.5t35.5 77.5v152h74v-132q0 -70 26.5 -95t78.5 -25q47 0 73 29t26 90
v133h75v-132q0 -64 27.5 -92t80.5 -28q46 0 67.5 24t21.5 76q0 41 -10.5 94t-30.5 109l74 25q22 -56 32 -115zM430 548q-14 14 -14 33t14 33t33 14t33 -14t14 -33t-14 -33t-33 -14t-33 14zM348 429q-14 14 -14 33q0 20 14 33.5t34 13.5q19 0 33 -14t14 -33t-14 -33t-33 -14
q-20 0 -34 14zM511 429q-14 14 -14 33t14 33t33 14q20 0 34 -13.5t14 -33.5q0 -19 -14 -33t-34 -14q-19 0 -33 14zM438.5 -113.5q12.5 -12.5 12.5 -29.5t-12.5 -29.5t-29.5 -12.5q-18 0 -30.5 12.5t-12.5 29.5t12.5 29.5t30.5 12.5q17 0 29.5 -12.5zM577.5 -125.5
q12.5 -12.5 12.5 -29.5t-12.5 -29.5t-30.5 -12.5q-17 0 -29.5 12.5t-12.5 29.5t12.5 29.5t29.5 12.5q18 0 30.5 -12.5zM495.5 -220q12.5 -12 12.5 -29t-12.5 -29.5t-29.5 -12.5t-29.5 12.5t-12.5 29.5t12.5 29t29.5 12t29.5 -12z" />
    <glyph glyph-name="uni069C.medi" unicode="&#x69c;" horiz-adv-x="928" 
d="M948 43l-20 -43q-68 0 -111 18t-60 51q-43 -69 -149 -69q-45 0 -81.5 18t-56.5 51q-22 -33 -57.5 -51t-82.5 -18t-85 17.5t-57 49.5q-25 -36 -71 -51.5t-117 -15.5l-20 42l28 40q71 0 107 22.5t36 77.5v152h74v-132q0 -70 27 -95t79 -25q47 0 73 29t26 90v133h75v-132
q0 -64 27.5 -92t80.5 -28q96 0 96 99v187h77v-176q0 -43 14 -66.5t46 -33.5t90 -10zM434 548q-14 14 -14 33t14 33t33 14t33 -14t14 -33t-14 -33t-33 -14t-33 14zM352 429q-14 14 -14 33q0 20 14 33.5t34 13.5q19 0 33 -14t14 -33t-14 -33t-33 -14q-20 0 -34 14zM515 429
q-14 14 -14 33t14 33t33 14q20 0 34 -13.5t14 -33.5q0 -19 -14 -33t-34 -14q-19 0 -33 14zM431.5 -113.5q12.5 -12.5 12.5 -29.5t-12.5 -29.5t-29.5 -12.5q-18 0 -30.5 12.5t-12.5 29.5t12.5 29.5t30.5 12.5q17 0 29.5 -12.5zM570.5 -125.5q12.5 -12.5 12.5 -29.5
t-12.5 -29.5t-30.5 -12.5q-17 0 -29.5 12.5t-12.5 29.5t12.5 29.5t29.5 12.5q18 0 30.5 -12.5zM488.5 -220q12.5 -12 12.5 -29t-12.5 -29.5t-29.5 -12.5t-29.5 12.5t-12.5 29.5t12.5 29t29.5 12t29.5 -12z" />
    <glyph glyph-name="uni069C.fina" unicode="&#x69c;" horiz-adv-x="1333" 
d="M1353 43l-20 -43q-68 0 -111 18t-60 51q-43 -69 -149 -69q-45 0 -81.5 18t-56.5 51q-44 -69 -144 -69h-1v0q-71 0 -110 38q-3 -108 -39 -173t-103 -93t-170 -28q-134 0 -197.5 65t-63.5 179q0 97 46 193l57 -17q-28 -80 -28 -164q0 -80 45.5 -127t148.5 -47
q85 0 135 22.5t72.5 71t22.5 130.5q0 56 -15 108t-49 129l84 34q12 -44 22 -73l13 -42q22 -72 53 -98t84 -26q46 0 71.5 29t25.5 90v133h75v-132q0 -64 27.5 -92t80.5 -28q96 0 96 99v192h77v-181q0 -43 14 -66.5t45.5 -33.5t89.5 -10zM839 548q-14 14 -14 33t14 33t33 14
t33 -14t14 -33t-14 -33t-33 -14t-33 14zM757 429q-14 14 -14 33q0 20 14 33.5t34 13.5q19 0 33 -14t14 -33t-14 -33t-33 -14q-20 0 -34 14zM920 429q-14 14 -14 33t14 33t33 14q20 0 34 -13.5t14 -33.5q0 -19 -14 -33t-34 -14q-19 0 -33 14zM838.5 -113.5
q12.5 -12.5 12.5 -29.5t-12.5 -29.5t-29.5 -12.5q-18 0 -30.5 12.5t-12.5 29.5t12.5 29.5t30.5 12.5q17 0 29.5 -12.5zM977.5 -125.5q12.5 -12.5 12.5 -29.5t-12.5 -29.5t-30.5 -12.5q-17 0 -29.5 12.5t-12.5 29.5t12.5 29.5t29.5 12.5q18 0 30.5 -12.5zM895.5 -220
q12.5 -12 12.5 -29t-12.5 -29.5t-29.5 -12.5t-29.5 12.5t-12.5 29.5t12.5 29t29.5 12t29.5 -12z" />
    <glyph glyph-name="uni069D.init" unicode="&#x69d;" horiz-adv-x="932" 
d="M775 426.5q47 -27.5 73.5 -81t26.5 -128.5q0 -94 -41 -140t-131 -61.5t-264 -15.5h-110q-62 0 -100.5 16.5t-62.5 58.5q-22 -43 -60.5 -59t-105.5 -16l-20 41l28 41q56 0 81 12t31 34t6 67v197h76v-197q0 -55 18.5 -80t73.5 -31q38 115 98 198.5t131.5 127.5t144.5 44
q60 0 107 -27.5zM660 92.5q77 10.5 112.5 40.5t35.5 89q0 87 -38.5 117.5t-96.5 30.5q-90 0 -166.5 -67.5t-142.5 -220.5h75q144 0 221 10.5zM54.5 -177q-14.5 14 -14.5 34t14 34t34 14t34 -14t14 -34t-14 -34t-34 -14q-19 0 -33.5 14zM205 -177q-14 14 -14 34t14 34t34 14
t34 -14t14 -34t-14 -34t-34 -14t-34 14z" />
    <glyph glyph-name="uni069D.medi" unicode="&#x69d;" horiz-adv-x="964" 
d="M984 41l-20 -41q-41 0 -76 20t-58 53q-42 -43 -131.5 -58t-259.5 -15h-110q-62 0 -100.5 16.5t-62.5 58.5q-22 -43 -60.5 -59t-105.5 -16l-20 41l28 41q56 0 81 12t31 34t6 67v197h76v-197q0 -55 18.5 -80t73.5 -31q38 115 98 198.5t131.5 127.5t144.5 44q60 0 107 -27.5
t73.5 -81t26.5 -128.5q0 -50 -10 -83q21 -29 46.5 -40.5t59.5 -11.5zM660 92.5q77 10.5 112.5 40.5t35.5 89q0 87 -38.5 117.5t-96.5 30.5q-90 0 -166.5 -67.5t-142.5 -220.5h75q144 0 221 10.5zM54.5 -177q-14.5 14 -14.5 34t14 34t34 14t34 -14t14 -34t-14 -34t-34 -14
q-19 0 -33.5 14zM205 -177q-14 14 -14 34t14 34t34 14t34 -14t14 -34t-14 -34t-34 -14t-34 14z" />
    <glyph glyph-name="uni069D.fina" unicode="&#x69d;" horiz-adv-x="1366" 
d="M1386 41l-20 -41q-41 0 -76 20t-58 53q-42 -43 -131 -58t-259 -15h-111v1q-71 0 -111 37q-4 -108 -39.5 -172.5t-102.5 -92.5t-170 -28q-134 0 -197.5 64.5t-63.5 179.5q0 97 46 193l57 -18q-28 -78 -28 -164q0 -79 45.5 -126t148.5 -47q85 0 135 22t72.5 70.5
t22.5 130.5q0 56 -15 108.5t-49 128.5l84 34q7 -27 20 -65l15 -50q18 -57 40.5 -84t56.5 -35q38 114 97.5 197t131 126.5t143.5 43.5q60 0 107 -27.5t73.5 -81t26.5 -128.5q0 -49 -10 -83q21 -29 46.5 -40.5t59.5 -11.5zM1063 92.5q77 10.5 112 40.5t35 89q0 87 -38.5 117.5
t-96.5 30.5q-90 0 -166.5 -67.5t-142.5 -220.5h76q144 0 221 10.5zM206.5 -419q-14.5 14 -14.5 34t14 34t34 14t34 -14t14 -34t-14 -34t-34 -14q-19 0 -33.5 14zM357 -419q-14 14 -14 34t14 34t34 14t34 -14t14 -34t-14 -34t-34 -14t-34 14z" />
    <glyph glyph-name="uni069E.init" unicode="&#x69e;" horiz-adv-x="932" 
d="M604 651q-14 14 -14 33t14 33t33 14t33 -14t14 -33t-14 -33t-33 -14t-33 14zM522 532.5q-14 13.5 -14 33.5q0 19 14 33t34 14q19 0 33 -14t14 -33t-14 -33t-33 -14q-20 0 -34 13.5zM685 533q-14 14 -14 33t14 33t33 14q20 0 34 -14t14 -33q0 -20 -14 -33.5t-34 -13.5
q-19 0 -33 14zM775 426.5q47 -27.5 73.5 -81t26.5 -128.5q0 -94 -41 -140t-131 -61.5t-264 -15.5h-110q-62 0 -100.5 16.5t-62.5 58.5q-22 -43 -60.5 -59t-105.5 -16l-20 41l28 41q56 0 81 12t31 34t6 67v197h76v-197q0 -55 18.5 -80t73.5 -31q38 115 98 198.5t131.5 127.5
t144.5 44q60 0 107 -27.5zM660 92.5q77 10.5 112.5 40.5t35.5 89q0 87 -38.5 117.5t-96.5 30.5q-90 0 -166.5 -67.5t-142.5 -220.5h75q144 0 221 10.5z" />
    <glyph glyph-name="uni069E.medi" unicode="&#x69e;" horiz-adv-x="964" 
d="M604 651q-14 14 -14 33t14 33t33 14t33 -14t14 -33t-14 -33t-33 -14t-33 14zM522 532.5q-14 13.5 -14 33.5q0 19 14 33t34 14q19 0 33 -14t14 -33t-14 -33t-33 -14q-20 0 -34 13.5zM685 533q-14 14 -14 33t14 33t33 14q20 0 34 -14t14 -33q0 -20 -14 -33.5t-34 -13.5
q-19 0 -33 14zM984 41l-20 -41q-41 0 -76 20t-58 53q-42 -43 -131.5 -58t-259.5 -15h-110q-62 0 -100.5 16.5t-62.5 58.5q-22 -43 -60.5 -59t-105.5 -16l-20 41l28 41q56 0 81 12t31 34t6 67v197h76v-197q0 -55 18.5 -80t73.5 -31q38 115 98 198.5t131.5 127.5t144.5 44
q60 0 107 -27.5t73.5 -81t26.5 -128.5q0 -50 -10 -83q21 -29 46.5 -40.5t59.5 -11.5zM660 92.5q77 10.5 112.5 40.5t35.5 89q0 87 -38.5 117.5t-96.5 30.5q-90 0 -166.5 -67.5t-142.5 -220.5h75q144 0 221 10.5z" />
    <glyph glyph-name="uni069E.fina" unicode="&#x69e;" horiz-adv-x="1366" 
d="M1006 651q-14 14 -14 33t14 33t33 14t33 -14t14 -33t-14 -33t-33 -14t-33 14zM924 532.5q-14 13.5 -14 33.5q0 19 14 33t34 14q19 0 33 -14t14 -33t-14 -33t-33 -14q-20 0 -34 13.5zM1088 533q-14 14 -14 33t14 33t33 14t33 -14t14 -33t-13.5 -33t-33.5 -14q-19 0 -33 14
zM1386 41l-20 -41q-41 0 -76 20t-58 53q-42 -43 -131 -58t-259 -15h-111v1q-71 0 -111 37q-4 -108 -39.5 -172.5t-102.5 -92.5t-170 -28q-134 0 -197.5 64.5t-63.5 179.5q0 97 46 193l57 -18q-28 -78 -28 -164q0 -79 45.5 -126t148.5 -47q85 0 135 22t72.5 70.5t22.5 130.5
q0 56 -15 108.5t-49 128.5l84 34q7 -27 20 -65l15 -50q18 -57 40.5 -84t56.5 -35q38 114 97.5 197t131 126.5t143.5 43.5q60 0 107 -27.5t73.5 -81t26.5 -128.5q0 -49 -10 -83q21 -29 46.5 -40.5t59.5 -11.5zM1063 92.5q77 10.5 112 40.5t35 89q0 87 -38.5 117.5t-96.5 30.5
q-90 0 -166.5 -67.5t-142.5 -220.5h76q144 0 221 10.5z" />
    <glyph glyph-name="uni069F.init" unicode="&#x69f;" horiz-adv-x="773" 
d="M616 426.5q47 -27.5 73.5 -81t26.5 -128.5q0 -94 -41 -140t-131 -61.5t-263 -15.5h-281l-20 42l27 40h128q9 27 23 63v608l76 10v-479q59 82 130.5 126t144.5 44q60 0 107 -27.5zM502 92.5q77 10.5 112 40.5t35 89q0 87 -38.5 117.5t-96.5 30.5q-90 0 -166.5 -67.5
t-142.5 -220.5h76q144 0 221 10.5zM444 651q-14 14 -14 33t14 33t33 14t33 -14t14 -33t-14 -33t-33 -14t-33 14zM362 532q-14 14 -14 33q0 20 14 33.5t34 13.5q19 0 33 -14t14 -33t-14 -33t-33 -14q-20 0 -34 14zM525 532q-14 14 -14 33t14 33t33 14q20 0 34 -13.5t14 -33.5
q0 -19 -14 -33t-34 -14q-19 0 -33 14z" />
    <glyph glyph-name="uni069F.medi" unicode="&#x69f;" horiz-adv-x="805" 
d="M825 41l-20 -41q-40 0 -75.5 20t-58.5 53q-41 -43 -130.5 -58t-259.5 -15h-281l-20 42l27 40h128q9 27 23 63v608l76 10v-479q59 82 130.5 126t144.5 44q60 0 107 -27.5t73.5 -81t26.5 -128.5q0 -49 -10 -83q21 -29 46.5 -40.5t59.5 -11.5zM502 92.5q77 10.5 112 40.5
t35 89q0 87 -38.5 117.5t-96.5 30.5q-90 0 -166.5 -67.5t-142.5 -220.5h76q144 0 221 10.5zM444 651q-14 14 -14 33t14 33t33 14t33 -14t14 -33t-14 -33t-33 -14t-33 14zM362 532q-14 14 -14 33q0 20 14 33.5t34 13.5q19 0 33 -14t14 -33t-14 -33t-33 -14q-20 0 -34 14z
M525 532q-14 14 -14 33t14 33t33 14q20 0 34 -13.5t14 -33.5q0 -19 -14 -33t-34 -14q-19 0 -33 14z" />
    <glyph glyph-name="uni069F.fina" unicode="&#x69f;" horiz-adv-x="829" 
d="M849 41l-20 -41q-40 0 -75.5 20t-58.5 53q-41 -43 -130.5 -58t-259.5 -15h-274l17 82h111q9 27 23 63v608l76 10v-479q59 82 130.5 126t144.5 44q60 0 107 -27.5t73.5 -81t26.5 -128.5q0 -49 -10 -83q21 -29 46.5 -40.5t59.5 -11.5zM526 92.5q77 10.5 112 40.5t35 89
q0 87 -38.5 117.5t-96.5 30.5q-90 0 -166.5 -67.5t-142.5 -220.5h76q144 0 221 10.5zM468 651q-14 14 -14 33t14 33t33 14t33 -14t14 -33t-14 -33t-33 -14t-33 14zM386 532q-14 14 -14 33q0 20 14 33.5t34 13.5q19 0 33 -14t14 -33t-14 -33t-33 -14q-20 0 -34 14zM549 532
q-14 14 -14 33t14 33t33 14q20 0 34 -13.5t14 -33.5q0 -19 -14 -33t-34 -14q-19 0 -33 14z" />
    <glyph glyph-name="uni06A0.init" unicode="&#x6a0;" horiz-adv-x="567" 
d="M551 54q-135 -33 -227 -43.5t-201 -10.5h-123l-20 41l27 41h98q52 0 75 1q-52 37 -78.5 86t-26.5 97q0 49 25.5 92.5t76.5 70.5t122 27q86 0 155 -37l-36 -78q-29 16 -61 23.5t-58 7.5q-73 0 -110 -33t-37 -81q0 -99 133 -169q52 5 108 15.5t148 31.5zM266 656
q-14 14 -14 33t14 33t33 14t33 -14t14 -33t-14 -33t-33 -14t-33 14zM184 537q-14 14 -14 33q0 20 14 33.5t34 13.5q19 0 33 -14t14 -33t-14 -33t-33 -14q-20 0 -34 14zM347 537q-14 14 -14 33t14 33t33 14q20 0 34 -13.5t14 -33.5q0 -19 -14 -33t-34 -14q-19 0 -33 14z" />
    <glyph glyph-name="uni06A0.medi" unicode="&#x6a0;" horiz-adv-x="590" 
d="M610 41l-20 -41h-38q-68 0 -123 20t-104 60q-69 -37 -146.5 -58.5t-141.5 -21.5h-37l-20 41l27 41h15q59 0 122.5 14t122.5 39l-30 32q-42 45 -77.5 78t-88.5 72l9 82q108 43 220 43q111 0 162 -35t51 -102q0 -49 -31.5 -95.5t-86.5 -85.5q37 -25 73 -33.5t102 -8.5h28z
M256 245q51 -51 80 -76q51 30 80.5 63t29.5 64q0 33 -35.5 49t-110.5 16q-65 0 -146 -23q37 -28 102 -93zM267 655q-14 14 -14 33t14 33t33 14t33 -14t14 -33t-14 -33t-33 -14t-33 14zM185 536q-14 14 -14 33q0 20 14 33.5t34 13.5q19 0 33 -14t14 -33t-14 -33t-33 -14
q-20 0 -34 14zM348 536q-14 14 -14 33t14 33t33 14q20 0 34 -13.5t14 -33.5q0 -19 -14 -33t-34 -14q-19 0 -33 14z" />
    <glyph glyph-name="uni06A0.fina" unicode="&#x6a0;" horiz-adv-x="567" 
d="M551 -233l32 -72q-97 -58 -246 -58q-101 0 -168.5 32.5t-99 87.5t-31.5 124q0 186 187 271l-18 18q-38 40 -74.5 74t-89.5 74l11 82q108 42 223 42t165.5 -34.5t50.5 -102.5q0 -55 -33 -96t-101 -77q41 -30 77.5 -40t106.5 -10h31l13 -40l-20 -42h-41q-70 0 -126 22.5
t-117 74.5q-97 -45 -137 -91.5t-40 -112.5q0 -77 61 -124.5t178 -47.5t206 46zM192 282q32 -30 38 -36q36 -36 68 -64q68 30 98.5 55.5t30.5 60.5q0 32 -36 47.5t-114 15.5q-67 0 -150 -23q33 -26 65 -56zM264 654q-14 14 -14 33t14 33t33 14t33 -14t14 -33t-14 -33t-33 -14
t-33 14zM182 535q-14 14 -14 33q0 20 14 33.5t34 13.5q19 0 33 -14t14 -33t-14 -33t-33 -14q-20 0 -34 14zM345 535q-14 14 -14 33t14 33t33 14q20 0 34 -13.5t14 -33.5q0 -19 -14 -33t-34 -14q-19 0 -33 14z" />
    <glyph glyph-name="uni06A1.init" unicode="&#x6a1;" horiz-adv-x="470" 
d="M319 530q44 -33 69 -97t25 -153q0 -111 -40.5 -171.5t-128.5 -84.5t-244 -24l-20 42l27 40q128 0 198 13.5t100.5 41.5t37.5 77q-39 -33 -118 -33q-57 0 -101 23.5t-68 65t-24 93.5q0 54 25 100t68 73t95 27q55 0 99 -33zM138.5 282q39.5 -32 114.5 -32q22 0 47.5 4.5
t45.5 11.5q0 110 -33.5 163t-92.5 53q-53 0 -87 -32.5t-34 -81.5q0 -54 39.5 -86z" />
    <glyph glyph-name="uni06A1.medi" unicode="&#x6a1;" horiz-adv-x="509" 
d="M529 41l-20 -41h-47q-103 0 -201 45q-98 -45 -222 -45h-39l-20 41l27 41h42q71 0 129 13q-48 37 -75 83.5t-27 98.5t24 99t65.5 76t89.5 29q55 0 98 -28.5t66.5 -75.5t23.5 -100q0 -48 -26.5 -95.5t-74.5 -86.5q56 -13 120 -13h52zM175.5 187q31.5 -39 86.5 -65
q53 25 83 64t30 91q0 50 -33 86t-83 36q-49 0 -82 -35.5t-33 -86.5t31.5 -90z" />
    <glyph glyph-name="uni06A1.fina" unicode="&#x6a1;" horiz-adv-x="963" 
d="M983 41l-20 -41h-46q-51 0 -103 12t-99 34q-139 -60 -379 -60q-105 0 -168.5 21.5t-92 66t-28.5 114.5q0 38 9.5 79.5t27.5 78.5l57 -19q-22 -66 -22 -127q0 -48 21.5 -76.5t69.5 -41.5t132 -13q173 0 288 28q-47 37 -73.5 83t-26.5 97q0 52 24 99t65.5 76t89.5 29
q55 0 98 -28.5t66.5 -75.5t23.5 -100q0 -50 -23 -97t-73 -86q55 -12 116 -12h51zM628.5 188q30.5 -39 83.5 -64q117 51 117 153q0 50 -33 86t-83 36q-49 0 -82 -35.5t-33 -86.5q0 -50 30.5 -89z" />
    <glyph glyph-name="uni06A2.init" unicode="&#x6a2;" horiz-adv-x="470" 
d="M319 530q44 -33 69 -97t25 -153q0 -111 -40.5 -171.5t-128.5 -84.5t-244 -24l-20 42l27 40q128 0 198 13.5t100.5 41.5t37.5 77q-39 -33 -118 -33q-57 0 -101 23.5t-68 65t-24 93.5q0 54 25 100t68 73t95 27q55 0 99 -33zM138.5 282q39.5 -32 114.5 -32q22 0 47.5 4.5
t45.5 11.5q0 110 -33.5 163t-92.5 53q-53 0 -87 -32.5t-34 -81.5q0 -54 39.5 -86zM167.5 -187q-14.5 15 -14.5 36q0 22 14.5 36.5t36.5 14.5t36.5 -14.5t14.5 -36.5q0 -21 -14.5 -36t-36.5 -15t-36.5 15z" />
    <glyph glyph-name="uni06A2.medi" unicode="&#x6a2;" horiz-adv-x="509" 
d="M529 41l-20 -41h-47q-103 0 -201 45q-98 -45 -222 -45h-39l-20 41l27 41h42q71 0 129 13q-48 37 -75 83.5t-27 98.5t24 99t65.5 76t89.5 29q55 0 98 -28.5t66.5 -75.5t23.5 -100q0 -48 -26.5 -95.5t-74.5 -86.5q56 -13 120 -13h52zM175.5 187q31.5 -39 86.5 -65
q53 25 83 64t30 91q0 50 -33 86t-83 36q-49 0 -82 -35.5t-33 -86.5t31.5 -90zM223.5 -187q-14.5 15 -14.5 36q0 22 14.5 36.5t36.5 14.5t36.5 -14.5t14.5 -36.5q0 -21 -14.5 -36t-36.5 -15t-36.5 15z" />
    <glyph glyph-name="uni06A2.fina" unicode="&#x6a2;" horiz-adv-x="963" 
d="M983 41l-20 -41h-46q-51 0 -103 12t-99 34q-139 -60 -379 -60q-105 0 -168.5 21.5t-92 66t-28.5 114.5q0 38 9.5 79.5t27.5 78.5l57 -19q-22 -66 -22 -127q0 -48 21.5 -76.5t69.5 -41.5t132 -13q173 0 288 28q-47 37 -73.5 83t-26.5 97q0 52 24 99t65.5 76t89.5 29
q55 0 98 -28.5t66.5 -75.5t23.5 -100q0 -50 -23 -97t-73 -86q55 -12 116 -12h51zM628.5 188q30.5 -39 83.5 -64q117 51 117 153q0 50 -33 86t-83 36q-49 0 -82 -35.5t-33 -86.5q0 -50 30.5 -89zM677.5 -187q-14.5 15 -14.5 36q0 22 14.5 36.5t36.5 14.5t36.5 -14.5
t14.5 -36.5q0 -21 -14.5 -36t-36.5 -15t-36.5 15z" />
    <glyph glyph-name="uni06A3.init" unicode="&#x6a3;" horiz-adv-x="470" 
d="M319 530q44 -33 69 -97t25 -153q0 -111 -40.5 -171.5t-128.5 -84.5t-244 -24l-20 42l27 40q128 0 198 13.5t100.5 41.5t37.5 77q-39 -33 -118 -33q-57 0 -101 23.5t-68 65t-24 93.5q0 54 25 100t68 73t95 27q55 0 99 -33zM138.5 282q39.5 -32 114.5 -32q22 0 47.5 4.5
t45.5 11.5q0 110 -33.5 163t-92.5 53q-53 0 -87 -32.5t-34 -81.5q0 -54 39.5 -86zM180.5 644q-14.5 15 -14.5 36q0 22 14.5 36.5t36.5 14.5t36.5 -14.5t14.5 -36.5q0 -21 -14.5 -36t-36.5 -15t-36.5 15zM168.5 -187q-14.5 15 -14.5 36q0 22 14.5 36.5t36.5 14.5t36.5 -14.5
t14.5 -36.5q0 -21 -14.5 -36t-36.5 -15t-36.5 15z" />
    <glyph glyph-name="uni06A3.medi" unicode="&#x6a3;" horiz-adv-x="509" 
d="M529 41l-20 -41h-47q-103 0 -201 45q-98 -45 -222 -45h-39l-20 41l27 41h42q71 0 129 13q-48 37 -75 83.5t-27 98.5t24 99t65.5 76t89.5 29q55 0 98 -28.5t66.5 -75.5t23.5 -100q0 -48 -26.5 -95.5t-74.5 -86.5q56 -13 120 -13h52zM175.5 187q31.5 -39 86.5 -65
q53 25 83 64t30 91q0 50 -33 86t-83 36q-49 0 -82 -35.5t-33 -86.5t31.5 -90zM216.5 560q-14.5 15 -14.5 36q0 22 14.5 36.5t36.5 14.5t36.5 -14.5t14.5 -36.5q0 -21 -14.5 -36t-36.5 -15t-36.5 15zM221.5 -187q-14.5 15 -14.5 36q0 22 14.5 36.5t36.5 14.5t36.5 -14.5
t14.5 -36.5q0 -21 -14.5 -36t-36.5 -15t-36.5 15z" />
    <glyph glyph-name="uni06A3.fina" unicode="&#x6a3;" horiz-adv-x="963" 
d="M983 41l-20 -41h-46q-51 0 -103 12t-99 34q-139 -60 -379 -60q-105 0 -168.5 21.5t-92 66t-28.5 114.5q0 38 9.5 79.5t27.5 78.5l57 -19q-22 -66 -22 -127q0 -48 21.5 -76.5t69.5 -41.5t132 -13q173 0 288 28q-47 37 -73.5 83t-26.5 97q0 52 24 99t65.5 76t89.5 29
q55 0 98 -28.5t66.5 -75.5t23.5 -100q0 -50 -23 -97t-73 -86q55 -12 116 -12h51zM628.5 188q30.5 -39 83.5 -64q117 51 117 153q0 50 -33 86t-83 36q-49 0 -82 -35.5t-33 -86.5q0 -50 30.5 -89zM670.5 561q-14.5 15 -14.5 36q0 22 14.5 36.5t36.5 14.5t36.5 -14.5
t14.5 -36.5q0 -21 -14.5 -36t-36.5 -15t-36.5 15zM673.5 -187q-14.5 15 -14.5 36q0 22 14.5 36.5t36.5 14.5t36.5 -14.5t14.5 -36.5q0 -21 -14.5 -36t-36.5 -15t-36.5 15z" />
    <glyph glyph-name="uni06A5.init" unicode="&#x6a5;" horiz-adv-x="470" 
d="M319 530q44 -33 69 -97t25 -153q0 -111 -40.5 -171.5t-128.5 -84.5t-244 -24l-20 42l27 40q128 0 198 13.5t100.5 41.5t37.5 77q-39 -33 -118 -33q-57 0 -101 23.5t-68 65t-24 93.5q0 54 25 100t68 73t95 27q55 0 99 -33zM138.5 282q39.5 -32 114.5 -32q22 0 47.5 4.5
t45.5 11.5q0 110 -33.5 163t-92.5 53q-53 0 -87 -32.5t-34 -81.5q0 -54 39.5 -86zM168.5 -113.5q12.5 -12.5 12.5 -29.5t-12.5 -29.5t-29.5 -12.5q-18 0 -30.5 12.5t-12.5 29.5t12.5 29.5t30.5 12.5q17 0 29.5 -12.5zM307.5 -125.5q12.5 -12.5 12.5 -29.5t-12.5 -29.5
t-30.5 -12.5q-17 0 -29.5 12.5t-12.5 29.5t12.5 29.5t29.5 12.5q18 0 30.5 -12.5zM225.5 -220q12.5 -12 12.5 -29t-12.5 -29.5t-29.5 -12.5t-29.5 12.5t-12.5 29.5t12.5 29t29.5 12t29.5 -12z" />
    <glyph glyph-name="uni06A5.medi" unicode="&#x6a5;" horiz-adv-x="509" 
d="M529 41l-20 -41h-47q-103 0 -201 45q-98 -45 -222 -45h-39l-20 41l27 41h42q71 0 129 13q-48 37 -75 83.5t-27 98.5t24 99t65.5 76t89.5 29q55 0 98 -28.5t66.5 -75.5t23.5 -100q0 -48 -26.5 -95.5t-74.5 -86.5q56 -13 120 -13h52zM175.5 187q31.5 -39 86.5 -65
q53 25 83 64t30 91q0 50 -33 86t-83 36q-49 0 -82 -35.5t-33 -86.5t31.5 -90zM224.5 -113.5q12.5 -12.5 12.5 -29.5t-12.5 -29.5t-29.5 -12.5q-18 0 -30.5 12.5t-12.5 29.5t12.5 29.5t30.5 12.5q17 0 29.5 -12.5zM363.5 -125.5q12.5 -12.5 12.5 -29.5t-12.5 -29.5
t-30.5 -12.5q-17 0 -29.5 12.5t-12.5 29.5t12.5 29.5t29.5 12.5q18 0 30.5 -12.5zM281.5 -220q12.5 -12 12.5 -29t-12.5 -29.5t-29.5 -12.5t-29.5 12.5t-12.5 29.5t12.5 29t29.5 12t29.5 -12z" />
    <glyph glyph-name="uni06A5.fina" unicode="&#x6a5;" horiz-adv-x="963" 
d="M983 41l-20 -41h-46q-51 0 -103 12t-99 34q-139 -60 -379 -60q-105 0 -168.5 21.5t-92 66t-28.5 114.5q0 38 9.5 79.5t27.5 78.5l57 -19q-22 -66 -22 -127q0 -48 21.5 -76.5t69.5 -41.5t132 -13q173 0 288 28q-47 37 -73.5 83t-26.5 97q0 52 24 99t65.5 76t89.5 29
q55 0 98 -28.5t66.5 -75.5t23.5 -100q0 -50 -23 -97t-73 -86q55 -12 116 -12h51zM628.5 188q30.5 -39 83.5 -64q117 51 117 153q0 50 -33 86t-83 36q-49 0 -82 -35.5t-33 -86.5q0 -50 30.5 -89zM678.5 -113.5q12.5 -12.5 12.5 -29.5t-12.5 -29.5t-29.5 -12.5
q-18 0 -30.5 12.5t-12.5 29.5t12.5 29.5t30.5 12.5q17 0 29.5 -12.5zM817.5 -125.5q12.5 -12.5 12.5 -29.5t-12.5 -29.5t-30.5 -12.5q-17 0 -29.5 12.5t-12.5 29.5t12.5 29.5t29.5 12.5q18 0 30.5 -12.5zM735.5 -220q12.5 -12 12.5 -29t-12.5 -29.5t-29.5 -12.5t-29.5 12.5
t-12.5 29.5t12.5 29t29.5 12t29.5 -12z" />
    <glyph glyph-name="uni06A7.init" unicode="&#x6a7;" horiz-adv-x="470" 
d="M319 530q44 -33 69 -97t25 -153q0 -111 -40.5 -171.5t-128.5 -84.5t-244 -24l-20 42l27 40q128 0 198 13.5t100.5 41.5t37.5 77q-39 -33 -118 -33q-57 0 -101 23.5t-68 65t-24 93.5q0 54 25 100t68 73t95 27q55 0 99 -33zM138.5 282q39.5 -32 114.5 -32q22 0 47.5 4.5
t45.5 11.5q0 110 -33.5 163t-92.5 53q-53 0 -87 -32.5t-34 -81.5q0 -54 39.5 -86zM180.5 644q-14.5 15 -14.5 36q0 22 14.5 36.5t36.5 14.5t36.5 -14.5t14.5 -36.5q0 -21 -14.5 -36t-36.5 -15t-36.5 15z" />
    <glyph glyph-name="uni06A7.medi" unicode="&#x6a7;" horiz-adv-x="509" 
d="M529 41l-20 -41h-47q-103 0 -201 45q-98 -45 -222 -45h-39l-20 41l27 41h42q71 0 129 13q-48 37 -75 83.5t-27 98.5t24 99t65.5 76t89.5 29q55 0 98 -28.5t66.5 -75.5t23.5 -100q0 -48 -26.5 -95.5t-74.5 -86.5q56 -13 120 -13h52zM175.5 187q31.5 -39 86.5 -65
q53 25 83 64t30 91q0 50 -33 86t-83 36q-49 0 -82 -35.5t-33 -86.5t31.5 -90zM216.5 560q-14.5 15 -14.5 36q0 22 14.5 36.5t36.5 14.5t36.5 -14.5t14.5 -36.5q0 -21 -14.5 -36t-36.5 -15t-36.5 15z" />
    <glyph glyph-name="uni06A7.fina" unicode="&#x6a7;" horiz-adv-x="777" 
d="M777 0h-84q-16 -127 -90.5 -191.5t-233.5 -64.5q-170 0 -246 62.5t-76 181.5q0 97 46 193l57 -17q-28 -80 -28 -164q0 -83 58 -128.5t197 -45.5q127 0 182.5 46t68.5 128h-70q-123 0 -181 49.5t-58 133.5q0 54 25 99.5t68 72.5t95 27q55 0 98.5 -33t68.5 -97t25 -154v-16
h85l13 -40zM633 82v2q0 111 -33.5 164.5t-92.5 53.5q-53 0 -87 -32.5t-34 -81.5q0 -106 157 -106h90zM468.5 462q-14.5 15 -14.5 36q0 22 14.5 36.5t36.5 14.5t36.5 -14.5t14.5 -36.5q0 -21 -14.5 -36t-36.5 -15t-36.5 15z" />
    <glyph glyph-name="uni06A8.init" unicode="&#x6a8;" horiz-adv-x="470" 
d="M319 530q44 -33 69 -97t25 -153q0 -111 -40.5 -171.5t-128.5 -84.5t-244 -24l-20 42l27 40q128 0 198 13.5t100.5 41.5t37.5 77q-39 -33 -118 -33q-57 0 -101 23.5t-68 65t-24 93.5q0 54 25 100t68 73t95 27q55 0 99 -33zM138.5 282q39.5 -32 114.5 -32q22 0 47.5 4.5
t45.5 11.5q0 110 -33.5 163t-92.5 53q-53 0 -87 -32.5t-34 -81.5q0 -54 39.5 -86zM187 764q-14 14 -14 33t14 33t33 14t33 -14t14 -33t-14 -33t-33 -14t-33 14zM105 645q-14 14 -14 33q0 20 14 33.5t34 13.5q19 0 33 -14t14 -33t-14 -33t-33 -14q-20 0 -34 14zM268 645
q-14 14 -14 33t14 33t33 14q20 0 34 -13.5t14 -33.5q0 -19 -14 -33t-34 -14q-19 0 -33 14z" />
    <glyph glyph-name="uni06A8.medi" unicode="&#x6a8;" horiz-adv-x="509" 
d="M529 41l-20 -41h-47q-103 0 -201 45q-98 -45 -222 -45h-39l-20 41l27 41h42q71 0 129 13q-48 37 -75 83.5t-27 98.5t24 99t65.5 76t89.5 29q55 0 98 -28.5t66.5 -75.5t23.5 -100q0 -48 -26.5 -95.5t-74.5 -86.5q56 -13 120 -13h52zM175.5 187q31.5 -39 86.5 -65
q53 25 83 64t30 91q0 50 -33 86t-83 36q-49 0 -82 -35.5t-33 -86.5t31.5 -90zM223 680q-14 14 -14 33t14 33t33 14t33 -14t14 -33t-14 -33t-33 -14t-33 14zM141 561q-14 14 -14 33q0 20 14 33.5t34 13.5q19 0 33 -14t14 -33t-14 -33t-33 -14q-20 0 -34 14zM304 561
q-14 14 -14 33t14 33t33 14q20 0 34 -13.5t14 -33.5q0 -19 -14 -33t-34 -14q-19 0 -33 14z" />
    <glyph glyph-name="uni06A8.fina" unicode="&#x6a8;" horiz-adv-x="777" 
d="M777 0h-84q-16 -127 -90.5 -191.5t-233.5 -64.5q-170 0 -246 62.5t-76 181.5q0 97 46 193l57 -17q-28 -80 -28 -164q0 -83 58 -128.5t197 -45.5q127 0 182.5 46t68.5 128h-70q-123 0 -181 49.5t-58 133.5q0 54 25 99.5t68 72.5t95 27q55 0 98.5 -33t68.5 -97t25 -154v-16
h85l13 -40zM633 82v2q0 111 -33.5 164.5t-92.5 53.5q-53 0 -87 -32.5t-34 -81.5q0 -106 157 -106h90zM475 582q-14 14 -14 33t14 33t33 14t33 -14t14 -33t-14 -33t-33 -14t-33 14zM393 463q-14 14 -14 33q0 20 14 33.5t34 13.5q19 0 33 -14t14 -33t-14 -33t-33 -14
q-20 0 -34 14zM556 463q-14 14 -14 33t14 33t33 14q20 0 34 -13.5t14 -33.5q0 -19 -14 -33t-34 -14q-19 0 -33 14z" />
    <glyph glyph-name="uni06AA.init" unicode="&#x6aa;" horiz-adv-x="1193" 
d="M1063 321q73 -43 73 -132q0 -40 -28 -70.5t-75 -50.5q-165 -68 -645 -68h-388l-20 40l27 42h367q408 0 550 33t142 77q0 43 -51.5 69.5t-164.5 26.5q-120 0 -280 -13q-18 -1 -94.5 -6t-147.5 -5q-150 0 -227 16l8 69q34 105 126.5 184.5t224.5 108.5l-17 -80
q-91 -23 -164.5 -79.5t-109.5 -133.5q90 -9 169 -9q88 0 250 12q164 12 256 12q146 0 219 -43z" />
    <glyph glyph-name="uni06AA.medi" unicode="&#x6aa;" horiz-adv-x="1278" 
d="M1298 43l-20 -43q-86 0 -132.5 29.5t-48.5 78.5q-22 -21 -64 -40q-165 -68 -645 -68h-388l-20 40l27 42h367q408 0 550 33t142 77q0 43 -51.5 69.5t-164.5 26.5q-120 0 -280 -13q-18 -1 -94.5 -6t-147.5 -5q-150 0 -227 16l8 69q34 105 126.5 184.5t224.5 108.5l-17 -80
q-91 -23 -164.5 -79.5t-109.5 -133.5q90 -9 169 -9q88 0 250 12q164 12 256 12q145 0 218 -42t74 -130q0 -43 14 -66.5t46 -33.5t90 -10z" />
    <glyph glyph-name="uni06AA.fina" unicode="&#x6aa;" horiz-adv-x="1345" 
d="M1365 43l-20 -43q-86 0 -132.5 29.5t-48.5 78.5q-25 -22 -64 -40q-75 -31 -235 -49.5t-410 -18.5h-390l-24 82h399q409 0 551 33t142 77q0 43 -51.5 69.5t-164.5 26.5q-120 0 -280 -13q-18 -1 -94.5 -6t-147.5 -5q-150 0 -227 16l8 69q35 106 127 185t225 108l-18 -80
q-92 -23 -165.5 -79.5t-107.5 -133.5q90 -9 167 -9q89 0 251 12q164 12 256 12q145 0 218 -42t74 -130q0 -43 14 -66.5t45.5 -33.5t89.5 -10z" />
    <glyph glyph-name="uni06AB.init" unicode="&#x6ab;" horiz-adv-x="464" 
d="M413 680l-82 -49q22 -10 35.5 -30.5t13.5 -45.5q0 -35 -23 -59t-61 -24q-37 0 -61.5 24.5t-24.5 58.5v2l-124 -75q107 -47 165.5 -89t80.5 -84t22 -95q0 -105 -89 -159.5t-265 -54.5l-20 41l27 41q152 0 213.5 36t61.5 105q0 34 -22 64.5t-83.5 68.5t-175.5 86l17 78
l400 247zM326 527.5q11 11.5 11 27.5q0 17 -11.5 28t-29.5 11t-30 -11t-12 -28q0 -16 11.5 -27.5t30.5 -11.5t30 11.5z" />
    <glyph glyph-name="uni06AB.medi" unicode="&#x6ab;" horiz-adv-x="548" 
d="M568 43l-20 -43q-60 0 -105.5 15t-88 53t-90.5 107q-2 -79 -71 -127t-193 -48l-20 41l27 41q97 0 144.5 30t47.5 84q0 62 -65 144l-84 105l17 74l399 248l-4 -87l-87 -53q20 -11 31.5 -30t11.5 -42q0 -35 -23.5 -59t-61.5 -24q-36 0 -59.5 23t-25.5 56l-126 -76l180 -225
q62 -79 95 -111.5t66.5 -44.5t91.5 -12zM363.5 527.5q11.5 11.5 11.5 27.5q0 17 -12 28t-30 11t-29.5 -11t-11.5 -28q0 -16 11 -27.5t30 -11.5t30.5 11.5z" />
    <glyph glyph-name="uni06AB.fina" unicode="&#x6ab;" horiz-adv-x="995" 
d="M1015 43l-20 -43q-60 0 -105.5 15t-88.5 53.5t-91 107.5q-2 -87 -88.5 -138.5t-285.5 -51.5q-105 0 -168.5 21.5t-92 66t-28.5 114.5q0 38 9.5 79.5t27.5 78.5l57 -19q-22 -66 -22 -127q0 -48 21.5 -76.5t70 -41.5t132.5 -13q172 0 237.5 33.5t65.5 93.5q0 62 -65 144
l-84 105l17 74l399 248l-5 -87l-88 -53q19 -11 30 -30t11 -42q0 -35 -23.5 -59t-61.5 -24q-35 0 -59 22.5t-26 54.5l-122 -74l179 -225q62 -79 95.5 -111.5t67 -44.5t91.5 -12zM763 592l-18 -11q-10 -10 -10 -26t11 -27.5t30 -11.5t30.5 11.5t11.5 27.5q0 17 -12 28t-30 11
q-5 0 -13 -2z" />
    <glyph glyph-name="uni06AC.init" unicode="&#x6ac;" horiz-adv-x="464" 
d="M413 680l-327 -198q107 -47 165.5 -89t80.5 -84t22 -95q0 -105 -89 -159.5t-265 -54.5l-20 41l27 41q152 0 213.5 36t61.5 105q0 34 -22 64.5t-83.5 68.5t-175.5 86l17 78l400 247zM17.5 709q-14.5 15 -14.5 36q0 22 14.5 36.5t36.5 14.5t36.5 -14.5t14.5 -36.5
q0 -21 -14.5 -36t-36.5 -15t-36.5 15z" />
    <glyph glyph-name="uni06AC.medi" unicode="&#x6ac;" horiz-adv-x="548" 
d="M568 43l-20 -43q-60 0 -105.5 15t-88 53t-90.5 107q-2 -79 -71 -127t-193 -48l-20 41l27 41q97 0 144.5 30t47.5 84q0 62 -65 144l-84 105l17 74l399 248l-4 -87l-340 -205l180 -225q62 -79 95 -111.5t66.5 -44.5t91.5 -12zM58.5 709q-14.5 15 -14.5 36q0 22 14.5 36.5
t36.5 14.5t36.5 -14.5t14.5 -36.5q0 -21 -14.5 -36t-36.5 -15t-36.5 15z" />
    <glyph glyph-name="uni06AC.fina" unicode="&#x6ac;" horiz-adv-x="834" 
d="M854 43l-20 -43q-48 0 -79 19t-57 58q-69 -46 -154.5 -68.5t-207.5 -22.5q-105 0 -168.5 21.5t-92 66t-28.5 114.5q0 38 9.5 79.5t27.5 78.5l57 -19q-22 -66 -22 -127q0 -48 21.5 -76.5t70 -41.5t132.5 -13q99 0 180.5 21t142.5 59v607l77 10v-577q0 -55 20 -81t78 -26z
M436 359q0 16 -23 27.5t-91 25.5l10 55l165 97l-4 -59l-105 -60q55 -16 78 -36t23 -50q0 -49 -54.5 -68.5t-134.5 -19.5l-8 52q144 0 144 36zM665.5 847q-14.5 15 -14.5 36q0 22 14.5 36.5t36.5 14.5t36.5 -14.5t14.5 -36.5q0 -21 -14.5 -36t-36.5 -15t-36.5 15z" />
    <glyph glyph-name="uni06AE.init" unicode="&#x6ae;" horiz-adv-x="464" 
d="M413 680l-327 -198q107 -47 165.5 -89t80.5 -84t22 -95q0 -105 -89 -159.5t-265 -54.5l-20 41l27 41q152 0 213.5 36t61.5 105q0 34 -22 64.5t-83.5 68.5t-175.5 86l17 78l400 247zM79.5 -113.5q12.5 -12.5 12.5 -29.5t-12.5 -29.5t-29.5 -12.5q-18 0 -30.5 12.5
t-12.5 29.5t12.5 29.5t30.5 12.5q17 0 29.5 -12.5zM218.5 -125.5q12.5 -12.5 12.5 -29.5t-12.5 -29.5t-30.5 -12.5q-17 0 -29.5 12.5t-12.5 29.5t12.5 29.5t29.5 12.5q18 0 30.5 -12.5zM136.5 -220q12.5 -12 12.5 -29t-12.5 -29.5t-29.5 -12.5t-29.5 12.5t-12.5 29.5
t12.5 29t29.5 12t29.5 -12z" />
    <glyph glyph-name="uni06AE.medi" unicode="&#x6ae;" horiz-adv-x="548" 
d="M568 43l-20 -43q-60 0 -105.5 15t-88 53t-90.5 107q-2 -79 -71 -127t-193 -48l-20 41l27 41q97 0 144.5 30t47.5 84q0 62 -65 144l-84 105l17 74l399 248l-4 -87l-340 -205l180 -225q62 -79 95 -111.5t66.5 -44.5t91.5 -12zM249.5 -113.5q12.5 -12.5 12.5 -29.5
t-12.5 -29.5t-29.5 -12.5q-18 0 -30.5 12.5t-12.5 29.5t12.5 29.5t30.5 12.5q17 0 29.5 -12.5zM388.5 -125.5q12.5 -12.5 12.5 -29.5t-12.5 -29.5t-30.5 -12.5q-17 0 -29.5 12.5t-12.5 29.5t12.5 29.5t29.5 12.5q18 0 30.5 -12.5zM306.5 -220q12.5 -12 12.5 -29t-12.5 -29.5
t-29.5 -12.5t-29.5 12.5t-12.5 29.5t12.5 29t29.5 12t29.5 -12z" />
    <glyph glyph-name="uni06AE.fina" unicode="&#x6ae;" horiz-adv-x="834" 
d="M854 43l-20 -43q-48 0 -79 19t-57 58q-69 -46 -154.5 -68.5t-207.5 -22.5q-105 0 -168.5 21.5t-92 66t-28.5 114.5q0 38 9.5 79.5t27.5 78.5l57 -19q-22 -66 -22 -127q0 -48 21.5 -76.5t70 -41.5t132.5 -13q99 0 180.5 21t142.5 59v607l77 10v-577q0 -55 20 -81t78 -26z
M436 359q0 16 -23 27.5t-91 25.5l10 55l165 97l-4 -59l-105 -60q55 -16 78 -36t23 -50q0 -49 -54.5 -68.5t-134.5 -19.5l-8 52q144 0 144 36zM343.5 -113.5q12.5 -12.5 12.5 -29.5t-12.5 -29.5t-29.5 -12.5q-18 0 -30.5 12.5t-12.5 29.5t12.5 29.5t30.5 12.5
q17 0 29.5 -12.5zM482.5 -125.5q12.5 -12.5 12.5 -29.5t-12.5 -29.5t-30.5 -12.5q-17 0 -29.5 12.5t-12.5 29.5t12.5 29.5t29.5 12.5q18 0 30.5 -12.5zM400.5 -220q12.5 -12 12.5 -29t-12.5 -29.5t-29.5 -12.5t-29.5 12.5t-12.5 29.5t12.5 29t29.5 12t29.5 -12z" />
    <glyph glyph-name="uni06B0.init" unicode="&#x6b0;" horiz-adv-x="464" 
d="M409 819l-391 -241l16 67l379 236zM413 680l-74 -45q21 -10 34 -30t13 -44q0 -35 -23.5 -59t-61.5 -24q-37 0 -61 24.5t-24 58.5l-130 -79q107 -47 165.5 -89t80.5 -84t22 -95q0 -105 -89 -159.5t-265 -54.5l-20 41l27 41q152 0 213.5 36t61.5 105q0 34 -22 64.5
t-83.5 68.5t-175.5 86l17 78l400 247zM331.5 533.5q11.5 11.5 11.5 27.5q0 17 -12 27.5t-30 10.5t-29.5 -10.5t-11.5 -27.5q0 -16 11 -27.5t30 -11.5t30.5 11.5z" />
    <glyph glyph-name="uni06B0.medi" unicode="&#x6b0;" horiz-adv-x="548" 
d="M453 819l-391 -241l16 67l379 236zM568 43l-20 -43q-60 0 -105.5 15t-88 53t-90.5 107q-2 -79 -71 -127t-193 -48l-20 41l27 41q97 0 144.5 30t47.5 84q0 62 -65 144l-84 105l17 74l399 248l-4 -87l-77 -47q20 -11 31.5 -30t11.5 -42q0 -35 -23.5 -59t-61.5 -24
q-36 0 -59.5 23t-25.5 56l-136 -82l180 -225q62 -79 95 -111.5t66.5 -44.5t91.5 -12zM373.5 533.5q11.5 11.5 11.5 27.5q0 17 -12 27.5t-30 10.5t-29.5 -10.5t-11.5 -27.5q0 -16 11 -27.5t30 -11.5t30.5 11.5z" />
    <glyph glyph-name="uni06B0.fina" unicode="&#x6b0;" horiz-adv-x="995" 
d="M908 819l-391 -241l16 67l379 236zM1015 43l-20 -43q-60 0 -105.5 15t-88.5 53.5t-91 107.5q-2 -87 -88.5 -138.5t-285.5 -51.5q-105 0 -168.5 21.5t-92 66t-28.5 114.5q0 38 9.5 79.5t27.5 78.5l57 -19q-22 -66 -22 -127q0 -48 21.5 -76.5t70 -41.5t132.5 -13
q172 0 237.5 33.5t65.5 93.5q0 62 -65 144l-84 105l17 74l399 248l-5 -87l-78 -47q20 -11 31.5 -30.5t11.5 -43.5q0 -34 -23 -58t-61 -24q-36 0 -60 23t-26 56l-134 -81l179 -225q62 -79 95.5 -111.5t67 -44.5t91.5 -12zM819 531.5q11 11.5 11 27.5q0 18 -11.5 28.5
t-29.5 10.5t-30 -10.5t-12 -28.5q0 -16 11.5 -27.5t30.5 -11.5t30 11.5z" />
    <glyph glyph-name="uni06B2.init" unicode="&#x6b2;" horiz-adv-x="464" 
d="M409 819l-391 -241l16 67l379 236zM413 680l-327 -198q107 -47 165.5 -89t80.5 -84t22 -95q0 -105 -89 -159.5t-265 -54.5l-20 41l27 41q152 0 213.5 36t61.5 105q0 34 -22 64.5t-83.5 68.5t-175.5 86l17 78l400 247zM5.5 -177q-14.5 14 -14.5 34t14 34t34 14t34 -14
t14 -34t-14 -34t-34 -14q-19 0 -33.5 14zM156 -177q-14 14 -14 34t14 34t34 14t34 -14t14 -34t-14 -34t-34 -14t-34 14z" />
    <glyph glyph-name="uni06B2.medi" unicode="&#x6b2;" horiz-adv-x="548" 
d="M453 819l-391 -241l16 67l379 236zM568 43l-20 -43q-60 0 -105.5 15t-88 53t-90.5 107q-2 -79 -71 -127t-193 -48l-20 41l27 41q97 0 144.5 30t47.5 84q0 62 -65 144l-84 105l17 74l399 248l-4 -87l-340 -205l180 -225q62 -79 95 -111.5t66.5 -44.5t91.5 -12zM175.5 -177
q-14.5 14 -14.5 34t14 34t34 14t34 -14t14 -34t-14 -34t-34 -14q-19 0 -33.5 14zM326 -177q-14 14 -14 34t14 34t34 14t34 -14t14 -34t-14 -34t-34 -14t-34 14z" />
    <glyph glyph-name="uni06B2.fina" unicode="&#x6b2;" horiz-adv-x="994" 
d="M908 819l-391 -241l16 67l379 236zM1015 43l-20 -43q-60 0 -105.5 15t-88.5 53.5t-91 107.5q-2 -87 -88.5 -138.5t-285.5 -51.5q-105 0 -168.5 21.5t-92 66t-28.5 114.5q0 38 9.5 79.5t27.5 78.5l57 -19q-22 -66 -22 -127q0 -48 21.5 -76.5t70 -41.5t132.5 -13
q172 0 237.5 33.5t65.5 93.5q0 62 -65 144l-84 105l17 74l399 248l-5 -87l-339 -205l179 -225q62 -79 95.5 -111.5t67 -44.5t91.5 -12zM268.5 -177q-14.5 14 -14.5 34t14 34t34 14t34 -14t14 -34t-14 -34t-34 -14q-19 0 -33.5 14zM419 -177q-14 14 -14 34t14 34t34 14
t34 -14t14 -34t-14 -34t-34 -14t-34 14z" />
    <glyph glyph-name="uni06B4.init" unicode="&#x6b4;" horiz-adv-x="464" 
d="M409 819l-391 -241l16 67l379 236zM413 680l-327 -198q107 -47 165.5 -89t80.5 -84t22 -95q0 -105 -89 -159.5t-265 -54.5l-20 41l27 41q152 0 213.5 36t61.5 105q0 34 -22 64.5t-83.5 68.5t-175.5 86l17 78l400 247zM10 897q-14 14 -14 33t14 33t33 14t33 -14t14 -33
t-14 -33t-33 -14t-33 14zM-72 778q-14 14 -14 33q0 20 14 33.5t34 13.5q19 0 33 -14t14 -33t-14 -33t-33 -14q-20 0 -34 14zM91 778q-14 14 -14 33t14 33t33 14q20 0 34 -13.5t14 -33.5q0 -19 -14 -33t-34 -14q-19 0 -33 14z" />
    <glyph glyph-name="uni06B4.medi" unicode="&#x6b4;" horiz-adv-x="548" 
d="M453 819l-391 -241l16 67l379 236zM568 43l-20 -43q-60 0 -105.5 15t-88 53t-90.5 107q-2 -79 -71 -127t-193 -48l-20 41l27 41q97 0 144.5 30t47.5 84q0 62 -65 144l-84 105l17 74l399 248l-4 -87l-340 -205l180 -225q62 -79 95 -111.5t66.5 -44.5t91.5 -12zM56 897
q-14 14 -14 33t14 33t33 14t33 -14t14 -33t-14 -33t-33 -14t-33 14zM-26 778q-14 14 -14 33q0 20 14 33.5t34 13.5q19 0 33 -14t14 -33t-14 -33t-33 -14q-20 0 -34 14zM137 778q-14 14 -14 33t14 33t33 14q20 0 34 -13.5t14 -33.5q0 -19 -14 -33t-34 -14q-19 0 -33 14z" />
    <glyph glyph-name="uni06B4.fina" unicode="&#x6b4;" horiz-adv-x="994" 
d="M908 819l-391 -241l16 67l379 236zM1015 43l-20 -43q-60 0 -105.5 15t-88.5 53.5t-91 107.5q-2 -87 -88.5 -138.5t-285.5 -51.5q-105 0 -168.5 21.5t-92 66t-28.5 114.5q0 38 9.5 79.5t27.5 78.5l57 -19q-22 -66 -22 -127q0 -48 21.5 -76.5t70 -41.5t132.5 -13
q172 0 237.5 33.5t65.5 93.5q0 62 -65 144l-84 105l17 74l399 248l-5 -87l-339 -205l179 -225q62 -79 95.5 -111.5t67 -44.5t91.5 -12zM507 897q-14 14 -14 33t14 33t33 14t33 -14t14 -33t-14 -33t-33 -14t-33 14zM425 778q-14 14 -14 33q0 20 14 33.5t34 13.5q19 0 33 -14
t14 -33t-14 -33t-33 -14q-20 0 -34 14zM588 778q-14 14 -14 33t14 33t33 14q20 0 34 -13.5t14 -33.5q0 -19 -14 -33t-34 -14q-19 0 -33 14z" />
    <glyph glyph-name="uni06B5.init" unicode="&#x6b5;" horiz-adv-x="240" 
d="M-20 41l27 41q45 0 64 26t19 89v556l77 9v-569q0 -111 -42.5 -152t-124.5 -41zM129 872l58 98l41 -16l-78 -142h-44l-76 142l41 16z" />
    <glyph glyph-name="uni06B5.medi" unicode="&#x6b5;" horiz-adv-x="250" 
d="M270 41l-20 -41q-85 0 -124 60q-20 -35 -51 -47.5t-75 -12.5l-20 41l27 41q36 0 53 10.5t22 30t5 53.5v577l76 10v-587q0 -49 22 -71.5t72 -22.5zM125 868l58 98l41 -16l-78 -142h-44l-76 142l41 16z" />
    <glyph glyph-name="uni06B5.fina" unicode="&#x6b5;" horiz-adv-x="705" 
d="M705 0q-62 0 -95 33q-13 -136 -92 -190.5t-210 -54.5q-134 0 -197.5 65t-63.5 179q0 97 46 193l57 -17q-28 -80 -28 -164q0 -80 45.5 -127t148.5 -47q81 0 129 22t69.5 67.5t21.5 120.5v673l76 9v-570q0 -63 23 -86.5t78 -23.5l12 -39zM574 868l58 98l41 -16l-78 -142
h-44l-76 142l41 16z" />
    <glyph glyph-name="uni06B6.init" unicode="&#x6b6;" horiz-adv-x="240" 
d="M-20 41l27 41q45 0 64 26t19 89v556l77 9v-569q0 -111 -42.5 -152t-124.5 -41zM89.5 851q-14.5 15 -14.5 36q0 22 14.5 36.5t36.5 14.5t36.5 -14.5t14.5 -36.5q0 -21 -14.5 -36t-36.5 -15t-36.5 15z" />
    <glyph glyph-name="uni06B6.medi" unicode="&#x6b6;" horiz-adv-x="250" 
d="M270 41l-20 -41q-85 0 -124 60q-20 -35 -51 -47.5t-75 -12.5l-20 41l27 41q36 0 53 10.5t22 30t5 53.5v577l76 10v-587q0 -49 22 -71.5t72 -22.5zM85.5 847q-14.5 15 -14.5 36q0 22 14.5 36.5t36.5 14.5t36.5 -14.5t14.5 -36.5q0 -21 -14.5 -36t-36.5 -15t-36.5 15z" />
    <glyph glyph-name="uni06B6.fina" unicode="&#x6b6;" horiz-adv-x="705" 
d="M705 0q-62 0 -95 33q-13 -136 -92 -190.5t-210 -54.5q-134 0 -197.5 65t-63.5 179q0 97 46 193l57 -17q-28 -80 -28 -164q0 -80 45.5 -127t148.5 -47q81 0 129 22t69.5 67.5t21.5 120.5v673l76 9v-570q0 -63 23 -86.5t78 -23.5l12 -39zM534.5 847q-14.5 15 -14.5 36
q0 22 14.5 36.5t36.5 14.5t36.5 -14.5t14.5 -36.5q0 -21 -14.5 -36t-36.5 -15t-36.5 15z" />
    <glyph glyph-name="uni06B7.init" unicode="&#x6b7;" horiz-adv-x="240" 
d="M-20 41l27 41q45 0 64 26t19 89v556l77 9v-569q0 -111 -42.5 -152t-124.5 -41zM96 971q-14 14 -14 33t14 33t33 14t33 -14t14 -33t-14 -33t-33 -14t-33 14zM14 852q-14 14 -14 33q0 20 14 33.5t34 13.5q19 0 33 -14t14 -33t-14 -33t-33 -14q-20 0 -34 14zM177 852
q-14 14 -14 33t14 33t33 14q20 0 34 -13.5t14 -33.5q0 -19 -14 -33t-34 -14q-19 0 -33 14z" />
    <glyph glyph-name="uni06B7.medi" unicode="&#x6b7;" horiz-adv-x="250" 
d="M270 41l-20 -41q-85 0 -124 60q-20 -35 -51 -47.5t-75 -12.5l-20 41l27 41q36 0 53 10.5t22 30t5 53.5v577l76 10v-587q0 -49 22 -71.5t72 -22.5zM92 967q-14 14 -14 33t14 33t33 14t33 -14t14 -33t-14 -33t-33 -14t-33 14zM10 848q-14 14 -14 33q0 20 14 33.5t34 13.5
q19 0 33 -14t14 -33t-14 -33t-33 -14q-20 0 -34 14zM173 848q-14 14 -14 33t14 33t33 14q20 0 34 -13.5t14 -33.5q0 -19 -14 -33t-34 -14q-19 0 -33 14z" />
    <glyph glyph-name="uni06B7.fina" unicode="&#x6b7;" horiz-adv-x="705" 
d="M705 0q-62 0 -95 33q-13 -136 -92 -190.5t-210 -54.5q-134 0 -197.5 65t-63.5 179q0 97 46 193l57 -17q-28 -80 -28 -164q0 -80 45.5 -127t148.5 -47q81 0 129 22t69.5 67.5t21.5 120.5v673l76 9v-570q0 -63 23 -86.5t78 -23.5l12 -39zM541 967q-14 14 -14 33t14 33
t33 14t33 -14t14 -33t-14 -33t-33 -14t-33 14zM459 848q-14 14 -14 33q0 20 14 33.5t34 13.5q19 0 33 -14t14 -33t-14 -33t-33 -14q-20 0 -34 14zM622 848q-14 14 -14 33t14 33t33 14q20 0 34 -13.5t14 -33.5q0 -19 -14 -33t-34 -14q-19 0 -33 14z" />
    <glyph glyph-name="uni06B8.init" unicode="&#x6b8;" horiz-adv-x="240" 
d="M-20 41l27 41q45 0 64 26t19 89v556l77 9v-569q0 -111 -42.5 -152t-124.5 -41zM90.5 -113.5q12.5 -12.5 12.5 -29.5t-12.5 -29.5t-29.5 -12.5q-18 0 -30.5 12.5t-12.5 29.5t12.5 29.5t30.5 12.5q17 0 29.5 -12.5zM229.5 -125.5q12.5 -12.5 12.5 -29.5t-12.5 -29.5
t-30.5 -12.5q-17 0 -29.5 12.5t-12.5 29.5t12.5 29.5t29.5 12.5q18 0 30.5 -12.5zM147.5 -220q12.5 -12 12.5 -29t-12.5 -29.5t-29.5 -12.5t-29.5 12.5t-12.5 29.5t12.5 29t29.5 12t29.5 -12z" />
    <glyph glyph-name="uni06B8.medi" unicode="&#x6b8;" horiz-adv-x="250" 
d="M270 41l-20 -41q-85 0 -124 60q-20 -35 -51 -47.5t-75 -12.5l-20 41l27 41q36 0 53 10.5t22 30t5 53.5v577l76 10v-587q0 -49 22 -71.5t72 -22.5zM89.5 -113.5q12.5 -12.5 12.5 -29.5t-12.5 -29.5t-29.5 -12.5q-18 0 -30.5 12.5t-12.5 29.5t12.5 29.5t30.5 12.5
q17 0 29.5 -12.5zM228.5 -125.5q12.5 -12.5 12.5 -29.5t-12.5 -29.5t-30.5 -12.5q-17 0 -29.5 12.5t-12.5 29.5t12.5 29.5t29.5 12.5q18 0 30.5 -12.5zM146.5 -220q12.5 -12 12.5 -29t-12.5 -29.5t-29.5 -12.5t-29.5 12.5t-12.5 29.5t12.5 29t29.5 12t29.5 -12z" />
    <glyph glyph-name="uni06B8.fina" unicode="&#x6b8;" horiz-adv-x="705" 
d="M705 0q-62 0 -95 33q-13 -136 -92 -190.5t-210 -54.5q-134 0 -197.5 65t-63.5 179q0 97 46 193l57 -17q-28 -80 -28 -164q0 -80 45.5 -127t148.5 -47q81 0 129 22t69.5 67.5t21.5 120.5v673l76 9v-570q0 -63 23 -86.5t78 -23.5l12 -39zM272.5 -324.5
q12.5 -12.5 12.5 -29.5t-12.5 -29.5t-29.5 -12.5q-18 0 -30.5 12.5t-12.5 29.5t12.5 29.5t30.5 12.5q17 0 29.5 -12.5zM411.5 -336.5q12.5 -12.5 12.5 -29.5t-12.5 -29.5t-30.5 -12.5q-17 0 -29.5 12.5t-12.5 29.5t12.5 29.5t29.5 12.5q18 0 30.5 -12.5zM329.5 -431
q12.5 -12 12.5 -29t-12.5 -29.5t-29.5 -12.5t-29.5 12.5t-12.5 29.5t12.5 29t29.5 12t29.5 -12z" />
    <glyph glyph-name="uni06B9.init" unicode="&#x6b9;" horiz-adv-x="287" 
d="M101 91.5q31 9.5 42.5 30.5t11.5 61q0 39 -11.5 87.5t-34.5 114.5l79 25q20 -60 31 -122.5t11 -108.5q0 -70 -20.5 -108t-69.5 -54.5t-140 -16.5l-20 41l27 41q63 0 94 9.5zM100.5 -187q-14.5 15 -14.5 36q0 22 14.5 36.5t36.5 14.5t36.5 -14.5t14.5 -36.5
q0 -21 -14.5 -36t-36.5 -15t-36.5 15zM86.5 493q-14.5 15 -14.5 36q0 22 14.5 36.5t36.5 14.5t36.5 -14.5t14.5 -36.5q0 -21 -14.5 -36t-36.5 -15t-36.5 15z" />
    <glyph glyph-name="uni06B9.medi" unicode="&#x6b9;" horiz-adv-x="341" 
d="M361 41l-20 -41q-67 0 -106 17t-63 60q-22 -44 -61.5 -60.5t-110.5 -16.5l-20 41l28 41q59 0 85.5 12.5t32.5 35t6 68.5v136h77v-136q0 -44 10 -68t40 -36t90 -12zM134.5 -187q-14.5 15 -14.5 36q0 22 14.5 36.5t36.5 14.5t36.5 -14.5t14.5 -36.5q0 -21 -14.5 -36
t-36.5 -15t-36.5 15zM131.5 428q-14.5 15 -14.5 36q0 22 14.5 36.5t36.5 14.5t36.5 -14.5t14.5 -36.5q0 -21 -14.5 -36t-36.5 -15t-36.5 15z" />
    <glyph glyph-name="uni06B9.fina" unicode="&#x6b9;" horiz-adv-x="731" 
d="M731 0q-70 0 -111 38q-3 -108 -39 -173t-103 -93t-170 -28q-134 0 -197.5 65t-63.5 179q0 97 46 193l57 -17q-28 -80 -28 -164q0 -80 45.5 -127t148.5 -47q85 0 135 22.5t72.5 71t22.5 130.5q0 56 -15 108t-49 129l84 34q12 -44 22 -73l13 -42q22 -72 53 -98t84 -26
l13 -41zM279.5 -429q-14.5 15 -14.5 36q0 22 14.5 36.5t36.5 14.5t36.5 -14.5t14.5 -36.5q0 -21 -14.5 -36t-36.5 -15t-36.5 15zM275.5 342q-14.5 15 -14.5 36q0 22 14.5 36.5t36.5 14.5t36.5 -14.5t14.5 -36.5q0 -21 -14.5 -36t-36.5 -15t-36.5 15z" />
    <glyph glyph-name="uni06BC.init" unicode="&#x6bc;" horiz-adv-x="287" 
d="M86.5 493.5q-14.5 14.5 -14.5 36.5q0 21 14.5 36t36.5 15q21 0 35.5 -15t14.5 -36q0 -22 -14.5 -36.5t-35.5 -14.5q-22 0 -36.5 14.5zM199.5 8q7.5 -17 7.5 -35q0 -34 -23 -58t-61 -24q-37 0 -61.5 24t-24.5 58q0 13 5 28q-13 -1 -42 -1l-20 41l27 41q63 0 94 9.5
t42.5 30.5t11.5 61q0 39 -11.5 87.5t-34.5 114.5l79 25q20 -60 31 -122.5t11 -108.5q0 -54 -12 -88.5t-39 -54.5q13 -11 20.5 -28zM153 -53.5q11 11.5 11 26.5q0 17 -11 27.5t-28 11.5q-16 -4 -24 -5q-20 -12 -20 -34q0 -15 11.5 -26.5t30.5 -11.5t30 11.5z" />
    <glyph glyph-name="uni06BC.medi" unicode="&#x6bc;" horiz-adv-x="341" 
d="M131.5 428q-14.5 15 -14.5 36q0 22 14.5 36.5t36.5 14.5t36.5 -14.5t14.5 -36.5q0 -21 -14.5 -36t-36.5 -15t-36.5 15zM361 41l-20 -41q-67 0 -106 17t-63 60q-6 -14 -18 -29q19 -11 30.5 -30t11.5 -42q0 -35 -23 -59t-61 -24q-37 0 -61.5 24.5t-24.5 58.5q0 14 4 25
q-10 -1 -30 -1l-20 41l28 41q59 0 85.5 12.5t32.5 35t6 68.5v136h77v-136q0 -44 10 -68t40 -36t90 -12zM142 -51.5q11 11.5 11 27.5q0 17 -11.5 28t-29.5 11h-6q-3 -2 -8.5 -3.5t-8.5 -2.5q-19 -11 -19 -33q0 -16 11.5 -27.5t30.5 -11.5t30 11.5z" />
    <glyph glyph-name="uni06BC.fina" unicode="&#x6bc;" horiz-adv-x="731" 
d="M276.5 341.5q-14.5 14.5 -14.5 36.5t14.5 36.5t35.5 14.5q22 0 36.5 -14.5t14.5 -36.5t-14.5 -36.5t-36.5 -14.5q-21 0 -35.5 14.5zM731 0q-70 0 -111 38q-4 -141 -64 -209.5t-179 -81.5q6 -14 6 -30q0 -35 -23.5 -59t-61.5 -24q-37 0 -61.5 24.5t-24.5 58.5q0 18 8 36
q-89 20 -131 80.5t-42 154.5q0 97 46 193l57 -17q-28 -80 -28 -164q0 -80 45.5 -127t148.5 -47q85 0 135 22.5t72.5 71t22.5 130.5q0 56 -15 108t-49 129l84 34q12 -44 22 -73l13 -42q22 -72 53 -98t84 -26l13 -41zM329 -256h-21q-15 0 -39 2q-12 -11 -12 -29
q0 -16 11 -27.5t30 -11.5t30.5 11.5t11.5 27.5t-11 27z" />
    <glyph glyph-name="uni06BD.init" unicode="&#x6bd;" horiz-adv-x="287" 
d="M101 91.5q31 9.5 42.5 30.5t11.5 61q0 39 -11.5 87.5t-34.5 114.5l79 25q20 -60 31 -122.5t11 -108.5q0 -70 -20.5 -108t-69.5 -54.5t-140 -16.5l-20 41l27 41q63 0 94 9.5zM92 613q-14 14 -14 33t14 33t33 14t33 -14t14 -33t-14 -33t-33 -14t-33 14zM10 494
q-14 14 -14 33q0 20 14 33.5t34 13.5q19 0 33 -14t14 -33t-14 -33t-33 -14q-20 0 -34 14zM173 494q-14 14 -14 33t14 33t33 14q20 0 34 -13.5t14 -33.5q0 -19 -14 -33t-34 -14q-19 0 -33 14z" />
    <glyph glyph-name="uni06BD.medi" unicode="&#x6bd;" horiz-adv-x="341" 
d="M361 41l-20 -41q-67 0 -106 17t-63 60q-22 -44 -61.5 -60.5t-110.5 -16.5l-20 41l28 41q59 0 85.5 12.5t32.5 35t6 68.5v136h77v-136q0 -44 10 -68t40 -36t90 -12zM138 548q-14 14 -14 33t14 33t33 14t33 -14t14 -33t-14 -33t-33 -14t-33 14zM56 429q-14 14 -14 33
q0 20 14 33.5t34 13.5q19 0 33 -14t14 -33t-14 -33t-33 -14q-20 0 -34 14zM219 429q-14 14 -14 33t14 33t33 14q20 0 34 -13.5t14 -33.5q0 -19 -14 -33t-34 -14q-19 0 -33 14z" />
    <glyph glyph-name="uni06BD.fina" unicode="&#x6bd;" horiz-adv-x="731" 
d="M731 0q-70 0 -111 38q-3 -108 -39 -173t-103 -93t-170 -28q-134 0 -197.5 65t-63.5 179q0 97 46 193l57 -17q-28 -80 -28 -164q0 -80 45.5 -127t148.5 -47q85 0 135 22.5t72.5 71t22.5 130.5q0 56 -15 108t-49 129l84 34q12 -44 22 -73l13 -42q22 -72 53 -98t84 -26
l13 -41zM282 462q-14 14 -14 33t14 33t33 14t33 -14t14 -33t-14 -33t-33 -14t-33 14zM200 343q-14 14 -14 33q0 20 14 33.5t34 13.5q19 0 33 -14t14 -33t-14 -33t-33 -14q-20 0 -34 14zM363 343q-14 14 -14 33t14 33t33 14q20 0 34 -13.5t14 -33.5q0 -19 -14 -33t-34 -14
q-19 0 -33 14z" />
    <glyph glyph-name="uni06BF.init" unicode="&#x6bf;" horiz-adv-x="703" 
d="M330 445.5q40 -12.5 65.5 -31.5t61.5 -53q48 -46 91 -75t115 -48l-11 -71l-93 -8q-77 -5 -137.5 -25.5t-143.5 -57.5q-82 -38 -142.5 -57t-135.5 -19l-20 41l27 42q65 0 118.5 16t130.5 50q79 34 135.5 52.5t130.5 25.5q-40 17 -66.5 35t-59.5 46q-28 24 -48 37.5t-49 22
t-70 8.5q-59 0 -120 -37l-39 72q40 23 82 35t81 12q57 0 97 -12.5zM268.5 -113.5q12.5 -12.5 12.5 -29.5t-12.5 -29.5t-29.5 -12.5q-18 0 -30.5 12.5t-12.5 29.5t12.5 29.5t30.5 12.5q17 0 29.5 -12.5zM407.5 -125.5q12.5 -12.5 12.5 -29.5t-12.5 -29.5t-30.5 -12.5
q-17 0 -29.5 12.5t-12.5 29.5t12.5 29.5t29.5 12.5q18 0 30.5 -12.5zM325.5 -220q12.5 -12 12.5 -29t-12.5 -29.5t-29.5 -12.5t-29.5 12.5t-12.5 29.5t12.5 29t29.5 12t29.5 -12zM194.5 538q-14.5 15 -14.5 36q0 22 14.5 36.5t36.5 14.5t36.5 -14.5t14.5 -36.5
q0 -21 -14.5 -36t-36.5 -15t-36.5 15z" />
    <glyph glyph-name="uni06BF.medi" unicode="&#x6bf;" horiz-adv-x="716" 
d="M736 41l-20 -41q-101 0 -162 45t-72 138q-46 -11 -89 -31.5t-101 -52.5q-60 -33 -100.5 -52.5t-89.5 -33t-102 -13.5l-20 41l27 41q67 0 121.5 20t134.5 61q74 37 129 59t123 33q-41 13 -69.5 28.5t-61.5 38.5q-43 28 -74 41t-81 13q-58 0 -121 -36l-38 71q40 23 81.5 35
t78.5 12q53 0 90.5 -10t62.5 -25.5t61 -43.5q50 -40 96 -65.5t121 -44.5l-11 -71l-94 -4q-8 0 -12 -1q10 -48 32.5 -72t56 -31.5t90.5 -7.5zM357.5 -63.5q12.5 -12.5 12.5 -29.5t-12.5 -29.5t-29.5 -12.5q-18 0 -30.5 12.5t-12.5 29.5t12.5 29.5t30.5 12.5q17 0 29.5 -12.5z
M496.5 -75.5q12.5 -12.5 12.5 -29.5t-12.5 -29.5t-30.5 -12.5q-17 0 -29.5 12.5t-12.5 29.5t12.5 29.5t29.5 12.5q18 0 30.5 -12.5zM414.5 -170q12.5 -12 12.5 -29t-12.5 -29.5t-29.5 -12.5t-29.5 12.5t-12.5 29.5t12.5 29t29.5 12t29.5 -12zM190.5 539q-14.5 15 -14.5 36
q0 22 14.5 36.5t36.5 14.5t36.5 -14.5t14.5 -36.5q0 -21 -14.5 -36t-36.5 -15t-36.5 15z" />
    <glyph glyph-name="uni06BF.fina" unicode="&#x6bf;" horiz-adv-x="667" 
d="M262.5 140q-75.5 -39 -110.5 -94.5t-35 -120.5q0 -98 71 -151t207 -53q64 0 120 12.5t97 34.5l31 -73q-44 -27 -110 -42.5t-146 -15.5q-168 0 -252.5 74t-84.5 201q0 93 45.5 166.5t138.5 120.5t231 60q-37 16 -66 36t-34 23q-42 30 -71.5 43.5t-71.5 13.5
q-38 0 -68.5 -9.5t-60.5 -27.5l-38 71q80 49 173 49q60 0 101.5 -22.5t92.5 -66.5q53 -43 91.5 -66.5t94.5 -32.5l-9 -72l-83 -3q10 -48 28 -72t48 -32.5t83 -8.5l12 -41l-20 -41q-99 0 -151.5 46.5t-61.5 144.5q-116 -12 -191.5 -51zM324.5 12.5q12.5 -12.5 12.5 -29.5
t-12.5 -29.5t-29.5 -12.5q-18 0 -30.5 12.5t-12.5 29.5t12.5 29.5t30.5 12.5q17 0 29.5 -12.5zM463.5 0.5q12.5 -12.5 12.5 -29.5t-12.5 -29.5t-30.5 -12.5q-17 0 -29.5 12.5t-12.5 29.5t12.5 29.5t29.5 12.5q18 0 30.5 -12.5zM381.5 -94q12.5 -12 12.5 -30
q0 -16 -12.5 -28.5t-29.5 -12.5t-29.5 12.5t-12.5 28.5q0 18 12.5 30t29.5 12t29.5 -12zM190.5 538q-14.5 15 -14.5 36q0 22 14.5 36.5t36.5 14.5t36.5 -14.5t14.5 -36.5q0 -21 -14.5 -36t-36.5 -15t-36.5 15z" />
    <glyph glyph-name="uni06C2.fina" unicode="&#x6c2;" horiz-adv-x="592" 
d="M25 -28q79 327 245 327q40 0 67 -13.5t44.5 -34t39.5 -55.5q24 -38 43.5 -60.5t52.5 -38t82 -15.5l13 -41l-20 -41q-69 0 -115.5 21.5t-72.5 51t-53 73.5q-25 38 -40.5 54.5t-40.5 16.5q-55 0 -93.5 -66.5t-72.5 -194.5zM377 379l-209 -34l-6 46l65 11q-44 38 -44 73
q0 38 26.5 63t76.5 25q33 0 74 -22l-28 -45q-27 16 -52 16t-35.5 -11.5t-10.5 -27.5q0 -28 44 -63l93 16z" />
    <glyph glyph-name="uni06C3.fina" unicode="&#x6c3;" horiz-adv-x="592" 
d="M25 -28q79 327 245 327q40 0 67 -13.5t44.5 -34t39.5 -55.5q24 -38 43.5 -60.5t52.5 -38t82 -15.5l13 -41l-20 -41q-69 0 -115.5 21.5t-72.5 51t-53 73.5q-25 38 -40.5 54.5t-40.5 16.5q-55 0 -93.5 -66.5t-72.5 -194.5zM160 406q-14 14 -14 34t14.5 34t33.5 14
q20 0 34 -14t14 -34t-14 -34t-34 -14t-34 14zM311 406q-14 14 -14 34t14 34t34 14t34 -14t14 -34t-14 -34t-34 -14t-34 14z" />
    <glyph glyph-name="uni06C4.fina" unicode="&#x6c4;" horiz-adv-x="536" 
d="M536 0h-104q-25 -105 -109.5 -170.5t-250.5 -99.5l-25 79q57 13 48 11q-25 23 -25 59q0 35 25 59.5t61 24.5q35 0 59.5 -24.5t24.5 -59.5v-6q93 49 120 127h-78q-104 0 -161 51.5t-57 133.5q0 53 25 99t68 73t95 27q55 0 98.5 -32.5t68 -94t24.5 -145.5q0 -20 -1 -30h102
l12 -40zM376 82v17q0 101 -33 152t-92 51q-52 0 -85.5 -32.5t-33.5 -80.5q0 -107 157 -107h87zM164 -159q2 0 16 5q8 5 12.5 14t4.5 19q0 17 -11.5 28t-29.5 11t-30 -11t-12 -28q0 -16 11.5 -27.5t30.5 -11.5q5 0 8 1z" />
    <glyph glyph-name="uni06CA.fina" unicode="&#x6ca;" horiz-adv-x="536" 
d="M536 0h-104q-25 -105 -109.5 -170.5t-250.5 -99.5l-25 79q140 30 214 76t99 115h-78q-104 0 -161 51.5t-57 133.5q0 53 25 99t68 73t95 27q55 0 98.5 -32.5t68 -94t24.5 -145.5q0 -20 -1 -30h102l12 -40zM376 82v17q0 101 -33 152t-92 51q-52 0 -85.5 -32.5t-33.5 -80.5
q0 -107 157 -107h87zM145 492q-14 14 -14 34t14.5 34t33.5 14q20 0 34 -14t14 -34t-14 -34t-34 -14t-34 14zM296 492q-14 14 -14 34t14 34t34 14t34 -14t14 -34t-14 -34t-34 -14t-34 14z" />
    <glyph glyph-name="uni06CD.fina" unicode="&#x6cd;" horiz-adv-x="771" 
d="M771 0q-47 0 -86 17q7 -19 7 -35q0 -51 -39.5 -95.5t-117.5 -72t-189 -27.5q-134 0 -198 65t-64 179q0 52 13 102q-47 -20 -95 -26l-8 44q77 21 136 73l58 -17q-29 -76 -29 -164q0 -80 45.5 -126.5t148.5 -46.5q84 0 145 18.5t92 46t31 53.5q0 19 -15 33.5t-52 29.5
t-105 35l35 72q21 -6 48 -15.5t41 -14.5q73 -25 114.5 -35.5t90.5 -10.5l13 -41z" />
    <glyph glyph-name="uni06CE.init" unicode="&#x6ce;" horiz-adv-x="287" 
d="M101 91.5q31 9.5 42.5 30.5t11.5 61q0 39 -11.5 87.5t-34.5 114.5l79 25q20 -60 31 -122.5t11 -108.5q0 -70 -20.5 -108t-69.5 -54.5t-140 -16.5l-20 41l27 41q63 0 94 9.5zM27.5 -177q-14.5 14 -14.5 34t14 34t34 14t34 -14t14 -34t-14 -34t-34 -14q-19 0 -33.5 14z
M178 -177q-14 14 -14 34t14 34t34 14t34 -14t14 -34t-14 -34t-34 -14t-34 14zM125 514l58 98l41 -16l-78 -142h-44l-76 142l41 16z" />
    <glyph glyph-name="uni06CE.medi" unicode="&#x6ce;" horiz-adv-x="341" 
d="M361 41l-20 -41q-67 0 -106 17t-63 60q-22 -44 -61.5 -60.5t-110.5 -16.5l-20 41l28 41q59 0 85.5 12.5t32.5 35t6 68.5v136h77v-136q0 -44 10 -68t40 -36t90 -12zM61.5 -177q-14.5 14 -14.5 34t14 34t34 14t34 -14t14 -34t-14 -34t-34 -14q-19 0 -33.5 14zM212 -177
q-14 14 -14 34t14 34t34 14t34 -14t14 -34t-14 -34t-34 -14t-34 14zM171 449l58 98l41 -16l-78 -142h-44l-76 142l41 16z" />
    <glyph glyph-name="uni06CE.fina" unicode="&#x6ce;" horiz-adv-x="734" 
d="M734 0q-49 0 -87 18q7 -21 7 -36q0 -51 -39.5 -95.5t-117.5 -72t-189 -27.5q-134 0 -197.5 65t-63.5 179q0 99 46 193l57 -17q-28 -78 -28 -164q0 -80 45.5 -126.5t148.5 -46.5q84 0 145 18.5t92 46t31 53.5q0 19 -15 33.5t-52 29.5t-106 35l36 72q23 -7 86 -29
q71 -25 115 -36t93 -11l13 -41zM146 354l58 98l41 -16l-78 -142h-44l-76 142l41 16z" />
    <glyph glyph-name="uni06CF.fina" unicode="&#x6cf;" horiz-adv-x="536" 
d="M536 0h-104q-25 -105 -109.5 -170.5t-250.5 -99.5l-25 79q140 30 214 76t99 115h-78q-104 0 -161 51.5t-57 133.5q0 53 25 99t68 73t95 27q55 0 98.5 -32.5t68 -94t24.5 -145.5q0 -20 -1 -30h102l12 -40zM376 82v17q0 101 -33 152t-92 51q-52 0 -85.5 -32.5t-33.5 -80.5
q0 -107 157 -107h87zM215.5 465q-14.5 15 -14.5 36q0 22 14.5 36.5t36.5 14.5t36.5 -14.5t14.5 -36.5q0 -21 -14.5 -36t-36.5 -15t-36.5 15z" />
    <glyph glyph-name="uni06D1.init" unicode="&#x6d1;" horiz-adv-x="287" 
d="M101 91.5q31 9.5 42.5 30.5t11.5 61q0 39 -11.5 87.5t-34.5 114.5l79 25q20 -60 31 -122.5t11 -108.5q0 -70 -20.5 -108t-69.5 -54.5t-140 -16.5l-20 41l27 41q63 0 94 9.5zM101.5 -113.5q12.5 -12.5 12.5 -29.5t-12.5 -29.5t-29.5 -12.5q-18 0 -30.5 12.5t-12.5 29.5
t12.5 29.5t30.5 12.5q17 0 29.5 -12.5zM240.5 -125.5q12.5 -12.5 12.5 -29.5t-12.5 -29.5t-30.5 -12.5q-17 0 -29.5 12.5t-12.5 29.5t12.5 29.5t29.5 12.5q18 0 30.5 -12.5zM158.5 -220q12.5 -12 12.5 -29t-12.5 -29.5t-29.5 -12.5t-29.5 12.5t-12.5 29.5t12.5 29t29.5 12
t29.5 -12z" />
    <glyph glyph-name="uni06D1.medi" unicode="&#x6d1;" horiz-adv-x="341" 
d="M361 41l-20 -41q-67 0 -106 17t-63 60q-22 -44 -61.5 -60.5t-110.5 -16.5l-20 41l28 41q59 0 85.5 12.5t32.5 35t6 68.5v136h77v-136q0 -44 10 -68t40 -36t90 -12zM135.5 -113.5q12.5 -12.5 12.5 -29.5t-12.5 -29.5t-29.5 -12.5q-18 0 -30.5 12.5t-12.5 29.5t12.5 29.5
t30.5 12.5q17 0 29.5 -12.5zM274.5 -125.5q12.5 -12.5 12.5 -29.5t-12.5 -29.5t-30.5 -12.5q-17 0 -29.5 12.5t-12.5 29.5t12.5 29.5t29.5 12.5q18 0 30.5 -12.5zM192.5 -220q12.5 -12 12.5 -29t-12.5 -29.5t-29.5 -12.5t-29.5 12.5t-12.5 29.5t12.5 29t29.5 12t29.5 -12z
" />
    <glyph glyph-name="uni06D1.fina" unicode="&#x6d1;" horiz-adv-x="734" 
d="M734 0q-49 0 -87 18q7 -21 7 -36q0 -51 -39.5 -95.5t-117.5 -72t-189 -27.5q-134 0 -197.5 65t-63.5 179q0 99 46 193l57 -17q-28 -78 -28 -164q0 -80 45.5 -126.5t148.5 -46.5q84 0 145 18.5t92 46t31 53.5q0 19 -15 33.5t-52 29.5t-106 35l36 72q23 -7 86 -29
q71 -25 115 -36t93 -11l13 -41zM280.5 -312.5q12.5 -12.5 12.5 -29.5t-12.5 -29.5t-29.5 -12.5q-18 0 -30.5 12.5t-12.5 29.5t12.5 29.5t30.5 12.5q17 0 29.5 -12.5zM419.5 -324.5q12.5 -12.5 12.5 -29.5t-12.5 -29.5t-30.5 -12.5q-17 0 -29.5 12.5t-12.5 29.5t12.5 29.5
t29.5 12.5q18 0 30.5 -12.5zM337.5 -419q12.5 -12 12.5 -29t-12.5 -29.5t-29.5 -12.5t-29.5 12.5t-12.5 29.5t12.5 29t29.5 12t29.5 -12z" />
    <glyph glyph-name="uni06D5.fina" unicode="&#x6d5;" horiz-adv-x="510" 
d="M530 40l-20 -40h-19q-52 0 -89.5 25t-55.5 78q-26 -31 -67 -49.5t-85 -18.5q-76 0 -122.5 41.5t-46.5 108.5q0 56 37 104.5t107.5 80.5t167.5 38v98l77 9v-318q0 -65 21 -90t64 -25h18zM279.5 127.5q33.5 15.5 57.5 41.5v164q-80 -3 -133.5 -23t-79.5 -50.5t-26 -66.5
q0 -38 26.5 -59.5t81.5 -21.5q40 0 73.5 15.5z" />
    <glyph glyph-name="uni06EE.fina" unicode="&#x6ee;" horiz-adv-x="529" 
d="M549 41l-20 -41q-47 0 -83.5 23t-56.5 62q-28 -49 -80 -74t-126 -25q-81 0 -158 22l25 81q37 -9 68.5 -14t70.5 -5q106 0 174 66l-152 346l81 39l126 -323q18 -46 32 -69.5t34 -35t52 -11.5zM109 602l76 141h44l78 -141l-41 -17l-58 98l-58 -98z" />
    <glyph glyph-name="uni06FA.init" unicode="&#x6fa;" horiz-adv-x="830" 
d="M763 295q10 -59 10 -105q0 -97 -45 -143.5t-124 -46.5q-45 0 -81 18t-57 51q-22 -33 -57.5 -51t-82.5 -18q-46 0 -84 17.5t-57 49.5q-25 -36 -70.5 -51.5t-114.5 -15.5l-20 42l27 40q70 0 105.5 22.5t35.5 77.5v152h74v-132q0 -70 26.5 -95t78.5 -25q47 0 73 29t26 90
v133h75v-132q0 -64 27.5 -92t80.5 -28q46 0 67.5 24t21.5 76q0 41 -10.5 94t-30.5 109l74 25q22 -56 32 -115zM430 548q-14 14 -14 33t14 33t33 14t33 -14t14 -33t-14 -33t-33 -14t-33 14zM348 429q-14 14 -14 33q0 20 14 33.5t34 13.5q19 0 33 -14t14 -33t-14 -33t-33 -14
q-20 0 -34 14zM511 429q-14 14 -14 33t14 33t33 14q20 0 34 -13.5t14 -33.5q0 -19 -14 -33t-34 -14q-19 0 -33 14zM437.5 -187q-14.5 15 -14.5 36q0 22 14.5 36.5t36.5 14.5t36.5 -14.5t14.5 -36.5q0 -21 -14.5 -36t-36.5 -15t-36.5 15z" />
    <glyph glyph-name="uni06FA.medi" unicode="&#x6fa;" horiz-adv-x="928" 
d="M948 43l-20 -43q-68 0 -111 18t-60 51q-43 -69 -149 -69q-45 0 -81.5 18t-56.5 51q-22 -33 -57.5 -51t-82.5 -18t-85 17.5t-57 49.5q-25 -36 -71 -51.5t-117 -15.5l-20 42l28 40q71 0 107 22.5t36 77.5v152h74v-132q0 -70 27 -95t79 -25q47 0 73 29t26 90v133h75v-132
q0 -64 27.5 -92t80.5 -28q96 0 96 99v187h77v-176q0 -43 14 -66.5t46 -33.5t90 -10zM434 548q-14 14 -14 33t14 33t33 14t33 -14t14 -33t-14 -33t-33 -14t-33 14zM352 429q-14 14 -14 33q0 20 14 33.5t34 13.5q19 0 33 -14t14 -33t-14 -33t-33 -14q-20 0 -34 14zM515 429
q-14 14 -14 33t14 33t33 14q20 0 34 -13.5t14 -33.5q0 -19 -14 -33t-34 -14q-19 0 -33 14zM430.5 -187q-14.5 15 -14.5 36q0 22 14.5 36.5t36.5 14.5t36.5 -14.5t14.5 -36.5q0 -21 -14.5 -36t-36.5 -15t-36.5 15z" />
    <glyph glyph-name="uni06FA.fina" unicode="&#x6fa;" horiz-adv-x="1333" 
d="M1353 43l-20 -43q-68 0 -111 18t-60 51q-43 -69 -149 -69q-45 0 -81.5 18t-56.5 51q-44 -69 -144 -69h-1v0q-71 0 -110 38q-3 -108 -39 -173t-103 -93t-170 -28q-134 0 -197.5 65t-63.5 179q0 97 46 193l57 -17q-28 -80 -28 -164q0 -80 45.5 -127t148.5 -47
q85 0 135 22.5t72.5 71t22.5 130.5q0 56 -15 108t-49 129l84 34q12 -44 22 -73l13 -42q22 -72 53 -98t84 -26q46 0 71.5 29t25.5 90v133h75v-132q0 -64 27.5 -92t80.5 -28q96 0 96 99v192h77v-181q0 -43 14 -66.5t45.5 -33.5t89.5 -10zM839 548q-14 14 -14 33t14 33t33 14
t33 -14t14 -33t-14 -33t-33 -14t-33 14zM757 429q-14 14 -14 33q0 20 14 33.5t34 13.5q19 0 33 -14t14 -33t-14 -33t-33 -14q-20 0 -34 14zM920 429q-14 14 -14 33t14 33t33 14q20 0 34 -13.5t14 -33.5q0 -19 -14 -33t-34 -14q-19 0 -33 14zM837.5 -187q-14.5 15 -14.5 36
q0 22 14.5 36.5t36.5 14.5t36.5 -14.5t14.5 -36.5q0 -21 -14.5 -36t-36.5 -15t-36.5 15z" />
    <glyph glyph-name="uni06FB.init" unicode="&#x6fb;" horiz-adv-x="932" 
d="M598.5 531.5q-14.5 14.5 -14.5 36.5q0 21 14.5 35.5t36.5 14.5q21 0 35.5 -14.5t14.5 -35.5q0 -22 -14.5 -36.5t-35.5 -14.5q-22 0 -36.5 14.5zM775 426.5q47 -27.5 73.5 -81t26.5 -128.5q0 -94 -41 -140t-131 -61.5t-264 -15.5h-110q-62 0 -100.5 16.5t-62.5 58.5
q-22 -43 -60.5 -59t-105.5 -16l-20 41l28 41q56 0 81 12t31 34t6 67v197h76v-197q0 -55 18.5 -80t73.5 -31q38 115 98 198.5t131.5 127.5t144.5 44q60 0 107 -27.5zM660 92.5q77 10.5 112.5 40.5t35.5 89q0 87 -38.5 117.5t-96.5 30.5q-90 0 -166.5 -67.5t-142.5 -220.5h75
q144 0 221 10.5zM538.5 -114.5q14.5 -14.5 14.5 -36.5q0 -21 -14.5 -36t-36.5 -15q-21 0 -35.5 15t-14.5 36q0 22 14.5 36.5t35.5 14.5q22 0 36.5 -14.5z" />
    <glyph glyph-name="uni06FB.medi" unicode="&#x6fb;" horiz-adv-x="964" 
d="M598.5 531.5q-14.5 14.5 -14.5 36.5q0 21 14.5 35.5t36.5 14.5q21 0 35.5 -14.5t14.5 -35.5q0 -22 -14.5 -36.5t-35.5 -14.5q-22 0 -36.5 14.5zM984 41l-20 -41q-41 0 -76 20t-58 53q-42 -43 -131.5 -58t-259.5 -15h-110q-62 0 -100.5 16.5t-62.5 58.5q-22 -43 -60.5 -59
t-105.5 -16l-20 41l28 41q56 0 81 12t31 34t6 67v197h76v-197q0 -55 18.5 -80t73.5 -31q38 115 98 198.5t131.5 127.5t144.5 44q60 0 107 -27.5t73.5 -81t26.5 -128.5q0 -50 -10 -83q21 -29 46.5 -40.5t59.5 -11.5zM660 92.5q77 10.5 112.5 40.5t35.5 89q0 87 -38.5 117.5
t-96.5 30.5q-90 0 -166.5 -67.5t-142.5 -220.5h75q144 0 221 10.5zM538.5 -114.5q14.5 -14.5 14.5 -36.5q0 -21 -14.5 -36t-36.5 -15q-21 0 -35.5 15t-14.5 36q0 22 14.5 36.5t35.5 14.5q22 0 36.5 -14.5z" />
    <glyph glyph-name="uni06FB.fina" unicode="&#x6fb;" horiz-adv-x="1366" 
d="M1000.5 531.5q-14.5 14.5 -14.5 36.5q0 21 14.5 35.5t36.5 14.5q21 0 35.5 -14.5t14.5 -35.5q0 -22 -14.5 -36.5t-35.5 -14.5q-22 0 -36.5 14.5zM1386 41l-20 -41q-41 0 -76 20t-58 53q-42 -43 -131 -58t-259 -15h-111v1q-71 0 -111 37q-4 -108 -39.5 -172.5
t-102.5 -92.5t-170 -28q-134 0 -197.5 64.5t-63.5 179.5q0 97 46 193l57 -18q-28 -78 -28 -164q0 -79 45.5 -126t148.5 -47q85 0 135 22t72.5 70.5t22.5 130.5q0 56 -15 108.5t-49 128.5l84 34q7 -27 20 -65l15 -50q18 -57 40.5 -84t56.5 -35q38 114 97.5 197t131 126.5
t143.5 43.5q60 0 107 -27.5t73.5 -81t26.5 -128.5q0 -49 -10 -83q21 -29 46.5 -40.5t59.5 -11.5zM1063 92.5q77 10.5 112 40.5t35 89q0 87 -38.5 117.5t-96.5 30.5q-90 0 -166.5 -67.5t-142.5 -220.5h76q144 0 221 10.5zM940.5 -114.5q14.5 -14.5 14.5 -36.5
q0 -21 -14.5 -36t-36.5 -15q-21 0 -35.5 15t-14.5 36q0 22 14.5 36.5t35.5 14.5q22 0 36.5 -14.5z" />
    <glyph glyph-name="uni06FC.init" unicode="&#x6fc;" horiz-adv-x="567" 
d="M551 54q-135 -33 -227 -43.5t-201 -10.5h-123l-20 41l27 41h98q52 0 75 1q-52 37 -78.5 86t-26.5 97q0 49 25.5 92.5t76.5 70.5t122 27q86 0 155 -37l-36 -78q-29 16 -61 23.5t-58 7.5q-73 0 -110 -33t-37 -81q0 -99 133 -169q52 5 108 15.5t148 31.5zM260.5 536
q-14.5 15 -14.5 36q0 22 14.5 36.5t36.5 14.5t36.5 -14.5t14.5 -36.5q0 -21 -14.5 -36t-36.5 -15t-36.5 15zM223.5 -187q-14.5 15 -14.5 36q0 22 14.5 36.5t36.5 14.5t36.5 -14.5t14.5 -36.5q0 -21 -14.5 -36t-36.5 -15t-36.5 15z" />
    <glyph glyph-name="uni06FC.medi" unicode="&#x6fc;" horiz-adv-x="590" 
d="M610 41l-20 -41h-38q-68 0 -123 20t-104 60q-69 -37 -146.5 -58.5t-141.5 -21.5h-37l-20 41l27 41h15q59 0 122.5 14t122.5 39l-30 32q-42 45 -77.5 78t-88.5 72l9 82q108 43 220 43q111 0 162 -35t51 -102q0 -49 -31.5 -95.5t-86.5 -85.5q37 -25 73 -33.5t102 -8.5h28z
M256 245q51 -51 80 -76q51 30 80.5 63t29.5 64q0 33 -35.5 49t-110.5 16q-65 0 -146 -23q37 -28 102 -93zM260.5 535q-14.5 15 -14.5 36q0 22 14.5 36.5t36.5 14.5t36.5 -14.5t14.5 -36.5q0 -21 -14.5 -36t-36.5 -15t-36.5 15zM288.5 -187q-14.5 15 -14.5 36q0 22 14.5 36.5
t36.5 14.5t36.5 -14.5t14.5 -36.5q0 -21 -14.5 -36t-36.5 -15t-36.5 15z" />
    <glyph glyph-name="uni06FC.fina" unicode="&#x6fc;" horiz-adv-x="567" 
d="M551 -233l32 -72q-97 -58 -246 -58q-101 0 -168.5 32.5t-99 87.5t-31.5 124q0 186 187 271l-18 18q-38 40 -74.5 74t-89.5 74l11 82q108 42 223 42t165.5 -34.5t50.5 -102.5q0 -55 -33 -96t-101 -77q41 -30 77.5 -40t106.5 -10h31l13 -40l-20 -42h-41q-70 0 -126 22.5
t-117 74.5q-97 -45 -137 -91.5t-40 -112.5q0 -77 61 -124.5t178 -47.5t206 46zM192 282q32 -30 38 -36q36 -36 68 -64q68 30 98.5 55.5t30.5 60.5q0 32 -36 47.5t-114 15.5q-67 0 -150 -23q33 -26 65 -56zM258.5 534q-14.5 15 -14.5 36q0 22 14.5 36.5t36.5 14.5t36.5 -14.5
t14.5 -36.5q0 -21 -14.5 -36t-36.5 -15t-36.5 15zM278.5 -129q-14.5 15 -14.5 36q0 22 14.5 36.5t36.5 14.5t36.5 -14.5t14.5 -36.5q0 -21 -14.5 -36t-36.5 -15t-36.5 15z" />
    <glyph glyph-name="uni06FF.init" unicode="&#x6ff;" horiz-adv-x="639" 
d="M423 378.5q87 -58.5 123 -105t36 -104.5q0 -48 -23.5 -90t-61.5 -67.5t-81 -25.5q-105 0 -194 49q-84 -35 -194 -35h-28l-20 41l27 41h17q60 0 120 10q-39 38 -60.5 84.5t-21.5 96.5q0 58 29.5 103t78.5 63l-70 39l42 72q194 -113 281 -171.5zM150 187q29 -40 79 -68
q51 24 78 61.5t27 87.5q0 51 -31.5 85t-76.5 34t-75 -33t-30 -84q0 -43 29 -83zM489 92q29 23 29 59q0 35 -29 71t-101 85q4 -16 4 -34q0 -55 -22 -103t-65 -84q54 -17 111 -17q44 0 73 23zM269 574l76 141h44l78 -141l-41 -17l-58 98l-58 -98z" />
    <glyph glyph-name="uni06FF.medi" unicode="&#x6ff;" horiz-adv-x="481" 
d="M481 0h-118q71 -47 71 -135q0 -61 -37 -98.5t-100 -37.5q-62 0 -113 34.5t-82.5 96t-35.5 140.5h-66l-20 41l27 41h58q4 97 38 177.5t87.5 127.5t114.5 47q63 0 100 -41t37 -118q0 -50 -27 -104.5t-74 -88.5h147l13 -41zM218.5 318q-36.5 -34 -61.5 -95.5t-31 -140.5h55
q54 0 97 26.5t67 69t24 88.5q0 42 -19.5 64t-56.5 22q-38 0 -74.5 -34zM345.5 -167.5q19.5 20.5 19.5 51.5q0 53 -41.5 84.5t-109.5 31.5h-88q8 -88 52.5 -138t109.5 -50q38 0 57.5 20.5zM205 515l76 141h44l78 -141l-41 -17l-58 98l-58 -98z" />
    <glyph glyph-name="uni06FF.fina" unicode="&#x6ff;" horiz-adv-x="581" 
d="M581 0h-118q71 -47 71 -135q0 -61 -37.5 -98.5t-100.5 -37.5q-62 0 -113 34.5t-82.5 96.5t-35.5 141q-86 3 -138 32l37 72q40 -19 100 -22q4 97 38 177.5t87.5 127t114.5 46.5q64 0 100.5 -41t36.5 -118q0 -50 -26.5 -104.5t-73.5 -88.5h147l13 -41zM317.5 318
q-36.5 -34 -61.5 -95.5t-31 -140.5h55q54 0 97.5 26.5t67.5 69t24 88.5q0 41 -20 63.5t-57 22.5q-38 0 -74.5 -34zM445.5 -167.5q19.5 20.5 19.5 51.5q0 53 -41.5 84.5t-110.5 31.5h-88q8 -88 53 -138t110 -50q38 0 57.5 20.5zM305 515l76 141h44l78 -141l-41 -17l-58 98
l-58 -98z" />
    <glyph glyph-name="uniFB51" unicode="&#x671;" horiz-adv-x="235" arabic-form="final" 
d="M68 640l77 9v-447q0 -47 8.5 -72.5t29.5 -36.5t60 -11l12 -41l-20 -41q-167 0 -167 197v443zM222 881.5q22 -20.5 22 -54.5q0 -45 -33 -66t-84 -21q-37 0 -80 13l-18 -38l-42 15l27 81l35 -11q24 53 54.5 77.5t64.5 24.5q32 0 54 -20.5zM197 822q0 15 -8 22t-26 7
q-38 0 -74 -59q24 -4 49 -4q59 0 59 34z" />
    <glyph glyph-name="uniFB53" unicode="&#x67b;" horiz-adv-x="962" arabic-form="final" 
d="M982 43l-20 -43q-75 0 -116.5 19.5t-69.5 59.5q-81 -46 -184.5 -69.5t-255.5 -23.5q-105 0 -168.5 21.5t-92 66t-28.5 114.5q0 38 9.5 79.5t27.5 78.5l57 -19q-22 -66 -22 -127q0 -48 21.5 -76.5t70 -41.5t132.5 -13q130 0 234.5 22.5t167.5 57.5v185h77v-125
q0 -49 11 -75.5t42.5 -39t93.5 -12.5zM341 -165q-14 14 -14 34t14 34t34 14t34 -14t14 -34t-14 -34t-34 -14t-34 14zM342 -310q-14 14 -14 34t14 34t34 14t34 -14t14 -34t-14 -34t-34 -14t-34 14z" />
    <glyph glyph-name="uniFB54" unicode="&#x67b;" horiz-adv-x="287" arabic-form="initial" 
d="M101 91.5q31 9.5 42.5 30.5t11.5 61q0 39 -11.5 87.5t-34.5 114.5l79 25q20 -60 31 -122.5t11 -108.5q0 -70 -20.5 -108t-69.5 -54.5t-140 -16.5l-20 41l27 41q63 0 94 9.5zM103 -165q-14 14 -14 34t14 34t34 14t34 -14t14 -34t-14 -34t-34 -14t-34 14zM104 -310
q-14 14 -14 34t14 34t34 14t34 -14t14 -34t-14 -34t-34 -14t-34 14z" />
    <glyph glyph-name="uniFB55" unicode="&#x67b;" horiz-adv-x="341" arabic-form="medial" 
d="M361 41l-20 -41q-67 0 -106 17t-63 60q-22 -44 -61.5 -60.5t-110.5 -16.5l-20 41l28 41q59 0 85.5 12.5t32.5 35t6 68.5v136h77v-136q0 -44 10 -68t40 -36t90 -12zM137 -165q-14 14 -14 34t14 34t34 14t34 -14t14 -34t-14 -34t-34 -14t-34 14zM138 -310q-14 14 -14 34
t14 34t34 14t34 -14t14 -34t-14 -34t-34 -14t-34 14z" />
    <glyph glyph-name="uniFB57" unicode="&#x67e;" horiz-adv-x="962" arabic-form="final" 
d="M982 43l-20 -43q-75 0 -116.5 19.5t-69.5 59.5q-81 -46 -184.5 -69.5t-255.5 -23.5q-105 0 -168.5 21.5t-92 66t-28.5 114.5q0 38 9.5 79.5t27.5 78.5l57 -19q-22 -66 -22 -127q0 -48 21.5 -76.5t70 -41.5t132.5 -13q130 0 234.5 22.5t167.5 57.5v185h77v-125
q0 -49 11 -75.5t42.5 -39t93.5 -12.5zM338.5 -113.5q12.5 -12.5 12.5 -29.5t-12.5 -29.5t-29.5 -12.5q-18 0 -30.5 12.5t-12.5 29.5t12.5 29.5t30.5 12.5q17 0 29.5 -12.5zM477.5 -125.5q12.5 -12.5 12.5 -29.5t-12.5 -29.5t-30.5 -12.5q-17 0 -29.5 12.5t-12.5 29.5
t12.5 29.5t29.5 12.5q18 0 30.5 -12.5zM395.5 -220q12.5 -12 12.5 -29t-12.5 -29.5t-29.5 -12.5t-29.5 12.5t-12.5 29.5t12.5 29t29.5 12t29.5 -12z" />
    <glyph glyph-name="uniFB58" unicode="&#x67e;" horiz-adv-x="287" arabic-form="initial" 
d="M101 91.5q31 9.5 42.5 30.5t11.5 61q0 39 -11.5 87.5t-34.5 114.5l79 25q20 -60 31 -122.5t11 -108.5q0 -70 -20.5 -108t-69.5 -54.5t-140 -16.5l-20 41l27 41q63 0 94 9.5zM101.5 -113.5q12.5 -12.5 12.5 -29.5t-12.5 -29.5t-29.5 -12.5q-18 0 -30.5 12.5t-12.5 29.5
t12.5 29.5t30.5 12.5q17 0 29.5 -12.5zM240.5 -125.5q12.5 -12.5 12.5 -29.5t-12.5 -29.5t-30.5 -12.5q-17 0 -29.5 12.5t-12.5 29.5t12.5 29.5t29.5 12.5q18 0 30.5 -12.5zM158.5 -220q12.5 -12 12.5 -29t-12.5 -29.5t-29.5 -12.5t-29.5 12.5t-12.5 29.5t12.5 29t29.5 12
t29.5 -12z" />
    <glyph glyph-name="uniFB59" unicode="&#x67e;" horiz-adv-x="341" arabic-form="medial" 
d="M361 41l-20 -41q-67 0 -106 17t-63 60q-22 -44 -61.5 -60.5t-110.5 -16.5l-20 41l28 41q59 0 85.5 12.5t32.5 35t6 68.5v136h77v-136q0 -44 10 -68t40 -36t90 -12zM135.5 -113.5q12.5 -12.5 12.5 -29.5t-12.5 -29.5t-29.5 -12.5q-18 0 -30.5 12.5t-12.5 29.5t12.5 29.5
t30.5 12.5q17 0 29.5 -12.5zM274.5 -125.5q12.5 -12.5 12.5 -29.5t-12.5 -29.5t-30.5 -12.5q-17 0 -29.5 12.5t-12.5 29.5t12.5 29.5t29.5 12.5q18 0 30.5 -12.5zM192.5 -220q12.5 -12 12.5 -29t-12.5 -29.5t-29.5 -12.5t-29.5 12.5t-12.5 29.5t12.5 29t29.5 12t29.5 -12z
" />
    <glyph glyph-name="uniFB5B" unicode="&#x680;" horiz-adv-x="962" arabic-form="final" 
d="M982 43l-20 -43q-75 0 -116.5 19.5t-69.5 59.5q-81 -46 -184.5 -69.5t-255.5 -23.5q-105 0 -168.5 21.5t-92 66t-28.5 114.5q0 38 9.5 79.5t27.5 78.5l57 -19q-22 -66 -22 -127q0 -48 21.5 -76.5t70 -41.5t132.5 -13q130 0 234.5 22.5t167.5 57.5v185h77v-125
q0 -49 11 -75.5t42.5 -39t93.5 -12.5zM264 -160.5q-14 13.5 -14 32.5q0 21 14 35t34 14t34 -14t14 -35q0 -19 -14 -32.5t-34 -13.5t-34 13.5zM414 -160.5q-14 13.5 -14 32.5q0 21 14 35t34 14t34 -14t14 -35q0 -19 -14 -32.5t-34 -13.5t-34 13.5zM264 -303q-14 14 -14 35
q0 19 14 33t34 14t34 -13.5t14 -33.5q0 -21 -14 -35t-34 -14t-34 14zM414 -303q-14 14 -14 35q0 20 14 33.5t34 13.5t34 -13.5t14 -33.5q0 -21 -14 -35t-34 -14t-34 14z" />
    <glyph glyph-name="uniFB5C" unicode="&#x680;" horiz-adv-x="287" arabic-form="initial" 
d="M101 91.5q31 9.5 42.5 30.5t11.5 61q0 39 -11.5 87.5t-34.5 114.5l79 25q20 -60 31 -122.5t11 -108.5q0 -70 -20.5 -108t-69.5 -54.5t-140 -16.5l-20 41l27 41q63 0 94 9.5zM27 -160.5q-14 13.5 -14 32.5q0 21 14 35t34 14t34 -14t14 -35q0 -19 -14 -32.5t-34 -13.5
t-34 13.5zM177 -160.5q-14 13.5 -14 32.5q0 21 14 35t34 14t34 -14t14 -35q0 -19 -14 -32.5t-34 -13.5t-34 13.5zM27 -303q-14 14 -14 35q0 19 14 33t34 14t34 -13.5t14 -33.5q0 -21 -14 -35t-34 -14t-34 14zM177 -303q-14 14 -14 35q0 20 14 33.5t34 13.5t34 -13.5
t14 -33.5q0 -21 -14 -35t-34 -14t-34 14z" />
    <glyph glyph-name="uniFB5D" unicode="&#x680;" horiz-adv-x="341" arabic-form="medial" 
d="M361 41l-20 -41q-67 0 -106 17t-63 60q-22 -44 -61.5 -60.5t-110.5 -16.5l-20 41l28 41q59 0 85.5 12.5t32.5 35t6 68.5v136h77v-136q0 -44 10 -68t40 -36t90 -12zM61 -160.5q-14 13.5 -14 32.5q0 21 14 35t34 14t34 -14t14 -35q0 -19 -14 -32.5t-34 -13.5t-34 13.5z
M211 -160.5q-14 13.5 -14 32.5q0 21 14 35t34 14t34 -14t14 -35q0 -19 -14 -32.5t-34 -13.5t-34 13.5zM61 -303q-14 14 -14 35q0 19 14 33t34 14t34 -13.5t14 -33.5q0 -21 -14 -35t-34 -14t-34 14zM211 -303q-14 14 -14 35q0 20 14 33.5t34 13.5t34 -13.5t14 -33.5
q0 -21 -14 -35t-34 -14t-34 14z" />
    <glyph glyph-name="uniFB5F" unicode="&#x67a;" horiz-adv-x="962" arabic-form="final" 
d="M982 43l-20 -43q-75 0 -116.5 19.5t-69.5 59.5q-81 -46 -184.5 -69.5t-255.5 -23.5q-105 0 -168.5 21.5t-92 66t-28.5 114.5q0 38 9.5 79.5t27.5 78.5l57 -19q-22 -66 -22 -127q0 -48 21.5 -76.5t70 -41.5t132.5 -13q130 0 234.5 22.5t167.5 57.5v185h77v-125
q0 -49 11 -75.5t42.5 -39t93.5 -12.5zM416 517q-14 14 -14 34t14 34t34 14t34 -14t14 -34t-14 -34t-34 -14t-34 14zM417 372q-14 14 -14 34t14 34t34 14t34 -14t14 -34t-14 -34t-34 -14t-34 14z" />
    <glyph glyph-name="uniFB60" unicode="&#x67a;" horiz-adv-x="287" arabic-form="initial" 
d="M101 91.5q31 9.5 42.5 30.5t11.5 61q0 39 -11.5 87.5t-34.5 114.5l79 25q20 -60 31 -122.5t11 -108.5q0 -70 -20.5 -108t-69.5 -54.5t-140 -16.5l-20 41l27 41q63 0 94 9.5zM92 619q-14 14 -14 34t14 34t34 14t34 -14t14 -34t-14 -34t-34 -14t-34 14zM93 474
q-14 14 -14 34t14 34t34 14t34 -14t14 -34t-14 -34t-34 -14t-34 14z" />
    <glyph glyph-name="uniFB61" unicode="&#x67a;" horiz-adv-x="341" arabic-form="medial" 
d="M361 41l-20 -41q-67 0 -106 17t-63 60q-22 -44 -61.5 -60.5t-110.5 -16.5l-20 41l28 41q59 0 85.5 12.5t32.5 35t6 68.5v136h77v-136q0 -44 10 -68t40 -36t90 -12zM137 554q-14 14 -14 34t14 34t34 14t34 -14t14 -34t-14 -34t-34 -14t-34 14zM138 409q-14 14 -14 34
t14 34t34 14t34 -14t14 -34t-14 -34t-34 -14t-34 14z" />
    <glyph glyph-name="uniFB63" unicode="&#x67f;" horiz-adv-x="962" arabic-form="final" 
d="M982 43l-20 -43q-75 0 -116.5 19.5t-69.5 59.5q-81 -46 -184.5 -69.5t-255.5 -23.5q-105 0 -168.5 21.5t-92 66t-28.5 114.5q0 38 9.5 79.5t27.5 78.5l57 -19q-22 -66 -22 -127q0 -48 21.5 -76.5t70 -41.5t132.5 -13q130 0 234.5 22.5t167.5 57.5v185h77v-125
q0 -49 11 -75.5t42.5 -39t93.5 -12.5zM342 512q-14 14 -14 32q0 22 14 36t34 14t34 -14t14 -36q0 -18 -14 -32t-34 -14t-34 14zM492 512q-14 14 -14 32q0 22 14 36t34 14t34 -14.5t14 -35.5q0 -18 -14.5 -32t-33.5 -14q-20 0 -34 14zM342 370q-14 14 -14 34t14 33.5t34 13.5
t34 -13.5t14 -33.5t-14 -34t-34 -14t-34 14zM492 370q-14 14 -14 34t14 33.5t34 13.5t34 -14t14 -33q0 -20 -14 -34t-34 -14t-34 14z" />
    <glyph glyph-name="uniFB64" unicode="&#x67f;" horiz-adv-x="287" arabic-form="initial" 
d="M101 91.5q31 9.5 42.5 30.5t11.5 61q0 39 -11.5 87.5t-34.5 114.5l79 25q20 -60 31 -122.5t11 -108.5q0 -70 -20.5 -108t-69.5 -54.5t-140 -16.5l-20 41l27 41q63 0 94 9.5zM17 614q-14 14 -14 32q0 22 14 36t34 14t34 -14t14 -36q0 -18 -14 -32t-34 -14t-34 14zM167 614
q-14 14 -14 32q0 22 14 36t34 14t34 -14.5t14 -35.5q0 -18 -14.5 -32t-33.5 -14q-20 0 -34 14zM17 472q-14 14 -14 34t14 33.5t34 13.5t34 -13.5t14 -33.5t-14 -34t-34 -14t-34 14zM167 472q-14 14 -14 34t14 33.5t34 13.5t34 -14t14 -33q0 -20 -14 -34t-34 -14t-34 14z" />
    <glyph glyph-name="uniFB65" unicode="&#x67f;" horiz-adv-x="341" arabic-form="medial" 
d="M361 41l-20 -41q-67 0 -106 17t-63 60q-22 -44 -61.5 -60.5t-110.5 -16.5l-20 41l28 41q59 0 85.5 12.5t32.5 35t6 68.5v136h77v-136q0 -44 10 -68t40 -36t90 -12zM63 549q-14 14 -14 32q0 22 14 36t34 14t34 -14t14 -36q0 -18 -14 -32t-34 -14t-34 14zM213 549
q-14 14 -14 32q0 22 14 36t34 14t34 -14.5t14 -35.5q0 -18 -14.5 -32t-33.5 -14q-20 0 -34 14zM63 407q-14 14 -14 34t14 33.5t34 13.5t34 -13.5t14 -33.5t-14 -34t-34 -14t-34 14zM213 407q-14 14 -14 34t14 33.5t34 13.5t34 -14t14 -33q0 -20 -14 -34t-34 -14t-34 14z" />
    <glyph glyph-name="uniFB67" unicode="&#x679;" horiz-adv-x="962" arabic-form="final" 
d="M982 43l-20 -43q-75 0 -116.5 19.5t-69.5 59.5q-81 -46 -184.5 -69.5t-255.5 -23.5q-105 0 -168.5 21.5t-92 66t-28.5 114.5q0 38 9.5 79.5t27.5 78.5l57 -19q-22 -66 -22 -127q0 -48 21.5 -76.5t70 -41.5t132.5 -13q130 0 234.5 22.5t167.5 57.5v185h77v-125
q0 -49 11 -75.5t42.5 -39t93.5 -12.5zM551.5 526q22.5 -25 22.5 -62q0 -33 -24.5 -59.5t-74.5 -26.5h-152l5 46h25l12 20v143h46v-80q40 44 83 44q35 0 57.5 -25zM514.5 434q14.5 10 14.5 31q0 39 -39 39q-46 0 -98 -80h75q33 0 47.5 10z" />
    <glyph glyph-name="uniFB68" unicode="&#x679;" horiz-adv-x="287" arabic-form="initial" 
d="M101 91.5q31 9.5 42.5 30.5t11.5 61q0 39 -11.5 87.5t-34.5 114.5l79 25q20 -60 31 -122.5t11 -108.5q0 -70 -20.5 -108t-69.5 -54.5t-140 -16.5l-20 41l27 41q63 0 94 9.5zM226.5 628q22.5 -25 22.5 -62q0 -33 -24.5 -59.5t-74.5 -26.5h-152l5 46h25l12 20v143h46v-80
q40 44 83 44q35 0 57.5 -25zM189.5 536q14.5 10 14.5 31q0 39 -39 39q-46 0 -98 -80h75q33 0 47.5 10z" />
    <glyph glyph-name="uniFB69" unicode="&#x679;" horiz-adv-x="341" arabic-form="medial" 
d="M361 41l-20 -41q-67 0 -106 17t-63 60q-22 -44 -61.5 -60.5t-110.5 -16.5l-20 41l28 41q59 0 85.5 12.5t32.5 35t6 68.5v136h77v-136q0 -44 10 -68t40 -36t90 -12zM272.5 563q22.5 -25 22.5 -62q0 -33 -24.5 -59.5t-74.5 -26.5h-152l5 46h25l12 20v143h46v-80
q40 44 83 44q35 0 57.5 -25zM235.5 471q14.5 10 14.5 31q0 39 -39 39q-46 0 -98 -80h75q33 0 47.5 10z" />
    <glyph glyph-name="uniFB6B" unicode="&#x6a4;" horiz-adv-x="963" arabic-form="final" 
d="M983 41l-20 -41h-46q-51 0 -103 12t-99 34q-139 -60 -379 -60q-105 0 -168.5 21.5t-92 66t-28.5 114.5q0 38 9.5 79.5t27.5 78.5l57 -19q-22 -66 -22 -127q0 -48 21.5 -76.5t69.5 -41.5t132 -13q173 0 288 28q-47 37 -73.5 83t-26.5 97q0 52 24 99t65.5 76t89.5 29
q55 0 98 -28.5t66.5 -75.5t23.5 -100q0 -50 -23 -97t-73 -86q55 -12 116 -12h51zM628.5 188q30.5 -39 83.5 -64q117 51 117 153q0 50 -33 86t-83 36q-49 0 -82 -35.5t-33 -86.5q0 -50 30.5 -89zM677 681q-14 14 -14 33t14 33t33 14t33 -14t14 -33t-14 -33t-33 -14t-33 14z
M595 562q-14 14 -14 33q0 20 14 33.5t34 13.5q19 0 33 -14t14 -33t-14 -33t-33 -14q-20 0 -34 14zM758 562q-14 14 -14 33t14 33t33 14q20 0 34 -13.5t14 -33.5q0 -19 -14 -33t-34 -14q-19 0 -33 14z" />
    <glyph glyph-name="uniFB6C" unicode="&#x6a4;" horiz-adv-x="470" arabic-form="initial" 
d="M319 530q44 -33 69 -97t25 -153q0 -111 -40.5 -171.5t-128.5 -84.5t-244 -24l-20 42l27 40q128 0 198 13.5t100.5 41.5t37.5 77q-39 -33 -118 -33q-57 0 -101 23.5t-68 65t-24 93.5q0 54 25 100t68 73t95 27q55 0 99 -33zM138.5 282q39.5 -32 114.5 -32q22 0 47.5 4.5
t45.5 11.5q0 110 -33.5 163t-92.5 53q-53 0 -87 -32.5t-34 -81.5q0 -54 39.5 -86zM187 764q-14 14 -14 33t14 33t33 14t33 -14t14 -33t-14 -33t-33 -14t-33 14zM105 645q-14 14 -14 33q0 20 14 33.5t34 13.5q19 0 33 -14t14 -33t-14 -33t-33 -14q-20 0 -34 14zM268 645
q-14 14 -14 33t14 33t33 14q20 0 34 -13.5t14 -33.5q0 -19 -14 -33t-34 -14q-19 0 -33 14z" />
    <glyph glyph-name="uniFB6D" unicode="&#x6a4;" horiz-adv-x="509" arabic-form="medial" 
d="M529 41l-20 -41h-47q-103 0 -201 45q-98 -45 -222 -45h-39l-20 41l27 41h42q71 0 129 13q-48 37 -75 83.5t-27 98.5t24 99t65.5 76t89.5 29q55 0 98 -28.5t66.5 -75.5t23.5 -100q0 -48 -26.5 -95.5t-74.5 -86.5q56 -13 120 -13h52zM175.5 187q31.5 -39 86.5 -65
q53 25 83 64t30 91q0 50 -33 86t-83 36q-49 0 -82 -35.5t-33 -86.5t31.5 -90zM223 680q-14 14 -14 33t14 33t33 14t33 -14t14 -33t-14 -33t-33 -14t-33 14zM141 561q-14 14 -14 33q0 20 14 33.5t34 13.5q19 0 33 -14t14 -33t-14 -33t-33 -14q-20 0 -34 14zM304 561
q-14 14 -14 33t14 33t33 14q20 0 34 -13.5t14 -33.5q0 -19 -14 -33t-34 -14q-19 0 -33 14z" />
    <glyph glyph-name="uniFB6F" unicode="&#x6a6;" horiz-adv-x="963" arabic-form="final" 
d="M983 41l-20 -41h-46q-51 0 -103 12t-99 34q-139 -60 -379 -60q-105 0 -168.5 21.5t-92 66t-28.5 114.5q0 38 9.5 79.5t27.5 78.5l57 -19q-22 -66 -22 -127q0 -48 21.5 -76.5t69.5 -41.5t132 -13q173 0 288 28q-47 37 -73.5 83t-26.5 97q0 52 24 99t65.5 76t89.5 29
q55 0 98 -28.5t66.5 -75.5t23.5 -100q0 -50 -23 -97t-73 -86q55 -12 116 -12h51zM628.5 188q30.5 -39 83.5 -64q117 51 117 153q0 50 -33 86t-83 36q-49 0 -82 -35.5t-33 -86.5q0 -50 30.5 -89zM602 682q-14 14 -14 32q0 22 14 36t34 14t34 -14t14 -36q0 -18 -14 -32
t-34 -14t-34 14zM752 682q-14 14 -14 32q0 22 14 36t34 14t34 -14.5t14 -35.5q0 -18 -14.5 -32t-33.5 -14q-20 0 -34 14zM602 540q-14 14 -14 34t14 33.5t34 13.5t34 -13.5t14 -33.5t-14 -34t-34 -14t-34 14zM752 540q-14 14 -14 34t14 33.5t34 13.5t34 -14t14 -33
q0 -20 -14 -34t-34 -14t-34 14z" />
    <glyph glyph-name="uniFB70" unicode="&#x6a6;" horiz-adv-x="470" arabic-form="initial" 
d="M319 530q44 -33 69 -97t25 -153q0 -111 -40.5 -171.5t-128.5 -84.5t-244 -24l-20 42l27 40q128 0 198 13.5t100.5 41.5t37.5 77q-39 -33 -118 -33q-57 0 -101 23.5t-68 65t-24 93.5q0 54 25 100t68 73t95 27q55 0 99 -33zM138.5 282q39.5 -32 114.5 -32q22 0 47.5 4.5
t45.5 11.5q0 110 -33.5 163t-92.5 53q-53 0 -87 -32.5t-34 -81.5q0 -54 39.5 -86zM112 765q-14 14 -14 32q0 22 14 36t34 14t34 -14t14 -36q0 -18 -14 -32t-34 -14t-34 14zM262 765q-14 14 -14 32q0 22 14 36t34 14t34 -14.5t14 -35.5q0 -18 -14.5 -32t-33.5 -14
q-20 0 -34 14zM112 623q-14 14 -14 34t14 33.5t34 13.5t34 -13.5t14 -33.5t-14 -34t-34 -14t-34 14zM262 623q-14 14 -14 34t14 33.5t34 13.5t34 -14t14 -33q0 -20 -14 -34t-34 -14t-34 14z" />
    <glyph glyph-name="uniFB71" unicode="&#x6a6;" horiz-adv-x="509" arabic-form="medial" 
d="M529 41l-20 -41h-47q-103 0 -201 45q-98 -45 -222 -45h-39l-20 41l27 41h42q71 0 129 13q-48 37 -75 83.5t-27 98.5t24 99t65.5 76t89.5 29q55 0 98 -28.5t66.5 -75.5t23.5 -100q0 -48 -26.5 -95.5t-74.5 -86.5q56 -13 120 -13h52zM175.5 187q31.5 -39 86.5 -65
q53 25 83 64t30 91q0 50 -33 86t-83 36q-49 0 -82 -35.5t-33 -86.5t31.5 -90zM148 681q-14 14 -14 32q0 22 14 36t34 14t34 -14t14 -36q0 -18 -14 -32t-34 -14t-34 14zM298 681q-14 14 -14 32q0 22 14 36t34 14t34 -14.5t14 -35.5q0 -18 -14.5 -32t-33.5 -14q-20 0 -34 14z
M148 539q-14 14 -14 34t14 33.5t34 13.5t34 -13.5t14 -33.5t-14 -34t-34 -14t-34 14zM298 539q-14 14 -14 34t14 33.5t34 13.5t34 -14t14 -33q0 -20 -14 -34t-34 -14t-34 14z" />
    <glyph glyph-name="uniFB73" unicode="&#x684;" horiz-adv-x="667" arabic-form="final" 
d="M262.5 140q-75.5 -39 -110.5 -94.5t-35 -120.5q0 -98 71 -151t207 -53q64 0 120 12.5t97 34.5l31 -73q-44 -27 -110 -42.5t-146 -15.5q-168 0 -252.5 74t-84.5 201q0 93 45.5 166.5t138.5 120.5t231 60q-37 16 -66 36t-34 23q-42 30 -71.5 43.5t-71.5 13.5
q-38 0 -68.5 -9.5t-60.5 -27.5l-38 71q80 49 173 49q60 0 101.5 -22.5t92.5 -66.5q53 -43 91.5 -66.5t94.5 -32.5l-9 -72l-83 -3q10 -48 28 -72t48 -32.5t83 -8.5l12 -41l-20 -41q-99 0 -151.5 46.5t-61.5 144.5q-116 -12 -191.5 -51zM328 -41q-14 14 -14 34t14 34t34 14
t34 -14t14 -34t-14 -34t-34 -14t-34 14zM329 -186q-14 14 -14 34t14 34t34 14t34 -14t14 -34q0 -19 -14 -33.5t-34 -14.5t-34 14z" />
    <glyph glyph-name="uniFB74" unicode="&#x684;" horiz-adv-x="703" arabic-form="initial" 
d="M330 445.5q40 -12.5 65.5 -31.5t61.5 -53q48 -46 91 -75t115 -48l-11 -71l-93 -8q-77 -5 -137.5 -25.5t-143.5 -57.5q-82 -38 -142.5 -57t-135.5 -19l-20 41l27 42q65 0 118.5 16t130.5 50q79 34 135.5 52.5t130.5 25.5q-40 17 -66.5 35t-59.5 46q-28 24 -48 37.5t-49 22
t-70 8.5q-59 0 -120 -37l-39 72q40 23 82 35t81 12q57 0 97 -12.5zM271 -165q-14 14 -14 34t14 34t34 14t34 -14t14 -34t-14 -34t-34 -14t-34 14zM272 -310q-14 14 -14 34t14 34t34 14t34 -14t14 -34t-14 -34t-34 -14t-34 14z" />
    <glyph glyph-name="uniFB75" unicode="&#x684;" horiz-adv-x="716" arabic-form="medial" 
d="M736 41l-20 -41q-101 0 -162 45t-72 138q-46 -11 -89 -31.5t-101 -52.5q-60 -33 -100.5 -52.5t-89.5 -33t-102 -13.5l-20 41l27 41q67 0 121.5 20t134.5 61q74 37 129 59t123 33q-41 13 -69.5 28.5t-61.5 38.5q-43 28 -74 41t-81 13q-58 0 -121 -36l-38 71q40 23 81.5 35
t78.5 12q53 0 90.5 -10t62.5 -25.5t61 -43.5q50 -40 96 -65.5t121 -44.5l-11 -71l-94 -4q-8 0 -12 -1q10 -48 32.5 -72t56 -31.5t90.5 -7.5zM360 -115q-14 14 -14 34t14 34t34 14t34 -14t14 -34t-14 -34t-34 -14t-34 14zM361 -260q-14 14 -14 34t14 34t34 14t34 -14t14 -34
t-14 -34t-34 -14t-34 14z" />
    <glyph glyph-name="uniFB77" unicode="&#x683;" horiz-adv-x="667" arabic-form="final" 
d="M262.5 140q-75.5 -39 -110.5 -94.5t-35 -120.5q0 -98 71 -151t207 -53q64 0 120 12.5t97 34.5l31 -73q-44 -27 -110 -42.5t-146 -15.5q-168 0 -252.5 74t-84.5 201q0 93 45.5 166.5t138.5 120.5t231 60q-37 16 -66 36t-34 23q-42 30 -71.5 43.5t-71.5 13.5
q-38 0 -68.5 -9.5t-60.5 -27.5l-38 71q80 49 173 49q60 0 101.5 -22.5t92.5 -66.5q53 -43 91.5 -66.5t94.5 -32.5l-9 -72l-83 -3q10 -48 28 -72t48 -32.5t83 -8.5l12 -41l-20 -41q-99 0 -151.5 46.5t-61.5 144.5q-116 -12 -191.5 -51zM250 -97q-14 14 -14 34t14 34t34 14
t34 -14t14 -34t-14 -34t-34 -14t-34 14zM401 -97q-14 14 -14 34t14 34t34 14t34 -14t14 -34t-14 -34t-34 -14t-34 14z" />
    <glyph glyph-name="uniFB78" unicode="&#x683;" horiz-adv-x="703" arabic-form="initial" 
d="M330 445.5q40 -12.5 65.5 -31.5t61.5 -53q48 -46 91 -75t115 -48l-11 -71l-93 -8q-77 -5 -137.5 -25.5t-143.5 -57.5q-82 -38 -142.5 -57t-135.5 -19l-20 41l27 42q65 0 118.5 16t130.5 50q79 34 135.5 52.5t130.5 25.5q-40 17 -66.5 35t-59.5 46q-28 24 -48 37.5t-49 22
t-70 8.5q-59 0 -120 -37l-39 72q40 23 82 35t81 12q57 0 97 -12.5zM194.5 -177q-14.5 14 -14.5 34t14 34t34 14t34 -14t14 -34t-14 -34t-34 -14q-19 0 -33.5 14zM345 -177q-14 14 -14 34t14 34t34 14t34 -14t14 -34t-14 -34t-34 -14t-34 14z" />
    <glyph glyph-name="uniFB79" unicode="&#x683;" horiz-adv-x="716" arabic-form="medial" 
d="M736 41l-20 -41q-101 0 -162 45t-72 138q-46 -11 -89 -31.5t-101 -52.5q-60 -33 -100.5 -52.5t-89.5 -33t-102 -13.5l-20 41l27 41q67 0 121.5 20t134.5 61q74 37 129 59t123 33q-41 13 -69.5 28.5t-61.5 38.5q-43 28 -74 41t-81 13q-58 0 -121 -36l-38 71q40 23 81.5 35
t78.5 12q53 0 90.5 -10t62.5 -25.5t61 -43.5q50 -40 96 -65.5t121 -44.5l-11 -71l-94 -4q-8 0 -12 -1q10 -48 32.5 -72t56 -31.5t90.5 -7.5zM283.5 -127q-14.5 14 -14.5 34t14 34t34 14t34 -14t14 -34t-14 -34t-34 -14q-19 0 -33.5 14zM434 -127q-14 14 -14 34t14 34t34 14
t34 -14t14 -34t-14 -34t-34 -14t-34 14z" />
    <glyph glyph-name="uniFB7B" unicode="&#x686;" horiz-adv-x="667" arabic-form="final" 
d="M262.5 140q-75.5 -39 -110.5 -94.5t-35 -120.5q0 -98 71 -151t207 -53q64 0 120 12.5t97 34.5l31 -73q-44 -27 -110 -42.5t-146 -15.5q-168 0 -252.5 74t-84.5 201q0 93 45.5 166.5t138.5 120.5t231 60q-37 16 -66 36t-34 23q-42 30 -71.5 43.5t-71.5 13.5
q-38 0 -68.5 -9.5t-60.5 -27.5l-38 71q80 49 173 49q60 0 101.5 -22.5t92.5 -66.5q53 -43 91.5 -66.5t94.5 -32.5l-9 -72l-83 -3q10 -48 28 -72t48 -32.5t83 -8.5l12 -41l-20 -41q-99 0 -151.5 46.5t-61.5 144.5q-116 -12 -191.5 -51zM324.5 12.5q12.5 -12.5 12.5 -29.5
t-12.5 -29.5t-29.5 -12.5q-18 0 -30.5 12.5t-12.5 29.5t12.5 29.5t30.5 12.5q17 0 29.5 -12.5zM463.5 0.5q12.5 -12.5 12.5 -29.5t-12.5 -29.5t-30.5 -12.5q-17 0 -29.5 12.5t-12.5 29.5t12.5 29.5t29.5 12.5q18 0 30.5 -12.5zM381.5 -94q12.5 -12 12.5 -30
q0 -16 -12.5 -28.5t-29.5 -12.5t-29.5 12.5t-12.5 28.5q0 18 12.5 30t29.5 12t29.5 -12z" />
    <glyph glyph-name="uniFB7C" unicode="&#x686;" horiz-adv-x="703" arabic-form="initial" 
d="M330 445.5q40 -12.5 65.5 -31.5t61.5 -53q48 -46 91 -75t115 -48l-11 -71l-93 -8q-77 -5 -137.5 -25.5t-143.5 -57.5q-82 -38 -142.5 -57t-135.5 -19l-20 41l27 42q65 0 118.5 16t130.5 50q79 34 135.5 52.5t130.5 25.5q-40 17 -66.5 35t-59.5 46q-28 24 -48 37.5t-49 22
t-70 8.5q-59 0 -120 -37l-39 72q40 23 82 35t81 12q57 0 97 -12.5zM268.5 -113.5q12.5 -12.5 12.5 -29.5t-12.5 -29.5t-29.5 -12.5q-18 0 -30.5 12.5t-12.5 29.5t12.5 29.5t30.5 12.5q17 0 29.5 -12.5zM407.5 -125.5q12.5 -12.5 12.5 -29.5t-12.5 -29.5t-30.5 -12.5
q-17 0 -29.5 12.5t-12.5 29.5t12.5 29.5t29.5 12.5q18 0 30.5 -12.5zM325.5 -220q12.5 -12 12.5 -29t-12.5 -29.5t-29.5 -12.5t-29.5 12.5t-12.5 29.5t12.5 29t29.5 12t29.5 -12z" />
    <glyph glyph-name="uniFB7D" unicode="&#x686;" horiz-adv-x="716" arabic-form="medial" 
d="M736 41l-20 -41q-101 0 -162 45t-72 138q-46 -11 -89 -31.5t-101 -52.5q-60 -33 -100.5 -52.5t-89.5 -33t-102 -13.5l-20 41l27 41q67 0 121.5 20t134.5 61q74 37 129 59t123 33q-41 13 -69.5 28.5t-61.5 38.5q-43 28 -74 41t-81 13q-58 0 -121 -36l-38 71q40 23 81.5 35
t78.5 12q53 0 90.5 -10t62.5 -25.5t61 -43.5q50 -40 96 -65.5t121 -44.5l-11 -71l-94 -4q-8 0 -12 -1q10 -48 32.5 -72t56 -31.5t90.5 -7.5zM357.5 -63.5q12.5 -12.5 12.5 -29.5t-12.5 -29.5t-29.5 -12.5q-18 0 -30.5 12.5t-12.5 29.5t12.5 29.5t30.5 12.5q17 0 29.5 -12.5z
M496.5 -75.5q12.5 -12.5 12.5 -29.5t-12.5 -29.5t-30.5 -12.5q-17 0 -29.5 12.5t-12.5 29.5t12.5 29.5t29.5 12.5q18 0 30.5 -12.5zM414.5 -170q12.5 -12 12.5 -29t-12.5 -29.5t-29.5 -12.5t-29.5 12.5t-12.5 29.5t12.5 29t29.5 12t29.5 -12z" />
    <glyph glyph-name="uniFB7F" unicode="&#x687;" horiz-adv-x="667" arabic-form="final" 
d="M262.5 140q-75.5 -39 -110.5 -94.5t-35 -120.5q0 -98 71 -151t207 -53q64 0 120 12.5t97 34.5l31 -73q-44 -27 -110 -42.5t-146 -15.5q-168 0 -252.5 74t-84.5 201q0 93 45.5 166.5t138.5 120.5t231 60q-37 16 -66 36t-34 23q-42 30 -71.5 43.5t-71.5 13.5
q-38 0 -68.5 -9.5t-60.5 -27.5l-38 71q80 49 173 49q60 0 101.5 -22.5t92.5 -66.5q53 -43 91.5 -66.5t94.5 -32.5l-9 -72l-83 -3q10 -48 28 -72t48 -32.5t83 -8.5l12 -41l-20 -41q-99 0 -151.5 46.5t-61.5 144.5q-116 -12 -191.5 -51zM252 -25.5q-14 13.5 -14 32.5
q0 22 14 36t34 14t34 -14t14 -36q0 -19 -14 -32.5t-34 -13.5t-34 13.5zM402 -25.5q-14 13.5 -14 32.5q0 22 14 36t34 14t34 -14.5t14 -35.5q0 -19 -14 -32.5t-34 -13.5t-34 13.5zM252 -167q-14 14 -14 34t14 33.5t34 13.5t34 -13.5t14 -33.5t-14 -34t-34 -14t-34 14z
M402 -167q-14 14 -14 34t14 33.5t34 13.5t34 -14t14 -33q0 -20 -14 -34t-34 -14t-34 14z" />
    <glyph glyph-name="uniFB80" unicode="&#x687;" horiz-adv-x="703" arabic-form="initial" 
d="M330 445.5q40 -12.5 65.5 -31.5t61.5 -53q48 -46 91 -75t115 -48l-11 -71l-93 -8q-77 -5 -137.5 -25.5t-143.5 -57.5q-82 -38 -142.5 -57t-135.5 -19l-20 41l27 42q65 0 118.5 16t130.5 50q79 34 135.5 52.5t130.5 25.5q-40 17 -66.5 35t-59.5 46q-28 24 -48 37.5t-49 22
t-70 8.5q-59 0 -120 -37l-39 72q40 23 82 35t81 12q57 0 97 -12.5zM194 -160.5q-14 13.5 -14 32.5q0 21 14 35t34 14t34 -14t14 -35q0 -19 -14 -32.5t-34 -13.5t-34 13.5zM344 -160.5q-14 13.5 -14 32.5q0 21 14 35t34 14t34 -14t14 -35q0 -19 -14 -32.5t-34 -13.5t-34 13.5
zM194 -303q-14 14 -14 35q0 19 14 33t34 14t34 -13.5t14 -33.5q0 -21 -14 -35t-34 -14t-34 14zM344 -303q-14 14 -14 35q0 20 14 33.5t34 13.5t34 -13.5t14 -33.5q0 -21 -14 -35t-34 -14t-34 14z" />
    <glyph glyph-name="uniFB81" unicode="&#x687;" horiz-adv-x="716" arabic-form="medial" 
d="M736 41l-20 -41q-101 0 -162 45t-72 138q-46 -11 -89 -31.5t-101 -52.5q-60 -33 -100.5 -52.5t-89.5 -33t-102 -13.5l-20 41l27 41q67 0 121.5 20t134.5 61q74 37 129 59t123 33q-41 13 -69.5 28.5t-61.5 38.5q-43 28 -74 41t-81 13q-58 0 -121 -36l-38 71q40 23 81.5 35
t78.5 12q53 0 90.5 -10t62.5 -25.5t61 -43.5q50 -40 96 -65.5t121 -44.5l-11 -71l-94 -4q-8 0 -12 -1q10 -48 32.5 -72t56 -31.5t90.5 -7.5zM283 -110.5q-14 13.5 -14 32.5q0 21 14 35t34 14t34 -14t14 -35q0 -19 -14 -32.5t-34 -13.5t-34 13.5zM433 -110.5
q-14 13.5 -14 32.5q0 21 14 35t34 14t34 -14t14 -35q0 -19 -14 -32.5t-34 -13.5t-34 13.5zM283 -253q-14 14 -14 35q0 19 14 33t34 14t34 -13.5t14 -33.5q0 -21 -14 -35t-34 -14t-34 14zM433 -253q-14 14 -14 35q0 20 14 33.5t34 13.5t34 -13.5t14 -33.5q0 -21 -14 -35
t-34 -14t-34 14z" />
    <glyph glyph-name="uniFB83" unicode="&#x68d;" horiz-adv-x="529" arabic-form="final" 
d="M549 41l-20 -41q-47 0 -83.5 23t-56.5 62q-28 -49 -80 -74t-126 -25q-81 0 -158 22l25 81q37 -9 68.5 -14t70.5 -5q106 0 174 66l-152 346l81 39l126 -323q18 -46 32 -69.5t34 -35t52 -11.5zM100.5 -177q-14.5 14 -14.5 34t14 34t34 14t34 -14t14 -34t-14 -34t-34 -14
q-19 0 -33.5 14zM251 -177q-14 14 -14 34t14 34t34 14t34 -14t14 -34t-14 -34t-34 -14t-34 14z" />
    <glyph glyph-name="uniFB85" unicode="&#x68c;" horiz-adv-x="529" arabic-form="final" 
d="M549 41l-20 -41q-47 0 -83.5 23t-56.5 62q-28 -49 -80 -74t-126 -25q-81 0 -158 22l25 81q37 -9 68.5 -14t70.5 -5q106 0 174 66l-152 346l81 39l126 -323q18 -46 32 -69.5t34 -35t52 -11.5zM98 628q-14 14 -14 34t14.5 34t33.5 14q20 0 34 -14t14 -34t-14 -34t-34 -14
t-34 14zM249 628q-14 14 -14 34t14 34t34 14t34 -14t14 -34t-14 -34t-34 -14t-34 14z" />
    <glyph glyph-name="uniFB87" unicode="&#x68e;" horiz-adv-x="529" arabic-form="final" 
d="M549 41l-20 -41q-47 0 -83.5 23t-56.5 62q-28 -49 -80 -74t-126 -25q-81 0 -158 22l25 81q37 -9 68.5 -14t70.5 -5q106 0 174 66l-152 346l81 39l126 -323q18 -46 32 -69.5t34 -35t52 -11.5zM175 721q-14 14 -14 33t14 33t33 14t33 -14t14 -33t-14 -33t-33 -14t-33 14z
M93 602q-14 14 -14 33q0 20 14 33.5t34 13.5q19 0 33 -14t14 -33t-14 -33t-33 -14q-20 0 -34 14zM256 602q-14 14 -14 33t14 33t33 14q20 0 34 -13.5t14 -33.5q0 -19 -14 -33t-34 -14q-19 0 -33 14z" />
    <glyph glyph-name="uniFB89" unicode="&#x688;" horiz-adv-x="529" arabic-form="final" 
d="M549 41l-20 -41q-47 0 -83.5 23t-56.5 62q-28 -49 -80 -74t-126 -25q-81 0 -158 22l25 81q37 -9 68.5 -14t70.5 -5q106 0 174 66l-152 346l81 39l126 -323q18 -46 32 -69.5t34 -35t52 -11.5zM309.5 736q22.5 -25 22.5 -62q0 -33 -24.5 -59.5t-74.5 -26.5h-152l5 46h25
l12 20v143h46v-80q40 44 83 44q35 0 57.5 -25zM272.5 644q14.5 10 14.5 31q0 39 -39 39q-46 0 -98 -80h75q33 0 47.5 10z" />
    <glyph glyph-name="uniFB8B" unicode="&#x698;" horiz-adv-x="406" arabic-form="final" 
d="M426 41l-20 -41q-42 0 -67.5 12.5t-40.5 37.5q-22 -223 -294 -300l-33 79q137 39 200 105.5t63 147.5q0 47 -19.5 107.5t-53.5 133.5l86 28q13 -37 38 -133q19 -77 46.5 -106.5t81.5 -29.5zM150 574q-14 14 -14 33t14 33t33 14t33 -14t14 -33t-14 -33t-33 -14t-33 14z
M68 455q-14 14 -14 33q0 20 14 33.5t34 13.5q19 0 33 -14t14 -33t-14 -33t-33 -14q-20 0 -34 14zM231 455q-14 14 -14 33t14 33t33 14q20 0 34 -13.5t14 -33.5q0 -19 -14 -33t-34 -14q-19 0 -33 14z" />
    <glyph glyph-name="uniFB8D" unicode="&#x691;" horiz-adv-x="406" arabic-form="final" 
d="M426 41l-20 -41q-42 0 -67.5 12.5t-40.5 37.5q-22 -223 -294 -300l-33 79q137 39 200 105.5t63 147.5q0 47 -19.5 107.5t-53.5 133.5l86 28q13 -37 38 -133q19 -77 46.5 -106.5t81.5 -29.5zM284.5 589q22.5 -25 22.5 -62q0 -33 -24.5 -59.5t-74.5 -26.5h-152l5 46h25
l12 20v143h46v-80q40 44 83 44q35 0 57.5 -25zM247.5 497q14.5 10 14.5 31q0 39 -39 39q-46 0 -98 -80h75q33 0 47.5 10z" />
    <glyph glyph-name="uniFB8F" unicode="&#x6a9;" horiz-adv-x="995" arabic-form="final" 
d="M1015 43l-20 -43q-60 0 -105.5 15t-88.5 53.5t-91 107.5q-2 -87 -88.5 -138.5t-285.5 -51.5q-105 0 -168.5 21.5t-92 66t-28.5 114.5q0 38 9.5 79.5t27.5 78.5l57 -19q-22 -66 -22 -127q0 -48 21.5 -76.5t70 -41.5t132.5 -13q172 0 237.5 33.5t65.5 93.5q0 62 -65 144
l-84 105l17 74l399 248l-5 -87l-339 -205l179 -225q62 -79 95.5 -111.5t67 -44.5t91.5 -12z" />
    <glyph glyph-name="uniFB90" unicode="&#x6a9;" horiz-adv-x="464" arabic-form="initial" 
d="M413 680l-327 -198q107 -47 165.5 -89t80.5 -84t22 -95q0 -105 -89 -159.5t-265 -54.5l-20 41l27 41q152 0 213.5 36t61.5 105q0 34 -22 64.5t-83.5 68.5t-175.5 86l17 78l400 247z" />
    <glyph glyph-name="uniFB91" unicode="&#x6a9;" horiz-adv-x="548" arabic-form="medial" 
d="M568 43l-20 -43q-60 0 -105.5 15t-88 53t-90.5 107q-2 -79 -71 -127t-193 -48l-20 41l27 41q97 0 144.5 30t47.5 84q0 62 -65 144l-84 105l17 74l399 248l-4 -87l-340 -205l180 -225q62 -79 95 -111.5t66.5 -44.5t91.5 -12z" />
    <glyph glyph-name="uniFB93" unicode="&#x6af;" horiz-adv-x="995" arabic-form="final" 
d="M908 819l-391 -241l16 67l379 236zM1015 43l-20 -43q-60 0 -105.5 15t-88.5 53.5t-91 107.5q-2 -87 -88.5 -138.5t-285.5 -51.5q-105 0 -168.5 21.5t-92 66t-28.5 114.5q0 38 9.5 79.5t27.5 78.5l57 -19q-22 -66 -22 -127q0 -48 21.5 -76.5t70 -41.5t132.5 -13
q172 0 237.5 33.5t65.5 93.5q0 62 -65 144l-84 105l17 74l399 248l-5 -87l-339 -205l179 -225q62 -79 95.5 -111.5t67 -44.5t91.5 -12z" />
    <glyph glyph-name="uniFB94" unicode="&#x6af;" horiz-adv-x="464" arabic-form="initial" 
d="M409 819l-391 -241l16 67l379 236zM413 680l-327 -198q107 -47 165.5 -89t80.5 -84t22 -95q0 -105 -89 -159.5t-265 -54.5l-20 41l27 41q152 0 213.5 36t61.5 105q0 34 -22 64.5t-83.5 68.5t-175.5 86l17 78l400 247z" />
    <glyph glyph-name="uniFB95" unicode="&#x6af;" horiz-adv-x="548" arabic-form="medial" 
d="M453 819l-391 -241l16 67l379 236zM568 43l-20 -43q-60 0 -105.5 15t-88 53t-90.5 107q-2 -79 -71 -127t-193 -48l-20 41l27 41q97 0 144.5 30t47.5 84q0 62 -65 144l-84 105l17 74l399 248l-4 -87l-340 -205l180 -225q62 -79 95 -111.5t66.5 -44.5t91.5 -12z" />
    <glyph glyph-name="uniFB97" unicode="&#x6b3;" horiz-adv-x="994" arabic-form="final" 
d="M908 819l-391 -241l16 67l379 236zM1015 43l-20 -43q-60 0 -105.5 15t-88.5 53.5t-91 107.5q-2 -87 -88.5 -138.5t-285.5 -51.5q-105 0 -168.5 21.5t-92 66t-28.5 114.5q0 38 9.5 79.5t27.5 78.5l57 -19q-22 -66 -22 -127q0 -48 21.5 -76.5t70 -41.5t132.5 -13
q172 0 237.5 33.5t65.5 93.5q0 62 -65 144l-84 105l17 74l399 248l-5 -87l-339 -205l179 -225q62 -79 95.5 -111.5t67 -44.5t91.5 -12zM344 -165q-14 14 -14 34t14 34t34 14t34 -14t14 -34t-14 -34t-34 -14t-34 14zM345 -310q-14 14 -14 34t14 34t34 14t34 -14t14 -34
t-14 -34t-34 -14t-34 14z" />
    <glyph glyph-name="uniFB98" unicode="&#x6b3;" horiz-adv-x="464" arabic-form="initial" 
d="M409 819l-391 -241l16 67l379 236zM413 680l-327 -198q107 -47 165.5 -89t80.5 -84t22 -95q0 -105 -89 -159.5t-265 -54.5l-20 41l27 41q152 0 213.5 36t61.5 105q0 34 -22 64.5t-83.5 68.5t-175.5 86l17 78l400 247zM82 -165q-14 14 -14 34t14 34t34 14t34 -14t14 -34
t-14 -34t-34 -14t-34 14zM83 -310q-14 14 -14 34t14 34t34 14t34 -14t14 -34t-14 -34t-34 -14t-34 14z" />
    <glyph glyph-name="uniFB99" unicode="&#x6b3;" horiz-adv-x="548" arabic-form="medial" 
d="M453 819l-391 -241l16 67l379 236zM568 43l-20 -43q-60 0 -105.5 15t-88 53t-90.5 107q-2 -79 -71 -127t-193 -48l-20 41l27 41q97 0 144.5 30t47.5 84q0 62 -65 144l-84 105l17 74l399 248l-4 -87l-340 -205l180 -225q62 -79 95 -111.5t66.5 -44.5t91.5 -12zM252 -165
q-14 14 -14 34t14 34t34 14t34 -14t14 -34t-14 -34t-34 -14t-34 14zM253 -310q-14 14 -14 34t14 34t34 14t34 -14t14 -34t-14 -34t-34 -14t-34 14z" />
    <glyph glyph-name="uniFB9B" unicode="&#x6b1;" horiz-adv-x="994" arabic-form="final" 
d="M908 819l-391 -241l16 67l379 236zM1015 43l-20 -43q-60 0 -105.5 15t-88.5 53.5t-91 107.5q-2 -87 -88.5 -138.5t-285.5 -51.5q-105 0 -168.5 21.5t-92 66t-28.5 114.5q0 38 9.5 79.5t27.5 78.5l57 -19q-22 -66 -22 -127q0 -48 21.5 -76.5t70 -41.5t132.5 -13
q172 0 237.5 33.5t65.5 93.5q0 62 -65 144l-84 105l17 74l399 248l-5 -87l-339 -205l179 -225q62 -79 95.5 -111.5t67 -44.5t91.5 -12zM430 804q-14 14 -14 34t14.5 34t33.5 14q20 0 34 -14t14 -34t-14 -34t-34 -14t-34 14zM581 804q-14 14 -14 34t14 34t34 14t34 -14
t14 -34t-14 -34t-34 -14t-34 14z" />
    <glyph glyph-name="uniFB9C" unicode="&#x6b1;" horiz-adv-x="464" arabic-form="initial" 
d="M409 819l-391 -241l16 67l379 236zM413 680l-327 -198q107 -47 165.5 -89t80.5 -84t22 -95q0 -105 -89 -159.5t-265 -54.5l-20 41l27 41q152 0 213.5 36t61.5 105q0 34 -22 64.5t-83.5 68.5t-175.5 86l17 78l400 247zM-67 804q-14 14 -14 34t14.5 34t33.5 14q20 0 34 -14
t14 -34t-14 -34t-34 -14t-34 14zM84 804q-14 14 -14 34t14 34t34 14t34 -14t14 -34t-14 -34t-34 -14t-34 14z" />
    <glyph glyph-name="uniFB9D" unicode="&#x6b1;" horiz-adv-x="548" arabic-form="medial" 
d="M453 819l-391 -241l16 67l379 236zM568 43l-20 -43q-60 0 -105.5 15t-88 53t-90.5 107q-2 -79 -71 -127t-193 -48l-20 41l27 41q97 0 144.5 30t47.5 84q0 62 -65 144l-84 105l17 74l399 248l-4 -87l-340 -205l180 -225q62 -79 95 -111.5t66.5 -44.5t91.5 -12zM-21 804
q-14 14 -14 34t14.5 34t33.5 14q20 0 34 -14t14 -34t-14 -34t-34 -14t-34 14zM130 804q-14 14 -14 34t14 34t34 14t34 -14t14 -34t-14 -34t-34 -14t-34 14z" />
    <glyph glyph-name="uniFB9F" unicode="&#x6ba;" horiz-adv-x="731" arabic-form="final" 
d="M731 0q-70 0 -111 38q-3 -108 -39 -173t-103 -93t-170 -28q-134 0 -197.5 65t-63.5 179q0 97 46 193l57 -17q-28 -80 -28 -164q0 -80 45.5 -127t148.5 -47q85 0 135 22.5t72.5 71t22.5 130.5q0 56 -15 108t-49 129l84 34q12 -44 22 -73l13 -42q22 -72 53 -98t84 -26
l13 -41z" />
    <glyph glyph-name="uniFBA1" unicode="&#x6bb;" horiz-adv-x="731" arabic-form="final" 
d="M731 0q-70 0 -111 38q-3 -108 -39 -173t-103 -93t-170 -28q-134 0 -197.5 65t-63.5 179q0 97 46 193l57 -17q-28 -80 -28 -164q0 -80 45.5 -127t148.5 -47q85 0 135 22.5t72.5 71t22.5 130.5q0 56 -15 108t-49 129l84 34q12 -44 22 -73l13 -42q22 -72 53 -98t84 -26
l13 -41zM416.5 477q22.5 -25 22.5 -62q0 -33 -24.5 -59.5t-74.5 -26.5h-152l5 46h25l12 20v143h46v-80q40 44 83 44q35 0 57.5 -25zM379.5 385q14.5 10 14.5 31q0 39 -39 39q-46 0 -98 -80h75q33 0 47.5 10z" />
    <glyph glyph-name="uniFBA2" unicode="&#x6bb;" horiz-adv-x="287" arabic-form="initial" 
d="M101 91.5q31 9.5 42.5 30.5t11.5 61q0 39 -11.5 87.5t-34.5 114.5l79 25q20 -60 31 -122.5t11 -108.5q0 -70 -20.5 -108t-69.5 -54.5t-140 -16.5l-20 41l27 41q63 0 94 9.5zM226.5 628q22.5 -25 22.5 -62q0 -33 -24.5 -59.5t-74.5 -26.5h-152l5 46h25l12 20v143h46v-80
q40 44 83 44q35 0 57.5 -25zM189.5 536q14.5 10 14.5 31q0 39 -39 39q-46 0 -98 -80h75q33 0 47.5 10z" />
    <glyph glyph-name="uniFBA3" unicode="&#x6bb;" horiz-adv-x="341" arabic-form="medial" 
d="M361 41l-20 -41q-67 0 -106 17t-63 60q-22 -44 -61.5 -60.5t-110.5 -16.5l-20 41l28 41q59 0 85.5 12.5t32.5 35t6 68.5v136h77v-136q0 -44 10 -68t40 -36t90 -12zM272.5 563q22.5 -25 22.5 -62q0 -33 -24.5 -59.5t-74.5 -26.5h-152l5 46h25l12 20v143h46v-80
q40 44 83 44q35 0 57.5 -25zM235.5 471q14.5 10 14.5 31q0 39 -39 39q-46 0 -98 -80h75q33 0 47.5 10z" />
    <glyph glyph-name="uniFBA5" unicode="&#x6c0;" horiz-adv-x="510" arabic-form="final" 
d="M530 40l-20 -40h-19q-52 0 -89.5 25t-55.5 78q-26 -31 -67 -49.5t-85 -18.5q-76 0 -122.5 41.5t-46.5 108.5q0 56 37 104.5t107.5 80.5t167.5 38v98l77 9v-318q0 -65 21 -90t64 -25h18zM279.5 127.5q33.5 15.5 57.5 41.5v164q-80 -3 -133.5 -23t-79.5 -50.5t-26 -66.5
q0 -38 26.5 -59.5t81.5 -21.5q40 0 73.5 15.5zM482 604l-209 -34l-6 46l65 11q-44 38 -44 73q0 38 26.5 63t76.5 25q33 0 74 -22l-28 -45q-27 16 -52 16t-35.5 -11.5t-10.5 -27.5q0 -28 44 -63l93 16z" />
    <glyph glyph-name="uniFBA7" unicode="&#x6c1;" horiz-adv-x="592" arabic-form="final" 
d="M25 -28q79 327 245 327q40 0 67 -13.5t44.5 -34t39.5 -55.5q24 -38 43.5 -60.5t52.5 -38t82 -15.5l13 -41l-20 -41q-69 0 -115.5 21.5t-72.5 51t-53 73.5q-25 38 -40.5 54.5t-40.5 16.5q-55 0 -93.5 -66.5t-72.5 -194.5z" />
    <glyph glyph-name="uniFBA8" unicode="&#x6c1;" horiz-adv-x="287" arabic-form="initial" 
d="M101 91.5q31 9.5 42.5 30.5t11.5 61q0 39 -11.5 87.5t-34.5 114.5l79 25q20 -60 31 -122.5t11 -108.5q0 -70 -20.5 -108t-69.5 -54.5t-140 -16.5l-20 41l27 41q63 0 94 9.5zM87.5 -234q-14.5 14 -14.5 40q0 25 19 71l29 71h31l-15 -100q37 -8 37 -49q0 -20 -14 -33.5
t-35 -13.5q-23 0 -37.5 14z" />
    <glyph glyph-name="uniFBA9" unicode="&#x6c1;" horiz-adv-x="583" arabic-form="medial" 
d="M603 41l-20 -41h-28q-75 0 -117 -40.5t-42 -125.5q0 -55 14 -119l-70 -23q-155 171 -155 377q-55 -69 -156 -69h-29l-20 41l27 41h31q66 0 109 52t77 168l10 33l71 -19q-41 -153 -41 -231q0 -73 14.5 -130t54.5 -129q-1 11 -1 31q0 113 60 169t173 56h25z" />
    <glyph glyph-name="uniFBAB" unicode="&#x6be;" horiz-adv-x="581" arabic-form="final" 
d="M581 0h-118q71 -47 71 -135q0 -61 -37.5 -98.5t-100.5 -37.5q-62 0 -113 34.5t-82.5 96.5t-35.5 141q-86 3 -138 32l37 72q40 -19 100 -22q4 97 38 177.5t87.5 127t114.5 46.5q64 0 100.5 -41t36.5 -118q0 -50 -26.5 -104.5t-73.5 -88.5h147l13 -41zM317.5 318
q-36.5 -34 -61.5 -95.5t-31 -140.5h55q54 0 97.5 26.5t67.5 69t24 88.5q0 41 -20 63.5t-57 22.5q-38 0 -74.5 -34zM445.5 -167.5q19.5 20.5 19.5 51.5q0 53 -41.5 84.5t-110.5 31.5h-88q8 -88 53 -138t110 -50q38 0 57.5 20.5z" />
    <glyph glyph-name="uniFBAC" unicode="&#x6be;" horiz-adv-x="639" arabic-form="initial" 
d="M423 378.5q87 -58.5 123 -105t36 -104.5q0 -48 -23.5 -90t-61.5 -67.5t-81 -25.5q-105 0 -194 49q-84 -35 -194 -35h-28l-20 41l27 41h17q60 0 120 10q-39 38 -60.5 84.5t-21.5 96.5q0 58 29.5 103t78.5 63l-70 39l42 72q194 -113 281 -171.5zM150 187q29 -40 79 -68
q51 24 78 61.5t27 87.5q0 51 -31.5 85t-76.5 34t-75 -33t-30 -84q0 -43 29 -83zM489 92q29 23 29 59q0 35 -29 71t-101 85q4 -16 4 -34q0 -55 -22 -103t-65 -84q54 -17 111 -17q44 0 73 23z" />
    <glyph glyph-name="uniFBAD" unicode="&#x6be;" horiz-adv-x="481" arabic-form="medial" 
d="M481 0h-118q71 -47 71 -135q0 -61 -37 -98.5t-100 -37.5q-62 0 -113 34.5t-82.5 96t-35.5 140.5h-66l-20 41l27 41h58q4 97 38 177.5t87.5 127.5t114.5 47q63 0 100 -41t37 -118q0 -50 -27 -104.5t-74 -88.5h147l13 -41zM218.5 318q-36.5 -34 -61.5 -95.5t-31 -140.5h55
q54 0 97 26.5t67 69t24 88.5q0 42 -19.5 64t-56.5 22q-38 0 -74.5 -34zM345.5 -167.5q19.5 20.5 19.5 51.5q0 53 -41.5 84.5t-109.5 31.5h-88q8 -88 52.5 -138t109.5 -50q38 0 57.5 20.5z" />
    <glyph glyph-name="uniFBAF" unicode="&#x6d2;" horiz-adv-x="771" arabic-form="final" 
d="M211 -270q-88 0 -133.5 35t-45.5 88q0 57 37 109.5t114.5 86.5t191.5 34h403l13 -42l-20 -41h-413q-87 0 -144.5 -19.5t-84.5 -50.5t-27 -65q0 -53 90 -53h566l-27 -82h-520z" />
    <glyph glyph-name="uniFBB1" unicode="&#x6d3;" horiz-adv-x="771" arabic-form="final" 
d="M211 -270q-88 0 -133.5 35t-45.5 88q0 57 37 109.5t114.5 86.5t191.5 34h403l13 -42l-20 -41h-413q-87 0 -144.5 -19.5t-84.5 -50.5t-27 -65q0 -53 90 -53h566l-27 -82h-520zM359 216l-209 -34l-6 46l65 11q-44 38 -44 73q0 38 26.5 63t76.5 25q33 0 74 -22l-28 -45
q-27 16 -52 16t-35.5 -11.5t-10.5 -27.5q0 -28 44 -63l93 16z" />
    <glyph glyph-name="uniFBD4" unicode="&#x6ad;" horiz-adv-x="834" arabic-form="final" 
d="M854 43l-20 -43q-48 0 -79 19t-57 58q-69 -46 -154.5 -68.5t-207.5 -22.5q-105 0 -168.5 21.5t-92 66t-28.5 114.5q0 38 9.5 79.5t27.5 78.5l57 -19q-22 -66 -22 -127q0 -48 21.5 -76.5t70 -41.5t132.5 -13q99 0 180.5 21t142.5 59v607l77 10v-577q0 -55 20 -81t78 -26z
M436 359q0 16 -23 27.5t-91 25.5l10 55l165 97l-4 -59l-105 -60q55 -16 78 -36t23 -50q0 -49 -54.5 -68.5t-134.5 -19.5l-8 52q144 0 144 36zM671 967q-14 14 -14 33t14 33t33 14t33 -14t14 -33t-14 -33t-33 -14t-33 14zM589 848q-14 14 -14 33q0 20 14 33.5t34 13.5
q19 0 33 -14t14 -33t-14 -33t-33 -14q-20 0 -34 14zM752 848q-14 14 -14 33t14 33t33 14q20 0 34 -13.5t14 -33.5q0 -19 -14 -33t-34 -14q-19 0 -33 14z" />
    <glyph glyph-name="uniFBD5" unicode="&#x6ad;" horiz-adv-x="464" arabic-form="initial" 
d="M413 680l-327 -198q107 -47 165.5 -89t80.5 -84t22 -95q0 -105 -89 -159.5t-265 -54.5l-20 41l27 41q152 0 213.5 36t61.5 105q0 34 -22 64.5t-83.5 68.5t-175.5 86l17 78l400 247zM23 829q-14 14 -14 33t14 33t33 14t33 -14t14 -33t-14 -33t-33 -14t-33 14zM-59 710
q-14 14 -14 33q0 20 14 33.5t34 13.5q19 0 33 -14t14 -33t-14 -33t-33 -14q-20 0 -34 14zM104 710q-14 14 -14 33t14 33t33 14q20 0 34 -13.5t14 -33.5q0 -19 -14 -33t-34 -14q-19 0 -33 14z" />
    <glyph glyph-name="uniFBD6" unicode="&#x6ad;" horiz-adv-x="548" arabic-form="medial" 
d="M568 43l-20 -43q-60 0 -105.5 15t-88 53t-90.5 107q-2 -79 -71 -127t-193 -48l-20 41l27 41q97 0 144.5 30t47.5 84q0 62 -65 144l-84 105l17 74l399 248l-4 -87l-340 -205l180 -225q62 -79 95 -111.5t66.5 -44.5t91.5 -12zM65 829q-14 14 -14 33t14 33t33 14t33 -14
t14 -33t-14 -33t-33 -14t-33 14zM-17 710q-14 14 -14 33q0 20 14 33.5t34 13.5q19 0 33 -14t14 -33t-14 -33t-33 -14q-20 0 -34 14zM146 710q-14 14 -14 33t14 33t33 14q20 0 34 -13.5t14 -33.5q0 -19 -14 -33t-34 -14q-19 0 -33 14z" />
    <glyph glyph-name="uniFBD8" unicode="&#x6c7;" horiz-adv-x="536" arabic-form="final" 
d="M536 0h-104q-25 -105 -109.5 -170.5t-250.5 -99.5l-25 79q140 30 214 76t99 115h-78q-104 0 -161 51.5t-57 133.5q0 53 25 99t68 73t95 27q55 0 98.5 -32.5t68 -94t24.5 -145.5q0 -20 -1 -30h102l12 -40zM376 82v17q0 101 -33 152t-92 51q-52 0 -85.5 -32.5t-33.5 -80.5
q0 -107 157 -107h87zM326.5 641.5q20.5 -24.5 20.5 -60.5q0 -46 -40.5 -90.5t-119.5 -73.5l-21 43q43 13 82 39q-66 27 -66 81q0 40 25 63t60 23q39 0 59.5 -24.5zM241.5 552.5q12.5 -11.5 42.5 -20.5q18 23 18 45q0 16 -9.5 26.5t-26.5 10.5q-16 0 -26.5 -9t-10.5 -26
q0 -15 12.5 -26.5z" />
    <glyph glyph-name="uniFBDA" unicode="&#x6c6;" horiz-adv-x="536" arabic-form="final" 
d="M536 0h-104q-25 -105 -109.5 -170.5t-250.5 -99.5l-25 79q140 30 214 76t99 115h-78q-104 0 -161 51.5t-57 133.5q0 53 25 99t68 73t95 27q55 0 98.5 -32.5t68 -94t24.5 -145.5q0 -20 -1 -30h102l12 -40zM376 82v17q0 101 -33 152t-92 51q-52 0 -85.5 -32.5t-33.5 -80.5
q0 -107 157 -107h87zM255 486l58 98l41 -16l-78 -142h-44l-76 142l41 16z" />
    <glyph glyph-name="uniFBDC" unicode="&#x6c8;" horiz-adv-x="536" arabic-form="final" 
d="M536 0h-104q-25 -105 -109.5 -170.5t-250.5 -99.5l-25 79q140 30 214 76t99 115h-78q-104 0 -161 51.5t-57 133.5q0 53 25 99t68 73t95 27q55 0 98.5 -32.5t68 -94t24.5 -145.5q0 -20 -1 -30h102l12 -40zM376 82v17q0 101 -33 152t-92 51q-52 0 -85.5 -32.5t-33.5 -80.5
q0 -107 157 -107h87zM281 616v-179h-53v173z" />
    <glyph glyph-name="uniFBDF" unicode="&#x6cb;" horiz-adv-x="536" arabic-form="final" 
d="M536 0h-104q-25 -105 -109.5 -170.5t-250.5 -99.5l-25 79q140 30 214 76t99 115h-78q-104 0 -161 51.5t-57 133.5q0 53 25 99t68 73t95 27q55 0 98.5 -32.5t68 -94t24.5 -145.5q0 -20 -1 -30h102l12 -40zM376 82v17q0 101 -33 152t-92 51q-52 0 -85.5 -32.5t-33.5 -80.5
q0 -107 157 -107h87zM222 585q-14 14 -14 33t14 33t33 14t33 -14t14 -33t-14 -33t-33 -14t-33 14zM140 466q-14 14 -14 33q0 20 14 33.5t34 13.5q19 0 33 -14t14 -33t-14 -33t-33 -14q-20 0 -34 14zM303 466q-14 14 -14 33t14 33t33 14q20 0 34 -13.5t14 -33.5
q0 -19 -14 -33t-34 -14q-19 0 -33 14z" />
    <glyph glyph-name="uniFBE1" unicode="&#x6c5;" horiz-adv-x="536" arabic-form="final" 
d="M536 0h-104q-25 -105 -109.5 -170.5t-250.5 -99.5l-25 79q134 28 209 73l-178 4l-30 50l264 -12q33 35 48 76h-78q-104 0 -161 51.5t-57 133.5q0 53 25 99t68 73t95 27q55 0 98.5 -32.5t68 -94t24.5 -145.5q0 -20 -1 -30h102l12 -40zM376 82v17q0 101 -33 152t-92 51
q-52 0 -85.5 -32.5t-33.5 -80.5q0 -107 157 -107h87z" />
    <glyph glyph-name="uniFBE3" unicode="&#x6c9;" horiz-adv-x="536" arabic-form="final" 
d="M536 0h-104q-25 -105 -109.5 -170.5t-250.5 -99.5l-25 79q140 30 214 76t99 115h-78q-104 0 -161 51.5t-57 133.5q0 53 25 99t68 73t95 27q55 0 98.5 -32.5t68 -94t24.5 -145.5q0 -20 -1 -30h102l12 -40zM376 82v17q0 101 -33 152t-92 51q-52 0 -85.5 -32.5t-33.5 -80.5
q0 -107 157 -107h87zM156 466l76 141h44l78 -141l-41 -17l-58 98l-58 -98z" />
    <glyph glyph-name="uniFBE5" unicode="&#x6d0;" horiz-adv-x="734" arabic-form="final" 
d="M734 0q-49 0 -87 18q7 -21 7 -36q0 -51 -39.5 -95.5t-117.5 -72t-189 -27.5q-134 0 -197.5 65t-63.5 179q0 99 46 193l57 -17q-28 -78 -28 -164q0 -80 45.5 -126.5t148.5 -46.5q84 0 145 18.5t92 46t31 53.5q0 19 -15 33.5t-52 29.5t-106 35l36 72q23 -7 86 -29
q71 -25 115 -36t93 -11l13 -41zM282 -364q-14 14 -14 34t14 34t34 14t34 -14t14 -34t-14 -34t-34 -14t-34 14zM283 -509q-14 14 -14 34t14 34t34 14t34 -14t14 -34t-14 -34t-34 -14t-34 14z" />
    <glyph glyph-name="uniFBE6" unicode="&#x6d0;" horiz-adv-x="287" arabic-form="initial" 
d="M101 91.5q31 9.5 42.5 30.5t11.5 61q0 39 -11.5 87.5t-34.5 114.5l79 25q20 -60 31 -122.5t11 -108.5q0 -70 -20.5 -108t-69.5 -54.5t-140 -16.5l-20 41l27 41q63 0 94 9.5zM103 -165q-14 14 -14 34t14 34t34 14t34 -14t14 -34t-14 -34t-34 -14t-34 14zM104 -310
q-14 14 -14 34t14 34t34 14t34 -14t14 -34t-14 -34t-34 -14t-34 14z" />
    <glyph glyph-name="uniFBE7" unicode="&#x6d0;" horiz-adv-x="341" arabic-form="medial" 
d="M361 41l-20 -41q-67 0 -106 17t-63 60q-22 -44 -61.5 -60.5t-110.5 -16.5l-20 41l28 41q59 0 85.5 12.5t32.5 35t6 68.5v136h77v-136q0 -44 10 -68t40 -36t90 -12zM137 -165q-14 14 -14 34t14 34t34 14t34 -14t14 -34t-14 -34t-34 -14t-34 14zM138 -310q-14 14 -14 34
t14 34t34 14t34 -14t14 -34t-14 -34t-34 -14t-34 14z" />
    <glyph glyph-name="uniFBE8" unicode="&#x649;" horiz-adv-x="287" arabic-form="initial" 
d="M101 91.5q31 9.5 42.5 30.5t11.5 61q0 39 -11.5 87.5t-34.5 114.5l79 25q20 -60 31 -122.5t11 -108.5q0 -70 -20.5 -108t-69.5 -54.5t-140 -16.5l-20 41l27 41q63 0 94 9.5z" />
    <glyph glyph-name="uniFBE9" unicode="&#x649;" horiz-adv-x="341" arabic-form="medial" 
d="M361 41l-20 -41q-67 0 -106 17t-63 60q-22 -44 -61.5 -60.5t-110.5 -16.5l-20 41l28 41q59 0 85.5 12.5t32.5 35t6 68.5v136h77v-136q0 -44 10 -68t40 -36t90 -12z" />
    <glyph glyph-name="uniFBFD" unicode="&#x6cc;" horiz-adv-x="734" arabic-form="final" 
d="M734 0q-49 0 -87 18q7 -21 7 -36q0 -51 -39.5 -95.5t-117.5 -72t-189 -27.5q-134 0 -197.5 65t-63.5 179q0 99 46 193l57 -17q-28 -78 -28 -164q0 -80 45.5 -126.5t148.5 -46.5q84 0 145 18.5t92 46t31 53.5q0 19 -15 33.5t-52 29.5t-106 35l36 72q23 -7 86 -29
q71 -25 115 -36t93 -11l13 -41z" />
    <glyph glyph-name="uniFBFE" unicode="&#x6cc;" horiz-adv-x="287" arabic-form="initial" 
d="M101 91.5q31 9.5 42.5 30.5t11.5 61q0 39 -11.5 87.5t-34.5 114.5l79 25q20 -60 31 -122.5t11 -108.5q0 -70 -20.5 -108t-69.5 -54.5t-140 -16.5l-20 41l27 41q63 0 94 9.5zM27.5 -177q-14.5 14 -14.5 34t14 34t34 14t34 -14t14 -34t-14 -34t-34 -14q-19 0 -33.5 14z
M178 -177q-14 14 -14 34t14 34t34 14t34 -14t14 -34t-14 -34t-34 -14t-34 14z" />
    <glyph glyph-name="uniFBFF" unicode="&#x6cc;" horiz-adv-x="341" arabic-form="medial" 
d="M361 41l-20 -41q-67 0 -106 17t-63 60q-22 -44 -61.5 -60.5t-110.5 -16.5l-20 41l28 41q59 0 85.5 12.5t32.5 35t6 68.5v136h77v-136q0 -44 10 -68t40 -36t90 -12zM61.5 -177q-14.5 14 -14.5 34t14 34t34 14t34 -14t14 -34t-14 -34t-34 -14q-19 0 -33.5 14zM212 -177
q-14 14 -14 34t14 34t34 14t34 -14t14 -34t-14 -34t-34 -14t-34 14z" />
    <glyph glyph-name="uniFC5B" unicode="&#xfc5b;" horiz-adv-x="475" arabic-form="isolated" 
d="M25 7l25 81q67 -18 136 -18q63 0 118 22t55 66q0 70 -59.5 154t-135.5 157l61 54q82 -79 142.5 -173.5t60.5 -191.5q0 -64 -40.5 -102.5t-96 -54t-105.5 -15.5q-94 0 -161 21zM127.5 599q-14.5 15 -14.5 36q0 22 14.5 36.5t36.5 14.5t36.5 -14.5t14.5 -36.5
q0 -21 -14.5 -36t-36.5 -15t-36.5 15zM191 935v-179h-53v173z" />
    <glyph glyph-name="uniFC5C" unicode="&#xfc5c;" horiz-adv-x="359" arabic-form="isolated" 
d="M-29 -170q137 39 199.5 105t62.5 147q0 52 -15.5 103.5t-52.5 136.5l86 30q51 -146 51 -264q0 -123 -77 -209t-220 -129zM214 605v-179h-53v173z" />
    <glyph glyph-name="uniFC61" unicode="&#xfc61;" arabic-form="isolated" 
d="M253.5 736q4.5 -23 4.5 -41q0 -37 -20.5 -57t-51.5 -20q-36 0 -51 25q-19 -30 -56 -30q-26 0 -47.5 19.5t-21.5 57.5q0 26 13 65l42 -10q-7 -26 -7 -45q0 -15 6.5 -25t18.5 -10q13 0 21.5 11t8.5 30v38h43v-42q0 -15 7 -24.5t19 -9.5q27 0 27 41q0 12 -3 28t-9 29l43 14
q9 -21 13.5 -44zM205.5 1003.5q20.5 -24.5 20.5 -60.5q0 -46 -40.5 -90.5t-119.5 -73.5l-21 43q43 13 82 39q-66 27 -66 81q0 40 25 63t60 23q39 0 59.5 -24.5zM120.5 914.5q12.5 -11.5 42.5 -20.5q18 23 18 45q0 16 -9.5 26.5t-26.5 10.5q-16 0 -26.5 -9t-10.5 -26
q0 -15 12.5 -26.5z" />
    <glyph glyph-name="uniFC63" unicode="&#xfc63;" arabic-form="isolated" 
d="M253.5 736q4.5 -23 4.5 -41q0 -37 -20.5 -57t-51.5 -20q-36 0 -51 25q-19 -30 -56 -30q-26 0 -47.5 19.5t-21.5 57.5q0 26 13 65l42 -10q-7 -26 -7 -45q0 -15 6.5 -25t18.5 -10q13 0 21.5 11t8.5 30v38h43v-42q0 -15 7 -24.5t19 -9.5q27 0 27 41q0 12 -3 28t-9 29l43 14
q9 -21 13.5 -44zM159 978v-179h-53v173z" />
    <glyph glyph-name="uniFD3C" unicode="&#xfd3c;" horiz-adv-x="235" arabic-form="final" 
d="M68 640l77 9v-447q0 -47 8.5 -72.5t29.5 -36.5t60 -11l12 -41l-20 -41q-167 0 -167 197v443zM0 835l216 42l-2 -52l-216 -41zM0 751l216 42l-2 -52l-216 -41z" />
    <glyph glyph-name="uniFD3D" unicode="&#xfd3d;" horiz-adv-x="222" arabic-form="isolated" 
d="M73 0v626l76 9v-635h-76zM3 821l216 42l-2 -52l-216 -41zM3 737l216 42l-2 -52l-216 -41z" />
    <glyph glyph-name="uniFE70" unicode="&#xfe70;" horiz-adv-x="600" arabic-form="isolated" 
d="M36 721l216 42l-2 -52l-216 -41zM36 637l216 42l-2 -52l-216 -41z" />
    <glyph glyph-name="uniFE72" unicode="&#xfe72;" horiz-adv-x="600" arabic-form="isolated" 
d="M300 803.5q20 -24.5 20 -59.5q0 -43 -38 -88.5t-103 -77.5l-44 20q0 29 -5 42.5t-18 13.5q-9 0 -18 -6t-22 -20l-26 31q19 21 35 32t34 11q26 0 41.5 -18.5t19.5 -55.5q29 17 49 33q-67 28 -67 83q0 39 25 61.5t60 22.5q37 0 57 -24.5zM276 740q0 15 -9.5 26t-24.5 11
q-16 0 -27 -10t-11 -27q0 -15 12 -26.5t41 -21.5q19 25 19 48z" />
    <glyph glyph-name="uniFE74" unicode="&#xfe74;" horiz-adv-x="600" arabic-form="isolated" 
d="M36 -99l216 42l-2 -52l-216 -41zM37 -177l216 42l-2 -52l-216 -41z" />
    <glyph glyph-name="uniFE76" unicode="&#xfe76;" horiz-adv-x="600" arabic-form="isolated" 
d="M36 645l216 42l-2 -52l-216 -41z" />
    <glyph glyph-name="uniFE78" unicode="&#xfe78;" horiz-adv-x="600" arabic-form="isolated" 
d="M172.5 796.5q20.5 -24.5 20.5 -60.5q0 -46 -40.5 -90.5t-119.5 -73.5l-21 43q43 13 82 39q-66 27 -66 81q0 40 25 63t60 23q39 0 59.5 -24.5zM87.5 707.5q12.5 -11.5 42.5 -20.5q18 23 18 45q0 16 -9.5 26.5t-26.5 10.5q-16 0 -26.5 -9t-10.5 -26q0 -15 12.5 -26.5z" />
    <glyph glyph-name="uniFE7C" unicode="&#xfe7c;" horiz-adv-x="600" arabic-form="isolated" 
d="M253.5 736q4.5 -23 4.5 -41q0 -37 -20.5 -57t-51.5 -20q-36 0 -51 25q-19 -30 -56 -30q-26 0 -47.5 19.5t-21.5 57.5q0 26 13 65l42 -10q-7 -26 -7 -45q0 -15 6.5 -25t18.5 -10q13 0 21.5 11t8.5 30v38h43v-42q0 -15 7 -24.5t19 -9.5q27 0 27 41q0 12 -3 28t-9 29l43 14
q9 -21 13.5 -44z" />
    <glyph glyph-name="uniFE7E" unicode="&#xfe7e;" horiz-adv-x="600" arabic-form="isolated" 
d="M168 605.5q-27 -25.5 -68 -25.5t-68 25.5t-27 67.5t27 67.5t68 25.5t68 -25.5t27 -67.5t-27 -67.5zM135.5 706.5q-12.5 12.5 -35.5 12.5t-35.5 -12.5t-12.5 -33.5t12.5 -33.5t35.5 -12.5t35.5 12.5t12.5 33.5t-12.5 33.5z" />
    <glyph glyph-name="uniFE82" unicode="&#x622;" horiz-adv-x="235" arabic-form="final" 
d="M68 640l77 9v-447q0 -47 8.5 -72.5t29.5 -36.5t60 -11l12 -41l-20 -41q-167 0 -167 197v443zM-6 722q12 36 35 59.5t50 23.5q15 0 26.5 -4t26.5 -12q24 -13 40 -13q12 0 19 3t22 14l22 -37q-21 -18 -37.5 -25t-35.5 -7q-11 0 -21 3.5t-23 11.5l-14 7t-24 6q-26 0 -42 -43
z" />
    <glyph glyph-name="uniFE84" unicode="&#x623;" horiz-adv-x="235" arabic-form="final" 
d="M68 640l77 9v-447q0 -47 8.5 -72.5t29.5 -36.5t60 -11l12 -41l-20 -41q-167 0 -167 197v443zM215 733l-209 -34l-6 46l65 11q-44 38 -44 73q0 38 26.5 63t76.5 25q33 0 74 -22l-28 -45q-27 16 -52 16t-35.5 -11.5t-10.5 -27.5q0 -28 44 -63l93 16z" />
    <glyph glyph-name="uniFE86" unicode="&#x624;" horiz-adv-x="536" arabic-form="final" 
d="M536 0h-104q-25 -105 -109.5 -170.5t-250.5 -99.5l-25 79q140 30 214 76t99 115h-78q-104 0 -161 51.5t-57 133.5q0 53 25 99t68 73t95 27q55 0 98.5 -32.5t68 -94t24.5 -145.5q0 -20 -1 -30h102l12 -40zM376 82v17q0 101 -33 152t-92 51q-52 0 -85.5 -32.5t-33.5 -80.5
q0 -107 157 -107h87zM362 465l-209 -34l-6 46l65 11q-44 38 -44 73q0 38 26.5 63t76.5 25q33 0 74 -22l-28 -45q-27 16 -52 16t-35.5 -11.5t-10.5 -27.5q0 -28 44 -63l93 16z" />
    <glyph glyph-name="uniFE88" unicode="&#x625;" horiz-adv-x="234" arabic-form="final" 
d="M68 753l77 9v-560q0 -47 8.5 -72.5t29 -36.5t58.5 -11l13 -41l-20 -41q-85 0 -125.5 49t-40.5 148v556zM232 -226l-209 -34l-6 46l65 11q-44 38 -44 73q0 38 26.5 63t76.5 25q33 0 74 -22l-28 -45q-27 16 -52 16t-35.5 -11.5t-10.5 -27.5q0 -28 44 -63l93 16z" />
    <glyph glyph-name="uniFE8A" unicode="&#x626;" horiz-adv-x="734" arabic-form="final" 
d="M734 0q-49 0 -87 18q7 -21 7 -36q0 -51 -39.5 -95.5t-117.5 -72t-189 -27.5q-134 0 -197.5 65t-63.5 179q0 99 46 193l57 -17q-28 -78 -28 -164q0 -80 45.5 -126.5t148.5 -46.5q84 0 145 18.5t92 46t31 53.5q0 19 -15 33.5t-52 29.5t-106 35l36 72q23 -7 86 -29
q71 -25 115 -36t93 -11l13 -41zM253 333l-209 -34l-6 46l65 11q-44 38 -44 73q0 38 26.5 63t76.5 25q33 0 74 -22l-28 -45q-27 16 -52 16t-35.5 -11.5t-10.5 -27.5q0 -28 44 -63l93 16z" />
    <glyph glyph-name="uniFE8B" unicode="&#x626;" horiz-adv-x="287" arabic-form="initial" 
d="M101 91.5q31 9.5 42.5 30.5t11.5 61q0 39 -11.5 87.5t-34.5 114.5l79 25q20 -60 31 -122.5t11 -108.5q0 -70 -20.5 -108t-69.5 -54.5t-140 -16.5l-20 41l27 41q63 0 94 9.5zM232 493l-209 -34l-6 46l65 11q-44 38 -44 73q0 38 26.5 63t76.5 25q33 0 74 -22l-28 -45
q-27 16 -52 16t-35.5 -11.5t-10.5 -27.5q0 -28 44 -63l93 16z" />
    <glyph glyph-name="uniFE8C" unicode="&#x626;" horiz-adv-x="341" arabic-form="medial" 
d="M361 41l-20 -41q-67 0 -106 17t-63 60q-22 -44 -61.5 -60.5t-110.5 -16.5l-20 41l28 41q59 0 85.5 12.5t32.5 35t6 68.5v136h77v-136q0 -44 10 -68t40 -36t90 -12zM278 428l-209 -34l-6 46l65 11q-44 38 -44 73q0 38 26.5 63t76.5 25q33 0 74 -22l-28 -45q-27 16 -52 16
t-35.5 -11.5t-10.5 -27.5q0 -28 44 -63l93 16z" />
    <glyph glyph-name="uniFE8E" unicode="&#x627;" horiz-adv-x="234" arabic-form="final" 
d="M68 753l77 9v-560q0 -47 8.5 -72.5t29 -36.5t58.5 -11l13 -41l-20 -41q-85 0 -125.5 49t-40.5 148v556z" />
    <glyph glyph-name="uniFE90" unicode="&#x628;" horiz-adv-x="962" arabic-form="final" 
d="M982 43l-20 -43q-75 0 -116.5 19.5t-69.5 59.5q-81 -46 -184.5 -69.5t-255.5 -23.5q-105 0 -168.5 21.5t-92 66t-28.5 114.5q0 38 9.5 79.5t27.5 78.5l57 -19q-22 -66 -22 -127q0 -48 21.5 -76.5t70 -41.5t132.5 -13q130 0 234.5 22.5t167.5 57.5v185h77v-125
q0 -49 11 -75.5t42.5 -39t93.5 -12.5zM337.5 -187q-14.5 15 -14.5 36q0 22 14.5 36.5t36.5 14.5t36.5 -14.5t14.5 -36.5q0 -21 -14.5 -36t-36.5 -15t-36.5 15z" />
    <glyph glyph-name="uniFE91" unicode="&#x628;" horiz-adv-x="287" arabic-form="initial" 
d="M101 91.5q31 9.5 42.5 30.5t11.5 61q0 39 -11.5 87.5t-34.5 114.5l79 25q20 -60 31 -122.5t11 -108.5q0 -70 -20.5 -108t-69.5 -54.5t-140 -16.5l-20 41l27 41q63 0 94 9.5zM100.5 -187q-14.5 15 -14.5 36q0 22 14.5 36.5t36.5 14.5t36.5 -14.5t14.5 -36.5
q0 -21 -14.5 -36t-36.5 -15t-36.5 15z" />
    <glyph glyph-name="uniFE92" unicode="&#x628;" horiz-adv-x="341" arabic-form="medial" 
d="M361 41l-20 -41q-67 0 -106 17t-63 60q-22 -44 -61.5 -60.5t-110.5 -16.5l-20 41l28 41q59 0 85.5 12.5t32.5 35t6 68.5v136h77v-136q0 -44 10 -68t40 -36t90 -12zM134.5 -187q-14.5 15 -14.5 36q0 22 14.5 36.5t36.5 14.5t36.5 -14.5t14.5 -36.5q0 -21 -14.5 -36
t-36.5 -15t-36.5 15z" />
    <glyph glyph-name="uniFE94" unicode="&#x629;" horiz-adv-x="510" arabic-form="final" 
d="M530 40l-20 -40h-19q-52 0 -89.5 25t-55.5 78q-26 -31 -67 -49.5t-85 -18.5q-76 0 -122.5 41.5t-46.5 108.5q0 56 37 104.5t107.5 80.5t167.5 38v98l77 9v-318q0 -65 21 -90t64 -25h18zM279.5 127.5q33.5 15.5 57.5 41.5v164q-80 -3 -133.5 -23t-79.5 -50.5t-26 -66.5
q0 -38 26.5 -59.5t81.5 -21.5q40 0 73.5 15.5zM265 631q-14 14 -14 34t14.5 34t33.5 14q20 0 34 -14t14 -34t-14 -34t-34 -14t-34 14zM416 631q-14 14 -14 34t14 34t34 14t34 -14t14 -34t-14 -34t-34 -14t-34 14z" />
    <glyph glyph-name="uniFE96" unicode="&#x62a;" horiz-adv-x="962" arabic-form="final" 
d="M982 43l-20 -43q-75 0 -116.5 19.5t-69.5 59.5q-81 -46 -184.5 -69.5t-255.5 -23.5q-105 0 -168.5 21.5t-92 66t-28.5 114.5q0 38 9.5 79.5t27.5 78.5l57 -19q-22 -66 -22 -127q0 -48 21.5 -76.5t70 -41.5t132.5 -13q130 0 234.5 22.5t167.5 57.5v185h77v-125
q0 -49 11 -75.5t42.5 -39t93.5 -12.5zM340 418q-14 14 -14 34t14.5 34t33.5 14q20 0 34 -14t14 -34t-14 -34t-34 -14t-34 14zM491 418q-14 14 -14 34t14 34t34 14t34 -14t14 -34t-14 -34t-34 -14t-34 14z" />
    <glyph glyph-name="uniFE97" unicode="&#x62a;" horiz-adv-x="287" arabic-form="initial" 
d="M101 91.5q31 9.5 42.5 30.5t11.5 61q0 39 -11.5 87.5t-34.5 114.5l79 25q20 -60 31 -122.5t11 -108.5q0 -70 -20.5 -108t-69.5 -54.5t-140 -16.5l-20 41l27 41q63 0 94 9.5zM15 520q-14 14 -14 34t14.5 34t33.5 14q20 0 34 -14t14 -34t-14 -34t-34 -14t-34 14zM166 520
q-14 14 -14 34t14 34t34 14t34 -14t14 -34t-14 -34t-34 -14t-34 14z" />
    <glyph glyph-name="uniFE98" unicode="&#x62a;" horiz-adv-x="341" arabic-form="medial" 
d="M361 41l-20 -41q-67 0 -106 17t-63 60q-22 -44 -61.5 -60.5t-110.5 -16.5l-20 41l28 41q59 0 85.5 12.5t32.5 35t6 68.5v136h77v-136q0 -44 10 -68t40 -36t90 -12zM61 455q-14 14 -14 34t14.5 34t33.5 14q20 0 34 -14t14 -34t-14 -34t-34 -14t-34 14zM212 455
q-14 14 -14 34t14 34t34 14t34 -14t14 -34t-14 -34t-34 -14t-34 14z" />
    <glyph glyph-name="uniFE9A" unicode="&#x62b;" horiz-adv-x="962" arabic-form="final" 
d="M982 43l-20 -43q-75 0 -116.5 19.5t-69.5 59.5q-81 -46 -184.5 -69.5t-255.5 -23.5q-105 0 -168.5 21.5t-92 66t-28.5 114.5q0 38 9.5 79.5t27.5 78.5l57 -19q-22 -66 -22 -127q0 -48 21.5 -76.5t70 -41.5t132.5 -13q130 0 234.5 22.5t167.5 57.5v185h77v-125
q0 -49 11 -75.5t42.5 -39t93.5 -12.5zM417 511q-14 14 -14 33t14 33t33 14t33 -14t14 -33t-14 -33t-33 -14t-33 14zM335 392q-14 14 -14 33q0 20 14 33.5t34 13.5q19 0 33 -14t14 -33t-14 -33t-33 -14q-20 0 -34 14zM498 392q-14 14 -14 33t14 33t33 14q20 0 34 -13.5
t14 -33.5q0 -19 -14 -33t-34 -14q-19 0 -33 14z" />
    <glyph glyph-name="uniFE9B" unicode="&#x62b;" horiz-adv-x="287" arabic-form="initial" 
d="M101 91.5q31 9.5 42.5 30.5t11.5 61q0 39 -11.5 87.5t-34.5 114.5l79 25q20 -60 31 -122.5t11 -108.5q0 -70 -20.5 -108t-69.5 -54.5t-140 -16.5l-20 41l27 41q63 0 94 9.5zM92 613q-14 14 -14 33t14 33t33 14t33 -14t14 -33t-14 -33t-33 -14t-33 14zM10 494
q-14 14 -14 33q0 20 14 33.5t34 13.5q19 0 33 -14t14 -33t-14 -33t-33 -14q-20 0 -34 14zM173 494q-14 14 -14 33t14 33t33 14q20 0 34 -13.5t14 -33.5q0 -19 -14 -33t-34 -14q-19 0 -33 14z" />
    <glyph glyph-name="uniFE9C" unicode="&#x62b;" horiz-adv-x="341" arabic-form="medial" 
d="M361 41l-20 -41q-67 0 -106 17t-63 60q-22 -44 -61.5 -60.5t-110.5 -16.5l-20 41l28 41q59 0 85.5 12.5t32.5 35t6 68.5v136h77v-136q0 -44 10 -68t40 -36t90 -12zM138 548q-14 14 -14 33t14 33t33 14t33 -14t14 -33t-14 -33t-33 -14t-33 14zM56 429q-14 14 -14 33
q0 20 14 33.5t34 13.5q19 0 33 -14t14 -33t-14 -33t-33 -14q-20 0 -34 14zM219 429q-14 14 -14 33t14 33t33 14q20 0 34 -13.5t14 -33.5q0 -19 -14 -33t-34 -14q-19 0 -33 14z" />
    <glyph glyph-name="uniFE9E" unicode="&#x62c;" horiz-adv-x="667" arabic-form="final" 
d="M262.5 140q-75.5 -39 -110.5 -94.5t-35 -120.5q0 -98 71 -151t207 -53q64 0 120 12.5t97 34.5l31 -73q-44 -27 -110 -42.5t-146 -15.5q-168 0 -252.5 74t-84.5 201q0 93 45.5 166.5t138.5 120.5t231 60q-37 16 -66 36t-34 23q-42 30 -71.5 43.5t-71.5 13.5
q-38 0 -68.5 -9.5t-60.5 -27.5l-38 71q80 49 173 49q60 0 101.5 -22.5t92.5 -66.5q53 -43 91.5 -66.5t94.5 -32.5l-9 -72l-83 -3q10 -48 28 -72t48 -32.5t83 -8.5l12 -41l-20 -41q-99 0 -151.5 46.5t-61.5 144.5q-116 -12 -191.5 -51zM323.5 -104q-14.5 15 -14.5 36
q0 22 14.5 36.5t36.5 14.5t36.5 -14.5t14.5 -36.5q0 -21 -14.5 -36t-36.5 -15t-36.5 15z" />
    <glyph glyph-name="uniFE9F" unicode="&#x62c;" horiz-adv-x="703" arabic-form="initial" 
d="M330 445.5q40 -12.5 65.5 -31.5t61.5 -53q48 -46 91 -75t115 -48l-11 -71l-93 -8q-77 -5 -137.5 -25.5t-143.5 -57.5q-82 -38 -142.5 -57t-135.5 -19l-20 41l27 42q65 0 118.5 16t130.5 50q79 34 135.5 52.5t130.5 25.5q-40 17 -66.5 35t-59.5 46q-28 24 -48 37.5t-49 22
t-70 8.5q-59 0 -120 -37l-39 72q40 23 82 35t81 12q57 0 97 -12.5zM267.5 -187q-14.5 15 -14.5 36q0 22 14.5 36.5t36.5 14.5t36.5 -14.5t14.5 -36.5q0 -21 -14.5 -36t-36.5 -15t-36.5 15z" />
    <glyph glyph-name="uniFEA0" unicode="&#x62c;" horiz-adv-x="716" arabic-form="medial" 
d="M736 41l-20 -41q-101 0 -162 45t-72 138q-46 -11 -89 -31.5t-101 -52.5q-60 -33 -100.5 -52.5t-89.5 -33t-102 -13.5l-20 41l27 41q67 0 121.5 20t134.5 61q74 37 129 59t123 33q-41 13 -69.5 28.5t-61.5 38.5q-43 28 -74 41t-81 13q-58 0 -121 -36l-38 71q40 23 81.5 35
t78.5 12q53 0 90.5 -10t62.5 -25.5t61 -43.5q50 -40 96 -65.5t121 -44.5l-11 -71l-94 -4q-8 0 -12 -1q10 -48 32.5 -72t56 -31.5t90.5 -7.5zM356.5 -137q-14.5 15 -14.5 36q0 22 14.5 36.5t36.5 14.5t36.5 -14.5t14.5 -36.5q0 -21 -14.5 -36t-36.5 -15t-36.5 15z" />
    <glyph glyph-name="uniFEA2" unicode="&#x62d;" horiz-adv-x="667" arabic-form="final" 
d="M262.5 140q-75.5 -39 -110.5 -94.5t-35 -120.5q0 -98 71 -151t207 -53q64 0 120 12.5t97 34.5l31 -73q-44 -27 -110 -42.5t-146 -15.5q-168 0 -252.5 74t-84.5 201q0 93 45.5 166.5t138.5 120.5t231 60q-37 16 -66 36t-34 23q-42 30 -71.5 43.5t-71.5 13.5
q-38 0 -68.5 -9.5t-60.5 -27.5l-38 71q80 49 173 49q60 0 101.5 -22.5t92.5 -66.5q53 -43 91.5 -66.5t94.5 -32.5l-9 -72l-83 -3q10 -48 28 -72t48 -32.5t83 -8.5l12 -41l-20 -41q-99 0 -151.5 46.5t-61.5 144.5q-116 -12 -191.5 -51z" />
    <glyph glyph-name="uniFEA3" unicode="&#x62d;" horiz-adv-x="703" arabic-form="initial" 
d="M330 445.5q40 -12.5 65.5 -31.5t61.5 -53q48 -46 91 -75t115 -48l-11 -71l-93 -8q-77 -5 -137.5 -25.5t-143.5 -57.5q-82 -38 -142.5 -57t-135.5 -19l-20 41l27 42q65 0 118.5 16t130.5 50q79 34 135.5 52.5t130.5 25.5q-40 17 -66.5 35t-59.5 46q-28 24 -48 37.5t-49 22
t-70 8.5q-59 0 -120 -37l-39 72q40 23 82 35t81 12q57 0 97 -12.5z" />
    <glyph glyph-name="uniFEA4" unicode="&#x62d;" horiz-adv-x="716" arabic-form="medial" 
d="M736 41l-20 -41q-101 0 -162 45t-72 138q-46 -11 -89 -31.5t-101 -52.5q-60 -33 -100.5 -52.5t-89.5 -33t-102 -13.5l-20 41l27 41q67 0 121.5 20t134.5 61q74 37 129 59t123 33q-41 13 -69.5 28.5t-61.5 38.5q-43 28 -74 41t-81 13q-58 0 -121 -36l-38 71q40 23 81.5 35
t78.5 12q53 0 90.5 -10t62.5 -25.5t61 -43.5q50 -40 96 -65.5t121 -44.5l-11 -71l-94 -4q-8 0 -12 -1q10 -48 32.5 -72t56 -31.5t90.5 -7.5z" />
    <glyph glyph-name="uniFEA6" unicode="&#x62e;" horiz-adv-x="667" arabic-form="final" 
d="M262.5 140q-75.5 -39 -110.5 -94.5t-35 -120.5q0 -98 71 -151t207 -53q64 0 120 12.5t97 34.5l31 -73q-44 -27 -110 -42.5t-146 -15.5q-168 0 -252.5 74t-84.5 201q0 93 45.5 166.5t138.5 120.5t231 60q-37 16 -66 36t-34 23q-42 30 -71.5 43.5t-71.5 13.5
q-38 0 -68.5 -9.5t-60.5 -27.5l-38 71q80 49 173 49q60 0 101.5 -22.5t92.5 -66.5q53 -43 91.5 -66.5t94.5 -32.5l-9 -72l-83 -3q10 -48 28 -72t48 -32.5t83 -8.5l12 -41l-20 -41q-99 0 -151.5 46.5t-61.5 144.5q-116 -12 -191.5 -51zM190.5 538q-14.5 15 -14.5 36
q0 22 14.5 36.5t36.5 14.5t36.5 -14.5t14.5 -36.5q0 -21 -14.5 -36t-36.5 -15t-36.5 15z" />
    <glyph glyph-name="uniFEA7" unicode="&#x62e;" horiz-adv-x="703" arabic-form="initial" 
d="M330 445.5q40 -12.5 65.5 -31.5t61.5 -53q48 -46 91 -75t115 -48l-11 -71l-93 -8q-77 -5 -137.5 -25.5t-143.5 -57.5q-82 -38 -142.5 -57t-135.5 -19l-20 41l27 42q65 0 118.5 16t130.5 50q79 34 135.5 52.5t130.5 25.5q-40 17 -66.5 35t-59.5 46q-28 24 -48 37.5t-49 22
t-70 8.5q-59 0 -120 -37l-39 72q40 23 82 35t81 12q57 0 97 -12.5zM194.5 538q-14.5 15 -14.5 36q0 22 14.5 36.5t36.5 14.5t36.5 -14.5t14.5 -36.5q0 -21 -14.5 -36t-36.5 -15t-36.5 15z" />
    <glyph glyph-name="uniFEA8" unicode="&#x62e;" horiz-adv-x="716" arabic-form="medial" 
d="M736 41l-20 -41q-101 0 -162 45t-72 138q-46 -11 -89 -31.5t-101 -52.5q-60 -33 -100.5 -52.5t-89.5 -33t-102 -13.5l-20 41l27 41q67 0 121.5 20t134.5 61q74 37 129 59t123 33q-41 13 -69.5 28.5t-61.5 38.5q-43 28 -74 41t-81 13q-58 0 -121 -36l-38 71q40 23 81.5 35
t78.5 12q53 0 90.5 -10t62.5 -25.5t61 -43.5q50 -40 96 -65.5t121 -44.5l-11 -71l-94 -4q-8 0 -12 -1q10 -48 32.5 -72t56 -31.5t90.5 -7.5zM190.5 539q-14.5 15 -14.5 36q0 22 14.5 36.5t36.5 14.5t36.5 -14.5t14.5 -36.5q0 -21 -14.5 -36t-36.5 -15t-36.5 15z" />
    <glyph glyph-name="uniFEAA" unicode="&#x62f;" horiz-adv-x="529" arabic-form="final" 
d="M549 41l-20 -41q-47 0 -83.5 23t-56.5 62q-28 -49 -80 -74t-126 -25q-81 0 -158 22l25 81q37 -9 68.5 -14t70.5 -5q106 0 174 66l-152 346l81 39l126 -323q18 -46 32 -69.5t34 -35t52 -11.5z" />
    <glyph glyph-name="uniFEAC" unicode="&#x630;" horiz-adv-x="529" arabic-form="final" 
d="M549 41l-20 -41q-47 0 -83.5 23t-56.5 62q-28 -49 -80 -74t-126 -25q-81 0 -158 22l25 81q37 -9 68.5 -14t70.5 -5q106 0 174 66l-152 346l81 39l126 -323q18 -46 32 -69.5t34 -35t52 -11.5zM168.5 601q-14.5 15 -14.5 36q0 22 14.5 36.5t36.5 14.5t36.5 -14.5
t14.5 -36.5q0 -21 -14.5 -36t-36.5 -15t-36.5 15z" />
    <glyph glyph-name="uniFEAE" unicode="&#x631;" horiz-adv-x="406" arabic-form="final" 
d="M426 41l-20 -41q-42 0 -67.5 12.5t-40.5 37.5q-22 -223 -294 -300l-33 79q137 39 200 105.5t63 147.5q0 47 -19.5 107.5t-53.5 133.5l86 28q13 -37 38 -133q19 -77 46.5 -106.5t81.5 -29.5z" />
    <glyph glyph-name="uniFEB0" unicode="&#x632;" horiz-adv-x="406" arabic-form="final" 
d="M426 41l-20 -41q-42 0 -67.5 12.5t-40.5 37.5q-22 -223 -294 -300l-33 79q137 39 200 105.5t63 147.5q0 47 -19.5 107.5t-53.5 133.5l86 28q13 -37 38 -133q19 -77 46.5 -106.5t81.5 -29.5zM143.5 454q-14.5 15 -14.5 36q0 22 14.5 36.5t36.5 14.5t36.5 -14.5t14.5 -36.5
q0 -21 -14.5 -36t-36.5 -15t-36.5 15z" />
    <glyph glyph-name="uniFEB2" unicode="&#x633;" horiz-adv-x="1333" arabic-form="final" 
d="M1353 43l-20 -43q-68 0 -111 18t-60 51q-43 -69 -149 -69q-45 0 -81.5 18t-56.5 51q-44 -69 -144 -69h-1v0q-71 0 -110 38q-3 -108 -39 -173t-103 -93t-170 -28q-134 0 -197.5 65t-63.5 179q0 97 46 193l57 -17q-28 -80 -28 -164q0 -80 45.5 -127t148.5 -47
q85 0 135 22.5t72.5 71t22.5 130.5q0 56 -15 108t-49 129l84 34q12 -44 22 -73l13 -42q22 -72 53 -98t84 -26q46 0 71.5 29t25.5 90v133h75v-132q0 -64 27.5 -92t80.5 -28q96 0 96 99v192h77v-181q0 -43 14 -66.5t45.5 -33.5t89.5 -10z" />
    <glyph glyph-name="uniFEB3" unicode="&#x633;" horiz-adv-x="830" arabic-form="initial" 
d="M763 295q10 -59 10 -105q0 -97 -45 -143.5t-124 -46.5q-45 0 -81 18t-57 51q-22 -33 -57.5 -51t-82.5 -18q-46 0 -84 17.5t-57 49.5q-25 -36 -70.5 -51.5t-114.5 -15.5l-20 42l27 40q70 0 105.5 22.5t35.5 77.5v152h74v-132q0 -70 26.5 -95t78.5 -25q47 0 73 29t26 90
v133h75v-132q0 -64 27.5 -92t80.5 -28q46 0 67.5 24t21.5 76q0 41 -10.5 94t-30.5 109l74 25q22 -56 32 -115z" />
    <glyph glyph-name="uniFEB4" unicode="&#x633;" horiz-adv-x="928" arabic-form="medial" 
d="M948 43l-20 -43q-68 0 -111 18t-60 51q-43 -69 -149 -69q-45 0 -81.5 18t-56.5 51q-22 -33 -57.5 -51t-82.5 -18t-85 17.5t-57 49.5q-25 -36 -71 -51.5t-117 -15.5l-20 42l28 40q71 0 107 22.5t36 77.5v152h74v-132q0 -70 27 -95t79 -25q47 0 73 29t26 90v133h75v-132
q0 -64 27.5 -92t80.5 -28q96 0 96 99v187h77v-176q0 -43 14 -66.5t46 -33.5t90 -10z" />
    <glyph glyph-name="uniFEB6" unicode="&#x634;" horiz-adv-x="1333" arabic-form="final" 
d="M1353 43l-20 -43q-68 0 -111 18t-60 51q-43 -69 -149 -69q-45 0 -81.5 18t-56.5 51q-44 -69 -144 -69h-1v0q-71 0 -110 38q-3 -108 -39 -173t-103 -93t-170 -28q-134 0 -197.5 65t-63.5 179q0 97 46 193l57 -17q-28 -80 -28 -164q0 -80 45.5 -127t148.5 -47
q85 0 135 22.5t72.5 71t22.5 130.5q0 56 -15 108t-49 129l84 34q12 -44 22 -73l13 -42q22 -72 53 -98t84 -26q46 0 71.5 29t25.5 90v133h75v-132q0 -64 27.5 -92t80.5 -28q96 0 96 99v192h77v-181q0 -43 14 -66.5t45.5 -33.5t89.5 -10zM839 548q-14 14 -14 33t14 33t33 14
t33 -14t14 -33t-14 -33t-33 -14t-33 14zM757 429q-14 14 -14 33q0 20 14 33.5t34 13.5q19 0 33 -14t14 -33t-14 -33t-33 -14q-20 0 -34 14zM920 429q-14 14 -14 33t14 33t33 14q20 0 34 -13.5t14 -33.5q0 -19 -14 -33t-34 -14q-19 0 -33 14z" />
    <glyph glyph-name="uniFEB7" unicode="&#x634;" horiz-adv-x="830" arabic-form="initial" 
d="M763 295q10 -59 10 -105q0 -97 -45 -143.5t-124 -46.5q-45 0 -81 18t-57 51q-22 -33 -57.5 -51t-82.5 -18q-46 0 -84 17.5t-57 49.5q-25 -36 -70.5 -51.5t-114.5 -15.5l-20 42l27 40q70 0 105.5 22.5t35.5 77.5v152h74v-132q0 -70 26.5 -95t78.5 -25q47 0 73 29t26 90
v133h75v-132q0 -64 27.5 -92t80.5 -28q46 0 67.5 24t21.5 76q0 41 -10.5 94t-30.5 109l74 25q22 -56 32 -115zM430 548q-14 14 -14 33t14 33t33 14t33 -14t14 -33t-14 -33t-33 -14t-33 14zM348 429q-14 14 -14 33q0 20 14 33.5t34 13.5q19 0 33 -14t14 -33t-14 -33t-33 -14
q-20 0 -34 14zM511 429q-14 14 -14 33t14 33t33 14q20 0 34 -13.5t14 -33.5q0 -19 -14 -33t-34 -14q-19 0 -33 14z" />
    <glyph glyph-name="uniFEB8" unicode="&#x634;" horiz-adv-x="928" arabic-form="medial" 
d="M948 43l-20 -43q-68 0 -111 18t-60 51q-43 -69 -149 -69q-45 0 -81.5 18t-56.5 51q-22 -33 -57.5 -51t-82.5 -18t-85 17.5t-57 49.5q-25 -36 -71 -51.5t-117 -15.5l-20 42l28 40q71 0 107 22.5t36 77.5v152h74v-132q0 -70 27 -95t79 -25q47 0 73 29t26 90v133h75v-132
q0 -64 27.5 -92t80.5 -28q96 0 96 99v187h77v-176q0 -43 14 -66.5t46 -33.5t90 -10zM434 548q-14 14 -14 33t14 33t33 14t33 -14t14 -33t-14 -33t-33 -14t-33 14zM352 429q-14 14 -14 33q0 20 14 33.5t34 13.5q19 0 33 -14t14 -33t-14 -33t-33 -14q-20 0 -34 14zM515 429
q-14 14 -14 33t14 33t33 14q20 0 34 -13.5t14 -33.5q0 -19 -14 -33t-34 -14q-19 0 -33 14z" />
    <glyph glyph-name="uniFEBA" unicode="&#x635;" horiz-adv-x="1366" arabic-form="final" 
d="M1386 41l-20 -41q-41 0 -76 20t-58 53q-42 -43 -131 -58t-259 -15h-111v1q-71 0 -111 37q-4 -108 -39.5 -172.5t-102.5 -92.5t-170 -28q-134 0 -197.5 64.5t-63.5 179.5q0 97 46 193l57 -18q-28 -78 -28 -164q0 -79 45.5 -126t148.5 -47q85 0 135 22t72.5 70.5
t22.5 130.5q0 56 -15 108.5t-49 128.5l84 34q7 -27 20 -65l15 -50q18 -57 40.5 -84t56.5 -35q38 114 97.5 197t131 126.5t143.5 43.5q60 0 107 -27.5t73.5 -81t26.5 -128.5q0 -49 -10 -83q21 -29 46.5 -40.5t59.5 -11.5zM1063 92.5q77 10.5 112 40.5t35 89q0 87 -38.5 117.5
t-96.5 30.5q-90 0 -166.5 -67.5t-142.5 -220.5h76q144 0 221 10.5z" />
    <glyph glyph-name="uniFEBB" unicode="&#x635;" horiz-adv-x="932" arabic-form="initial" 
d="M775 426.5q47 -27.5 73.5 -81t26.5 -128.5q0 -94 -41 -140t-131 -61.5t-264 -15.5h-110q-62 0 -100.5 16.5t-62.5 58.5q-22 -43 -60.5 -59t-105.5 -16l-20 41l28 41q56 0 81 12t31 34t6 67v197h76v-197q0 -55 18.5 -80t73.5 -31q38 115 98 198.5t131.5 127.5t144.5 44
q60 0 107 -27.5zM660 92.5q77 10.5 112.5 40.5t35.5 89q0 87 -38.5 117.5t-96.5 30.5q-90 0 -166.5 -67.5t-142.5 -220.5h75q144 0 221 10.5z" />
    <glyph glyph-name="uniFEBC" unicode="&#x635;" horiz-adv-x="964" arabic-form="medial" 
d="M984 41l-20 -41q-41 0 -76 20t-58 53q-42 -43 -131.5 -58t-259.5 -15h-110q-62 0 -100.5 16.5t-62.5 58.5q-22 -43 -60.5 -59t-105.5 -16l-20 41l28 41q56 0 81 12t31 34t6 67v197h76v-197q0 -55 18.5 -80t73.5 -31q38 115 98 198.5t131.5 127.5t144.5 44q60 0 107 -27.5
t73.5 -81t26.5 -128.5q0 -50 -10 -83q21 -29 46.5 -40.5t59.5 -11.5zM660 92.5q77 10.5 112.5 40.5t35.5 89q0 87 -38.5 117.5t-96.5 30.5q-90 0 -166.5 -67.5t-142.5 -220.5h75q144 0 221 10.5z" />
    <glyph glyph-name="uniFEBE" unicode="&#x636;" horiz-adv-x="1366" arabic-form="final" 
d="M1000.5 531.5q-14.5 14.5 -14.5 36.5q0 21 14.5 35.5t36.5 14.5q21 0 35.5 -14.5t14.5 -35.5q0 -22 -14.5 -36.5t-35.5 -14.5q-22 0 -36.5 14.5zM1386 41l-20 -41q-41 0 -76 20t-58 53q-42 -43 -131 -58t-259 -15h-111v1q-71 0 -111 37q-4 -108 -39.5 -172.5
t-102.5 -92.5t-170 -28q-134 0 -197.5 64.5t-63.5 179.5q0 97 46 193l57 -18q-28 -78 -28 -164q0 -79 45.5 -126t148.5 -47q85 0 135 22t72.5 70.5t22.5 130.5q0 56 -15 108.5t-49 128.5l84 34q7 -27 20 -65l15 -50q18 -57 40.5 -84t56.5 -35q38 114 97.5 197t131 126.5
t143.5 43.5q60 0 107 -27.5t73.5 -81t26.5 -128.5q0 -49 -10 -83q21 -29 46.5 -40.5t59.5 -11.5zM1063 92.5q77 10.5 112 40.5t35 89q0 87 -38.5 117.5t-96.5 30.5q-90 0 -166.5 -67.5t-142.5 -220.5h76q144 0 221 10.5z" />
    <glyph glyph-name="uniFEBF" unicode="&#x636;" horiz-adv-x="932" arabic-form="initial" 
d="M598.5 531.5q-14.5 14.5 -14.5 36.5q0 21 14.5 35.5t36.5 14.5q21 0 35.5 -14.5t14.5 -35.5q0 -22 -14.5 -36.5t-35.5 -14.5q-22 0 -36.5 14.5zM775 426.5q47 -27.5 73.5 -81t26.5 -128.5q0 -94 -41 -140t-131 -61.5t-264 -15.5h-110q-62 0 -100.5 16.5t-62.5 58.5
q-22 -43 -60.5 -59t-105.5 -16l-20 41l28 41q56 0 81 12t31 34t6 67v197h76v-197q0 -55 18.5 -80t73.5 -31q38 115 98 198.5t131.5 127.5t144.5 44q60 0 107 -27.5zM660 92.5q77 10.5 112.5 40.5t35.5 89q0 87 -38.5 117.5t-96.5 30.5q-90 0 -166.5 -67.5t-142.5 -220.5h75
q144 0 221 10.5z" />
    <glyph glyph-name="uniFEC0" unicode="&#x636;" horiz-adv-x="964" arabic-form="medial" 
d="M598.5 531.5q-14.5 14.5 -14.5 36.5q0 21 14.5 35.5t36.5 14.5q21 0 35.5 -14.5t14.5 -35.5q0 -22 -14.5 -36.5t-35.5 -14.5q-22 0 -36.5 14.5zM984 41l-20 -41q-41 0 -76 20t-58 53q-42 -43 -131.5 -58t-259.5 -15h-110q-62 0 -100.5 16.5t-62.5 58.5q-22 -43 -60.5 -59
t-105.5 -16l-20 41l28 41q56 0 81 12t31 34t6 67v197h76v-197q0 -55 18.5 -80t73.5 -31q38 115 98 198.5t131.5 127.5t144.5 44q60 0 107 -27.5t73.5 -81t26.5 -128.5q0 -50 -10 -83q21 -29 46.5 -40.5t59.5 -11.5zM660 92.5q77 10.5 112.5 40.5t35.5 89q0 87 -38.5 117.5
t-96.5 30.5q-90 0 -166.5 -67.5t-142.5 -220.5h75q144 0 221 10.5z" />
    <glyph glyph-name="uniFEC2" unicode="&#x637;" horiz-adv-x="829" arabic-form="final" 
d="M849 41l-20 -41q-40 0 -75.5 20t-58.5 53q-41 -43 -130.5 -58t-259.5 -15h-274l17 82h111q9 27 23 63v608l76 10v-479q59 82 130.5 126t144.5 44q60 0 107 -27.5t73.5 -81t26.5 -128.5q0 -49 -10 -83q21 -29 46.5 -40.5t59.5 -11.5zM526 92.5q77 10.5 112 40.5t35 89
q0 87 -38.5 117.5t-96.5 30.5q-90 0 -166.5 -67.5t-142.5 -220.5h76q144 0 221 10.5z" />
    <glyph glyph-name="uniFEC3" unicode="&#x637;" horiz-adv-x="773" arabic-form="initial" 
d="M616 426.5q47 -27.5 73.5 -81t26.5 -128.5q0 -94 -41 -140t-131 -61.5t-263 -15.5h-281l-20 42l27 40h128q9 27 23 63v608l76 10v-479q59 82 130.5 126t144.5 44q60 0 107 -27.5zM502 92.5q77 10.5 112 40.5t35 89q0 87 -38.5 117.5t-96.5 30.5q-90 0 -166.5 -67.5
t-142.5 -220.5h76q144 0 221 10.5z" />
    <glyph glyph-name="uniFEC4" unicode="&#x637;" horiz-adv-x="805" arabic-form="medial" 
d="M825 41l-20 -41q-40 0 -75.5 20t-58.5 53q-41 -43 -130.5 -58t-259.5 -15h-281l-20 42l27 40h128q9 27 23 63v608l76 10v-479q59 82 130.5 126t144.5 44q60 0 107 -27.5t73.5 -81t26.5 -128.5q0 -49 -10 -83q21 -29 46.5 -40.5t59.5 -11.5zM502 92.5q77 10.5 112 40.5
t35 89q0 87 -38.5 117.5t-96.5 30.5q-90 0 -166.5 -67.5t-142.5 -220.5h76q144 0 221 10.5z" />
    <glyph glyph-name="uniFEC6" unicode="&#x638;" horiz-adv-x="829" arabic-form="final" 
d="M849 41l-20 -41q-40 0 -75.5 20t-58.5 53q-41 -43 -130.5 -58t-259.5 -15h-274l17 82h111q9 27 23 63v608l76 10v-479q59 82 130.5 126t144.5 44q60 0 107 -27.5t73.5 -81t26.5 -128.5q0 -49 -10 -83q21 -29 46.5 -40.5t59.5 -11.5zM526 92.5q77 10.5 112 40.5t35 89
q0 87 -38.5 117.5t-96.5 30.5q-90 0 -166.5 -67.5t-142.5 -220.5h76q144 0 221 10.5zM461.5 531q-14.5 15 -14.5 36q0 22 14.5 36.5t36.5 14.5t36.5 -14.5t14.5 -36.5q0 -21 -14.5 -36t-36.5 -15t-36.5 15z" />
    <glyph glyph-name="uniFEC7" unicode="&#x638;" horiz-adv-x="773" arabic-form="initial" 
d="M616 426.5q47 -27.5 73.5 -81t26.5 -128.5q0 -94 -41 -140t-131 -61.5t-263 -15.5h-281l-20 42l27 40h128q9 27 23 63v608l76 10v-479q59 82 130.5 126t144.5 44q60 0 107 -27.5zM502 92.5q77 10.5 112 40.5t35 89q0 87 -38.5 117.5t-96.5 30.5q-90 0 -166.5 -67.5
t-142.5 -220.5h76q144 0 221 10.5zM437.5 531q-14.5 15 -14.5 36q0 22 14.5 36.5t36.5 14.5t36.5 -14.5t14.5 -36.5q0 -21 -14.5 -36t-36.5 -15t-36.5 15z" />
    <glyph glyph-name="uniFEC8" unicode="&#x638;" horiz-adv-x="805" arabic-form="medial" 
d="M825 41l-20 -41q-40 0 -75.5 20t-58.5 53q-41 -43 -130.5 -58t-259.5 -15h-281l-20 42l27 40h128q9 27 23 63v608l76 10v-479q59 82 130.5 126t144.5 44q60 0 107 -27.5t73.5 -81t26.5 -128.5q0 -49 -10 -83q21 -29 46.5 -40.5t59.5 -11.5zM502 92.5q77 10.5 112 40.5
t35 89q0 87 -38.5 117.5t-96.5 30.5q-90 0 -166.5 -67.5t-142.5 -220.5h76q144 0 221 10.5zM437.5 531q-14.5 15 -14.5 36q0 22 14.5 36.5t36.5 14.5t36.5 -14.5t14.5 -36.5q0 -21 -14.5 -36t-36.5 -15t-36.5 15z" />
    <glyph glyph-name="uniFECA" unicode="&#x639;" horiz-adv-x="567" arabic-form="final" 
d="M551 -233l32 -72q-97 -58 -246 -58q-101 0 -168.5 32.5t-99 87.5t-31.5 124q0 186 187 271l-18 18q-38 40 -74.5 74t-89.5 74l11 82q108 42 223 42t165.5 -34.5t50.5 -102.5q0 -55 -33 -96t-101 -77q41 -30 77.5 -40t106.5 -10h31l13 -40l-20 -42h-41q-70 0 -126 22.5
t-117 74.5q-97 -45 -137 -91.5t-40 -112.5q0 -77 61 -124.5t178 -47.5t206 46zM192 282q32 -30 38 -36q36 -36 68 -64q68 30 98.5 55.5t30.5 60.5q0 32 -36 47.5t-114 15.5q-67 0 -150 -23q33 -26 65 -56z" />
    <glyph glyph-name="uniFECB" unicode="&#x639;" horiz-adv-x="567" arabic-form="initial" 
d="M551 54q-135 -33 -227 -43.5t-201 -10.5h-123l-20 41l27 41h98q52 0 75 1q-52 37 -78.5 86t-26.5 97q0 49 25.5 92.5t76.5 70.5t122 27q86 0 155 -37l-36 -78q-29 16 -61 23.5t-58 7.5q-73 0 -110 -33t-37 -81q0 -99 133 -169q52 5 108 15.5t148 31.5z" />
    <glyph glyph-name="uniFECC" unicode="&#x639;" horiz-adv-x="590" arabic-form="medial" 
d="M610 41l-20 -41h-38q-68 0 -123 20t-104 60q-69 -37 -146.5 -58.5t-141.5 -21.5h-37l-20 41l27 41h15q59 0 122.5 14t122.5 39l-30 32q-42 45 -77.5 78t-88.5 72l9 82q108 43 220 43q111 0 162 -35t51 -102q0 -49 -31.5 -95.5t-86.5 -85.5q37 -25 73 -33.5t102 -8.5h28z
M256 245q51 -51 80 -76q51 30 80.5 63t29.5 64q0 33 -35.5 49t-110.5 16q-65 0 -146 -23q37 -28 102 -93z" />
    <glyph glyph-name="uniFECE" unicode="&#x63a;" horiz-adv-x="567" arabic-form="final" 
d="M551 -233l32 -72q-97 -58 -246 -58q-101 0 -168.5 32.5t-99 87.5t-31.5 124q0 186 187 271l-18 18q-38 40 -74.5 74t-89.5 74l11 82q108 42 223 42t165.5 -34.5t50.5 -102.5q0 -55 -33 -96t-101 -77q41 -30 77.5 -40t106.5 -10h31l13 -40l-20 -42h-41q-70 0 -126 22.5
t-117 74.5q-97 -45 -137 -91.5t-40 -112.5q0 -77 61 -124.5t178 -47.5t206 46zM192 282q32 -30 38 -36q36 -36 68 -64q68 30 98.5 55.5t30.5 60.5q0 32 -36 47.5t-114 15.5q-67 0 -150 -23q33 -26 65 -56zM258.5 534q-14.5 15 -14.5 36q0 22 14.5 36.5t36.5 14.5t36.5 -14.5
t14.5 -36.5q0 -21 -14.5 -36t-36.5 -15t-36.5 15z" />
    <glyph glyph-name="uniFECF" unicode="&#x63a;" horiz-adv-x="567" arabic-form="initial" 
d="M551 54q-135 -33 -227 -43.5t-201 -10.5h-123l-20 41l27 41h98q52 0 75 1q-52 37 -78.5 86t-26.5 97q0 49 25.5 92.5t76.5 70.5t122 27q86 0 155 -37l-36 -78q-29 16 -61 23.5t-58 7.5q-73 0 -110 -33t-37 -81q0 -99 133 -169q52 5 108 15.5t148 31.5zM260.5 536
q-14.5 15 -14.5 36q0 22 14.5 36.5t36.5 14.5t36.5 -14.5t14.5 -36.5q0 -21 -14.5 -36t-36.5 -15t-36.5 15z" />
    <glyph glyph-name="uniFED0" unicode="&#x63a;" horiz-adv-x="590" arabic-form="medial" 
d="M610 41l-20 -41h-38q-68 0 -123 20t-104 60q-69 -37 -146.5 -58.5t-141.5 -21.5h-37l-20 41l27 41h15q59 0 122.5 14t122.5 39l-30 32q-42 45 -77.5 78t-88.5 72l9 82q108 43 220 43q111 0 162 -35t51 -102q0 -49 -31.5 -95.5t-86.5 -85.5q37 -25 73 -33.5t102 -8.5h28z
M256 245q51 -51 80 -76q51 30 80.5 63t29.5 64q0 33 -35.5 49t-110.5 16q-65 0 -146 -23q37 -28 102 -93zM260.5 535q-14.5 15 -14.5 36q0 22 14.5 36.5t36.5 14.5t36.5 -14.5t14.5 -36.5q0 -21 -14.5 -36t-36.5 -15t-36.5 15z" />
    <glyph glyph-name="uniFED2" unicode="&#x641;" horiz-adv-x="963" arabic-form="final" 
d="M983 41l-20 -41h-46q-51 0 -103 12t-99 34q-139 -60 -379 -60q-105 0 -168.5 21.5t-92 66t-28.5 114.5q0 38 9.5 79.5t27.5 78.5l57 -19q-22 -66 -22 -127q0 -48 21.5 -76.5t69.5 -41.5t132 -13q173 0 288 28q-47 37 -73.5 83t-26.5 97q0 52 24 99t65.5 76t89.5 29
q55 0 98 -28.5t66.5 -75.5t23.5 -100q0 -50 -23 -97t-73 -86q55 -12 116 -12h51zM628.5 188q30.5 -39 83.5 -64q117 51 117 153q0 50 -33 86t-83 36q-49 0 -82 -35.5t-33 -86.5q0 -50 30.5 -89zM670.5 561q-14.5 15 -14.5 36q0 22 14.5 36.5t36.5 14.5t36.5 -14.5
t14.5 -36.5q0 -21 -14.5 -36t-36.5 -15t-36.5 15z" />
    <glyph glyph-name="uniFED3" unicode="&#x641;" horiz-adv-x="470" arabic-form="initial" 
d="M319 530q44 -33 69 -97t25 -153q0 -111 -40.5 -171.5t-128.5 -84.5t-244 -24l-20 42l27 40q128 0 198 13.5t100.5 41.5t37.5 77q-39 -33 -118 -33q-57 0 -101 23.5t-68 65t-24 93.5q0 54 25 100t68 73t95 27q55 0 99 -33zM138.5 282q39.5 -32 114.5 -32q22 0 47.5 4.5
t45.5 11.5q0 110 -33.5 163t-92.5 53q-53 0 -87 -32.5t-34 -81.5q0 -54 39.5 -86zM180.5 644q-14.5 15 -14.5 36q0 22 14.5 36.5t36.5 14.5t36.5 -14.5t14.5 -36.5q0 -21 -14.5 -36t-36.5 -15t-36.5 15z" />
    <glyph glyph-name="uniFED4" unicode="&#x641;" horiz-adv-x="509" arabic-form="medial" 
d="M529 41l-20 -41h-47q-103 0 -201 45q-98 -45 -222 -45h-39l-20 41l27 41h42q71 0 129 13q-48 37 -75 83.5t-27 98.5t24 99t65.5 76t89.5 29q55 0 98 -28.5t66.5 -75.5t23.5 -100q0 -48 -26.5 -95.5t-74.5 -86.5q56 -13 120 -13h52zM175.5 187q31.5 -39 86.5 -65
q53 25 83 64t30 91q0 50 -33 86t-83 36q-49 0 -82 -35.5t-33 -86.5t31.5 -90zM216.5 560q-14.5 15 -14.5 36q0 22 14.5 36.5t36.5 14.5t36.5 -14.5t14.5 -36.5q0 -21 -14.5 -36t-36.5 -15t-36.5 15z" />
    <glyph glyph-name="uniFED6" unicode="&#x642;" horiz-adv-x="777" arabic-form="final" 
d="M777 0h-84q-16 -127 -90.5 -191.5t-233.5 -64.5q-170 0 -246 62.5t-76 181.5q0 97 46 193l57 -17q-28 -80 -28 -164q0 -83 58 -128.5t197 -45.5q127 0 182.5 46t68.5 128h-70q-123 0 -181 49.5t-58 133.5q0 54 25 99.5t68 72.5t95 27q55 0 98.5 -33t68.5 -97t25 -154v-16
h85l13 -40zM633 82v2q0 111 -33.5 164.5t-92.5 53.5q-53 0 -87 -32.5t-34 -81.5q0 -106 157 -106h90zM398 489q-14 14 -14 34t14.5 34t33.5 14q20 0 34 -14t14 -34t-14 -34t-34 -14t-34 14zM549 489q-14 14 -14 34t14 34t34 14t34 -14t14 -34t-14 -34t-34 -14t-34 14z" />
    <glyph glyph-name="uniFED7" unicode="&#x642;" horiz-adv-x="470" arabic-form="initial" 
d="M319 530q44 -33 69 -97t25 -153q0 -111 -40.5 -171.5t-128.5 -84.5t-244 -24l-20 42l27 40q128 0 198 13.5t100.5 41.5t37.5 77q-39 -33 -118 -33q-57 0 -101 23.5t-68 65t-24 93.5q0 54 25 100t68 73t95 27q55 0 99 -33zM138.5 282q39.5 -32 114.5 -32q22 0 47.5 4.5
t45.5 11.5q0 110 -33.5 163t-92.5 53q-53 0 -87 -32.5t-34 -81.5q0 -54 39.5 -86zM110 671q-14 14 -14 34t14.5 34t33.5 14q20 0 34 -14t14 -34t-14 -34t-34 -14t-34 14zM261 671q-14 14 -14 34t14 34t34 14t34 -14t14 -34t-14 -34t-34 -14t-34 14z" />
    <glyph glyph-name="uniFED8" unicode="&#x642;" horiz-adv-x="509" arabic-form="medial" 
d="M529 41l-20 -41h-47q-103 0 -201 45q-98 -45 -222 -45h-39l-20 41l27 41h42q71 0 129 13q-48 37 -75 83.5t-27 98.5t24 99t65.5 76t89.5 29q55 0 98 -28.5t66.5 -75.5t23.5 -100q0 -48 -26.5 -95.5t-74.5 -86.5q56 -13 120 -13h52zM175.5 187q31.5 -39 86.5 -65
q53 25 83 64t30 91q0 50 -33 86t-83 36q-49 0 -82 -35.5t-33 -86.5t31.5 -90zM146 587q-14 14 -14 34t14.5 34t33.5 14q20 0 34 -14t14 -34t-14 -34t-34 -14t-34 14zM297 587q-14 14 -14 34t14 34t34 14t34 -14t14 -34t-14 -34t-34 -14t-34 14z" />
    <glyph glyph-name="uniFEDA" unicode="&#x643;" horiz-adv-x="834" arabic-form="final" 
d="M854 43l-20 -43q-48 0 -79 19t-57 58q-69 -46 -154.5 -68.5t-207.5 -22.5q-105 0 -168.5 21.5t-92 66t-28.5 114.5q0 38 9.5 79.5t27.5 78.5l57 -19q-22 -66 -22 -127q0 -48 21.5 -76.5t70 -41.5t132.5 -13q99 0 180.5 21t142.5 59v607l77 10v-577q0 -55 20 -81t78 -26z
M436 359q0 16 -23 27.5t-91 25.5l10 55l165 97l-4 -59l-105 -60q55 -16 78 -36t23 -50q0 -49 -54.5 -68.5t-134.5 -19.5l-8 52q144 0 144 36z" />
    <glyph glyph-name="uniFEDB" unicode="&#x643;" horiz-adv-x="464" arabic-form="initial" 
d="M413 680l-327 -198q107 -47 165.5 -89t80.5 -84t22 -95q0 -105 -89 -159.5t-265 -54.5l-20 41l27 41q152 0 213.5 36t61.5 105q0 34 -22 64.5t-83.5 68.5t-175.5 86l17 78l400 247z" />
    <glyph glyph-name="uniFEDC" unicode="&#x643;" horiz-adv-x="548" arabic-form="medial" 
d="M568 43l-20 -43q-60 0 -105.5 15t-88 53t-90.5 107q-2 -79 -71 -127t-193 -48l-20 41l27 41q97 0 144.5 30t47.5 84q0 62 -65 144l-84 105l17 74l399 248l-4 -87l-340 -205l180 -225q62 -79 95 -111.5t66.5 -44.5t91.5 -12z" />
    <glyph glyph-name="uniFEDE" unicode="&#x644;" horiz-adv-x="705" arabic-form="final" 
d="M705 0q-62 0 -95 33q-13 -136 -92 -190.5t-210 -54.5q-134 0 -197.5 65t-63.5 179q0 97 46 193l57 -17q-28 -80 -28 -164q0 -80 45.5 -127t148.5 -47q81 0 129 22t69.5 67.5t21.5 120.5v673l76 9v-570q0 -63 23 -86.5t78 -23.5l12 -39z" />
    <glyph glyph-name="uniFEDF" unicode="&#x644;" horiz-adv-x="240" arabic-form="initial" 
d="M-20 41l27 41q45 0 64 26t19 89v556l77 9v-569q0 -111 -42.5 -152t-124.5 -41z" />
    <glyph glyph-name="uniFEE0" unicode="&#x644;" horiz-adv-x="250" arabic-form="medial" 
d="M270 41l-20 -41q-85 0 -124 60q-20 -35 -51 -47.5t-75 -12.5l-20 41l27 41q36 0 53 10.5t22 30t5 53.5v577l76 10v-587q0 -49 22 -71.5t72 -22.5z" />
    <glyph glyph-name="uniFEE2" unicode="&#x645;" horiz-adv-x="711" arabic-form="final" 
d="M731 43l-20 -43q-53 0 -87 17.5t-49 49.5q-20 -39 -50.5 -60t-70.5 -21q-49 0 -93.5 20.5t-101.5 57.5q-32 21 -50.5 31t-32.5 10q-31 0 -41 -27.5t-10 -81.5q0 -103 45 -328l-85 -13q-19 105 -28.5 182.5t-9.5 151.5q0 97 28 153.5t88 56.5q15 0 31 -6
q53 123 110.5 176.5t130.5 53.5q47 0 85 -27t59.5 -77t21.5 -117v-10v0q0 -63 26 -86.5t91 -23.5zM509.5 105q23.5 34 23.5 96q0 66 -30.5 101.5t-80.5 35.5q-47 0 -83.5 -40t-82.5 -139l19 -13q54 -36 92.5 -55.5t78.5 -19.5t63.5 34z" />
    <glyph glyph-name="uniFEE3" unicode="&#x645;" horiz-adv-x="603" arabic-form="initial" 
d="M466 396q38 -27 59.5 -77.5t21.5 -117.5q0 -101 -39.5 -158t-107.5 -57q-98 0 -235 99q-52 -85 -155 -85h-10l-20 41l27 41h16q35 0 60.5 22.5t54.5 85.5q42 91 78 141t74.5 71t90.5 21q47 0 85 -27zM456 106.5q23 35.5 23 94.5q0 65 -30.5 101t-80.5 36q-33 0 -58 -14
t-51 -53t-61 -116q69 -43 115 -63.5t82 -20.5q38 0 61 35.5z" />
    <glyph glyph-name="uniFEE4" unicode="&#x645;" horiz-adv-x="656" arabic-form="medial" 
d="M676 43l-20 -43q-51 0 -85.5 17.5t-49.5 48.5q-19 -39 -50 -59.5t-71 -20.5q-98 0 -235 99q-52 -85 -155 -85h-10l-20 41l27 41h16q35 0 60.5 22.5t54.5 85.5q42 91 78 141t74.5 71t90.5 21q47 0 85 -27t59.5 -77.5t21.5 -117.5v-9v0q0 -63 25.5 -86.5t91.5 -23.5z
M456 106.5q23 35.5 23 94.5q0 65 -30.5 101t-80.5 36q-33 0 -58 -14t-51 -53t-61 -116q69 -43 115 -63.5t82 -20.5q38 0 61 35.5z" />
    <glyph glyph-name="uniFEE6" unicode="&#x646;" horiz-adv-x="731" arabic-form="final" 
d="M731 0q-70 0 -111 38q-3 -108 -39 -173t-103 -93t-170 -28q-134 0 -197.5 65t-63.5 179q0 97 46 193l57 -17q-28 -80 -28 -164q0 -80 45.5 -127t148.5 -47q85 0 135 22.5t72.5 71t22.5 130.5q0 56 -15 108t-49 129l84 34q12 -44 22 -73l13 -42q22 -72 53 -98t84 -26
l13 -41zM275.5 342q-14.5 15 -14.5 36q0 22 14.5 36.5t36.5 14.5t36.5 -14.5t14.5 -36.5q0 -21 -14.5 -36t-36.5 -15t-36.5 15z" />
    <glyph glyph-name="uniFEE7" unicode="&#x646;" horiz-adv-x="287" arabic-form="initial" 
d="M101 91.5q31 9.5 42.5 30.5t11.5 61q0 39 -11.5 87.5t-34.5 114.5l79 25q20 -60 31 -122.5t11 -108.5q0 -70 -20.5 -108t-69.5 -54.5t-140 -16.5l-20 41l27 41q63 0 94 9.5zM86.5 493q-14.5 15 -14.5 36q0 22 14.5 36.5t36.5 14.5t36.5 -14.5t14.5 -36.5q0 -21 -14.5 -36
t-36.5 -15t-36.5 15z" />
    <glyph glyph-name="uniFEE8" unicode="&#x646;" horiz-adv-x="341" arabic-form="medial" 
d="M361 41l-20 -41q-67 0 -106 17t-63 60q-22 -44 -61.5 -60.5t-110.5 -16.5l-20 41l28 41q59 0 85.5 12.5t32.5 35t6 68.5v136h77v-136q0 -44 10 -68t40 -36t90 -12zM131.5 428q-14.5 15 -14.5 36q0 22 14.5 36.5t36.5 14.5t36.5 -14.5t14.5 -36.5q0 -21 -14.5 -36
t-36.5 -15t-36.5 15z" />
    <glyph glyph-name="uniFEEA" unicode="&#x647;" horiz-adv-x="510" arabic-form="final" 
d="M530 40l-20 -40h-19q-52 0 -89.5 25t-55.5 78q-26 -31 -67 -49.5t-85 -18.5q-76 0 -122.5 41.5t-46.5 108.5q0 56 37 104.5t107.5 80.5t167.5 38v98l77 9v-318q0 -65 21 -90t64 -25h18zM279.5 127.5q33.5 15.5 57.5 41.5v164q-80 -3 -133.5 -23t-79.5 -50.5t-26 -66.5
q0 -38 26.5 -59.5t81.5 -21.5q40 0 73.5 15.5z" />
    <glyph glyph-name="uniFEEB" unicode="&#x647;" horiz-adv-x="639" arabic-form="initial" 
d="M423 378.5q87 -58.5 123 -105t36 -104.5q0 -48 -23.5 -90t-61.5 -67.5t-81 -25.5q-105 0 -194 49q-84 -35 -194 -35h-28l-20 41l27 41h17q60 0 120 10q-39 38 -60.5 84.5t-21.5 96.5q0 58 29.5 103t78.5 63l-70 39l42 72q194 -113 281 -171.5zM150 187q29 -40 79 -68
q51 24 78 61.5t27 87.5q0 51 -31.5 85t-76.5 34t-75 -33t-30 -84q0 -43 29 -83zM489 92q29 23 29 59q0 35 -29 71t-101 85q4 -16 4 -34q0 -55 -22 -103t-65 -84q54 -17 111 -17q44 0 73 23z" />
    <glyph glyph-name="uniFEEC" unicode="&#x647;" horiz-adv-x="481" arabic-form="medial" 
d="M481 0h-118q71 -47 71 -135q0 -61 -37 -98.5t-100 -37.5q-62 0 -113 34.5t-82.5 96t-35.5 140.5h-66l-20 41l27 41h58q4 97 38 177.5t87.5 127.5t114.5 47q63 0 100 -41t37 -118q0 -50 -27 -104.5t-74 -88.5h147l13 -41zM218.5 318q-36.5 -34 -61.5 -95.5t-31 -140.5h55
q54 0 97 26.5t67 69t24 88.5q0 42 -19.5 64t-56.5 22q-38 0 -74.5 -34zM345.5 -167.5q19.5 20.5 19.5 51.5q0 53 -41.5 84.5t-109.5 31.5h-88q8 -88 52.5 -138t109.5 -50q38 0 57.5 20.5z" />
    <glyph glyph-name="uniFEEE" unicode="&#x648;" horiz-adv-x="536" arabic-form="final" 
d="M536 0h-104q-25 -105 -109.5 -170.5t-250.5 -99.5l-25 79q140 30 214 76t99 115h-78q-104 0 -161 51.5t-57 133.5q0 53 25 99t68 73t95 27q55 0 98.5 -32.5t68 -94t24.5 -145.5q0 -20 -1 -30h102l12 -40zM376 82v17q0 101 -33 152t-92 51q-52 0 -85.5 -32.5t-33.5 -80.5
q0 -107 157 -107h87z" />
    <glyph glyph-name="uniFEF0" unicode="&#x649;" horiz-adv-x="734" arabic-form="final" 
d="M734 0q-49 0 -87 18q7 -21 7 -36q0 -51 -39.5 -95.5t-117.5 -72t-189 -27.5q-134 0 -197.5 65t-63.5 179q0 99 46 193l57 -17q-28 -78 -28 -164q0 -80 45.5 -126.5t148.5 -46.5q84 0 145 18.5t92 46t31 53.5q0 19 -15 33.5t-52 29.5t-106 35l36 72q23 -7 86 -29
q71 -25 115 -36t93 -11l13 -41z" />
    <glyph glyph-name="uniFEF2" unicode="&#x64a;" horiz-adv-x="734" arabic-form="final" 
d="M734 0q-49 0 -87 18q7 -21 7 -36q0 -51 -39.5 -95.5t-117.5 -72t-189 -27.5q-134 0 -197.5 65t-63.5 179q0 99 46 193l57 -17q-28 -78 -28 -164q0 -80 45.5 -126.5t148.5 -46.5q84 0 145 18.5t92 46t31 53.5q0 19 -15 33.5t-52 29.5t-106 35l36 72q23 -7 86 -29
q71 -25 115 -36t93 -11l13 -41zM206.5 -376q-14.5 14 -14.5 34t14 34t34 14t34 -14t14 -34t-14 -34t-34 -14q-19 0 -33.5 14zM357 -376q-14 14 -14 34t14 34t34 14t34 -14t14 -34t-14 -34t-34 -14t-34 14z" />
    <glyph glyph-name="uniFEF3" unicode="&#x64a;" horiz-adv-x="287" arabic-form="initial" 
d="M101 91.5q31 9.5 42.5 30.5t11.5 61q0 39 -11.5 87.5t-34.5 114.5l79 25q20 -60 31 -122.5t11 -108.5q0 -70 -20.5 -108t-69.5 -54.5t-140 -16.5l-20 41l27 41q63 0 94 9.5zM27.5 -177q-14.5 14 -14.5 34t14 34t34 14t34 -14t14 -34t-14 -34t-34 -14q-19 0 -33.5 14z
M178 -177q-14 14 -14 34t14 34t34 14t34 -14t14 -34t-14 -34t-34 -14t-34 14z" />
    <glyph glyph-name="uniFEF4" unicode="&#x64a;" horiz-adv-x="341" arabic-form="medial" 
d="M361 41l-20 -41q-67 0 -106 17t-63 60q-22 -44 -61.5 -60.5t-110.5 -16.5l-20 41l28 41q59 0 85.5 12.5t32.5 35t6 68.5v136h77v-136q0 -44 10 -68t40 -36t90 -12zM61.5 -177q-14.5 14 -14.5 34t14 34t34 14t34 -14t14 -34t-14 -34t-34 -14q-19 0 -33.5 14zM212 -177
q-14 14 -14 34t14 34t34 14t34 -14t14 -34t-14 -34t-34 -14t-34 14z" />
    <glyph glyph-name=".notdef" horiz-adv-x="666" 
d="M543 -350h-420v1400h420v-1400zM178 998v-1296h311v1296h-311zM409.5 419q25.5 -32 25.5 -83q0 -53 -22.5 -82t-72.5 -36v-45q0 -11 -7.5 -17.5t-17.5 -6.5t-17.5 6.5t-7.5 17.5v84q53 3 72 19.5t19 57.5q0 33 -13 51t-48 18q-29 0 -52 -11q-8 -3 -13 -3q-11 0 -17.5 6.5
t-6.5 16.5q0 19 29.5 29t63.5 10q60 0 85.5 -32zM340 110q10 -10 10 -25q0 -16 -10 -26.5t-25 -10.5t-25 10.5t-10 26.5q0 15 10 25t25 10t25 -10z" />
    <glyph glyph-name=".null" 
 />
    <glyph glyph-name="nonmarkingreturn" unicode="&#xd;" horiz-adv-x="268" 
 />
    <glyph glyph-name="space" unicode=" " horiz-adv-x="268" 
 />
    <glyph glyph-name="exclam" unicode="!" horiz-adv-x="241" 
d="M157 227h-75l-9 461h92zM166.5 98.5q18.5 -18.5 18.5 -45.5t-18.5 -46t-46.5 -19q-27 0 -45.5 19t-18.5 46q0 26 18.5 45t45.5 19q28 0 46.5 -18.5z" />
    <glyph glyph-name="quotedbl" unicode="&#x22;" horiz-adv-x="390" 
d="M63 688h90l-14 -259h-63zM238 688h90l-14 -259h-63z" />
    <glyph glyph-name="numbersign" unicode="#" horiz-adv-x="515" 
d="M423 448l-29 -217h69v-64h-77l-22 -167h-72l22 167h-161l-22 -167h-72l22 167h-66v64h74l29 217h-66v65h75l20 155h72l-20 -155h161l20 155h72l-20 -155h68v-65h-77zM322 231l29 217h-161l-29 -217h161z" />
    <glyph glyph-name="dollar" unicode="$" horiz-adv-x="530" 
d="M438 56.5q-48 -51.5 -133 -64.5v-146h-73v142q-122 7 -204 86l50 54q73 -70 173 -70q64 0 106 32.5t42 91.5q0 35 -13 58t-44.5 40.5t-90.5 35.5q-103 31 -149.5 74t-46.5 116q0 69 49 116t128 55v146h73v-146q49 -6 87 -24t74 -51l-49 -53q-34 32 -70.5 46t-80.5 14
q-55 0 -89.5 -26t-34.5 -73q0 -31 12.5 -51t44 -37t91.5 -35q63 -20 104.5 -42.5t66.5 -61.5t25 -98q0 -77 -48 -128.5z" />
    </font>
</defs>
</svg>
