<?xml version="1.0" standalone="no"?>
<!DOCTYPE svg PUBLIC "-//W3C//DTD SVG 1.1//EN" "http://www.w3.org/Graphics/SVG/1.1/DTD/svg11.dtd" >
<svg xmlns="http://www.w3.org/2000/svg" xmlns:xlink="http://www.w3.org/1999/xlink" version="1.1">
<metadata>
Created by FontForge 20170731 at Fri Jul 23 10:07:16 2021
 By Aleksey,,,
Copyright (c) 2017 by Lewis MacDonald. All rights reserved.
</metadata>
<defs>
<font id="Chromatica-Medium" horiz-adv-x="1120" >
  <font-face 
    font-family="Chromatica Medium"
    font-weight="600"
    font-stretch="normal"
    units-per-em="2048"
    panose-1="0 0 7 0 0 0 0 0 0 0"
    ascent="1638"
    descent="-410"
    x-height="1022"
    cap-height="1434"
    bbox="-72 -553 2359 1700"
    underline-thickness="176"
    underline-position="-380"
    unicode-range="U+0020-2212"
  />
<missing-glyph horiz-adv-x="1566" 
d="M1174 1434h186v-1434h-186v614h-781v-614h-186v1434h186v-615h781v615z" />
    <glyph glyph-name=".notdef" horiz-adv-x="1566" 
d="M1174 1434h186v-1434h-186v614h-781v-614h-186v1434h186v-615h781v615z" />
    <glyph glyph-name=".null" horiz-adv-x="0" 
 />
    <glyph glyph-name="nonmarkingreturn" horiz-adv-x="682" 
 />
    <glyph glyph-name="space" unicode=" " horiz-adv-x="704" 
 />
    <glyph glyph-name="exclam" unicode="!" horiz-adv-x="735" 
d="M461 1434v-895h-189v895h189zM362 274q65 0 107.5 -41t42.5 -104q0 -64 -42.5 -106.5t-107.5 -42.5q-64 0 -106.5 42t-42.5 107q0 63 42 104t107 41z" />
    <glyph glyph-name="quotedbl" unicode="&#x22;" horiz-adv-x="1005" 
d="M424 1434l-16 -504h-164l-17 504h197zM778 1434l-16 -504h-164l-16 504h196z" />
    <glyph glyph-name="numbersign" unicode="#" horiz-adv-x="1789" 
d="M1620 909h-346l-12 -383h344l-7 -176h-344l-12 -350h-180l12 350h-387l-12 -350h-178l12 350h-344l6 176h344l12 383h-342l7 174h342l12 351h178l-12 -351h387l12 351h180l-12 -351h346zM1081 526l13 383h-387l-13 -383h387z" />
    <glyph glyph-name="dollar" unicode="$" horiz-adv-x="1136" 
d="M1030 395q0 -159 -101.5 -269t-266.5 -138l4 -254h-187l4 250q-236 33 -397 225l139 131q148 -176 338 -176q116 0 195.5 64.5t79.5 162.5q0 67 -41 117.5t-129 97.5l-252 135q-128 68 -189 151.5t-61 192.5q0 138 87.5 237t231.5 124l-6 254h187l-4 -254
q185 -27 327 -172l-121 -137q-66 66 -142.5 100.5t-150.5 34.5q-93 0 -154 -50.5t-61 -129.5q0 -58 39.5 -102.5t128.5 -92.5l250 -135q130 -70 191 -159.5t61 -207.5z" />
    <glyph glyph-name="percent" unicode="%" horiz-adv-x="1820" 
d="M453 756q-151 0 -252 99t-101 249q0 149 101 249.5t252 100.5q152 0 254 -100.5t102 -249.5q0 -150 -101.5 -249t-254.5 -99zM307 0l1000 1434h206l-1001 -1434h-205zM453 920q82 0 133 51t51 133t-51 133t-133 51q-80 0 -132.5 -51.5t-52.5 -132.5t52.5 -132.5
t132.5 -51.5zM1366 -20q-152 0 -253 99.5t-101 248.5q0 151 101 250.5t253 99.5t253 -99.5t101 -250.5q0 -149 -101 -248.5t-253 -99.5zM1364 145q83 0 134.5 51.5t51.5 131.5q0 82 -51.5 134t-134.5 52q-80 0 -131 -52t-51 -134q0 -80 51.5 -131.5t130.5 -51.5z" />
    <glyph glyph-name="ampersand" unicode="&#x26;" horiz-adv-x="1454" 
d="M1364 647l-320 -342l273 -305h-234l-157 176q-185 -196 -408 -196q-174 0 -287.5 105t-113.5 269q0 115 63 206.5t193 172.5l33 21l-15 16q-160 176 -160 342q0 147 103.5 244.5t257.5 97.5t256 -96t102 -242q0 -214 -245 -366l-37 -23l260 -291l315 338zM532 879l27 -31
l49 31q84 52 124 106.5t40 122.5q0 80 -51.5 132t-130.5 52q-75 0 -125.5 -51t-50.5 -127q0 -104 118 -235zM524 162q153 0 285 143l-293 328l-55 -35q-156 -95 -156 -233q0 -87 62 -145t157 -58z" />
    <glyph glyph-name="quotesingle" unicode="'" horiz-adv-x="651" 
d="M424 1434l-16 -504h-164l-17 504h197z" />
    <glyph glyph-name="parenleft" unicode="(" horiz-adv-x="919" 
d="M813 -23l-55 -176q-295 109 -464 338.5t-169 522.5q0 294 169 523.5t464 338.5l55 -178q-232 -86 -364 -268t-132 -416q0 -233 132 -415t364 -270z" />
    <glyph glyph-name="parenright" unicode=")" horiz-adv-x="919" 
d="M106 -23q232 88 364 270t132 415q0 234 -132 416t-364 268l56 178q295 -109 464 -338.5t169 -523.5q0 -293 -169 -522.5t-464 -338.5z" />
    <glyph glyph-name="asterisk" unicode="*" horiz-adv-x="1193" 
d="M1047 1036l-318 -90l205 -262l-152 -111l-186 279l-186 -277l-152 111l203 260l-316 90l58 178l311 -112l-12 332h188l-12 -332l311 115z" />
    <glyph glyph-name="plus" unicode="+" 
d="M989 748v-185h-332v-334h-184v334h-344v185h344v342h184v-342h332z" />
    <glyph glyph-name="comma" unicode="," horiz-adv-x="684" 
d="M348 274q65 0 110.5 -46t45.5 -134q0 -86 -49 -177.5t-160 -205.5l-102 84q99 101 143 205q-50 -11 -93.5 29t-43.5 102q0 60 42.5 101.5t106.5 41.5z" />
    <glyph glyph-name="hyphen" unicode="-" horiz-adv-x="923" 
d="M793 748v-185h-664v185h664z" />
    <glyph glyph-name="period" unicode="." horiz-adv-x="661" 
d="M330 274q65 0 107 -41t42 -104q0 -65 -42.5 -107t-106.5 -42q-65 0 -107.5 42.5t-42.5 106.5q0 63 42.5 104t107.5 41z" />
    <glyph glyph-name="slash" unicode="/" horiz-adv-x="909" 
d="M45 0l619 1434h200l-618 -1434h-201z" />
    <glyph glyph-name="zero" unicode="0" horiz-adv-x="1370" 
d="M686 -20q-249 0 -395 198.5t-146 538.5t146 538.5t395 198.5t395 -198.5t146 -538.5t-146 -538.5t-395 -198.5zM686 168q161 0 254.5 147.5t93.5 401.5t-93.5 401.5t-254.5 147.5t-255.5 -148t-94.5 -401t94.5 -401t255.5 -148z" />
    <glyph glyph-name="one" unicode="1" horiz-adv-x="837" 
d="M610 1434v-1434h-188v1247h-328v187h516z" />
    <glyph glyph-name="two" unicode="2" horiz-adv-x="1198" 
d="M111 0l583 715q75 92 110.5 162.5t35.5 144.5q0 110 -69 178t-177 68q-123 0 -194.5 -84t-73.5 -221l-191 14q0 213 127 345t332 132q194 0 317 -117t123 -299q0 -109 -49 -209.5t-143 -212.5l-361 -430h574l2 -186h-946z" />
    <glyph glyph-name="three" unicode="3" horiz-adv-x="1202" 
d="M831 748q106 -50 165 -140.5t59 -208.5q0 -180 -132 -299.5t-331 -119.5q-206 0 -337.5 127t-131.5 329l188 10q1 -127 77.5 -204.5t201.5 -77.5q120 0 196 71t76 181t-77.5 174.5t-209.5 64.5h-36v183h36q120 0 188 56t68 153q0 98 -67.5 160.5t-171.5 62.5
q-110 0 -180.5 -68t-71.5 -184l-188 10q0 188 122.5 307t315.5 119q189 0 311.5 -111t122.5 -280q0 -103 -50 -184t-143 -131z" />
    <glyph glyph-name="four" unicode="4" horiz-adv-x="1366" 
d="M1274 715v-187h-393v-528h-189v528h-575l188 906h189l-156 -719h354v448h189v-448h393z" />
    <glyph glyph-name="five" unicode="5" horiz-adv-x="1253" 
d="M629 922q215 0 355 -132.5t140 -336.5q0 -203 -141.5 -338t-355.5 -135q-210 0 -346 128.5t-136 327.5l189 15q1 -127 84 -207t211 -80q130 0 214.5 81t84.5 206q0 128 -87.5 207t-226.5 79q-153 0 -260 -98l-151 70l49 725h784v-185h-620l-33 -391q109 64 246 64z" />
    <glyph glyph-name="six" unicode="6" horiz-adv-x="1200" 
d="M629 924q122 0 227.5 -60t169.5 -167t64 -236q0 -206 -140.5 -343.5t-351.5 -137.5q-206 0 -344.5 132t-138.5 330q0 86 34 183.5t117 238.5l355 600l167 -80l-284 -477q70 17 125 17zM598 168q129 0 214 82.5t85 208.5t-84.5 208.5t-212.5 82.5q-126 0 -210.5 -84.5
t-84.5 -210.5q0 -124 83.5 -205.5t209.5 -81.5z" />
    <glyph glyph-name="seven" unicode="7" horiz-adv-x="1165" 
d="M1071 1434l-491 -1434h-199l430 1247h-717v187h977z" />
    <glyph glyph-name="eight" unicode="8" horiz-adv-x="1255" 
d="M881 743q108 -51 169.5 -140t61.5 -204q0 -176 -138.5 -297.5t-346.5 -121.5q-206 0 -345 121.5t-139 297.5q0 114 61.5 204t170.5 140q-95 48 -149 130.5t-54 185.5q0 167 131 281t326 114q196 0 325 -114.5t129 -280.5q0 -103 -53.5 -185.5t-148.5 -130.5zM627 1276
q-114 0 -189.5 -64t-75.5 -161t75.5 -161.5t189.5 -64.5q115 0 190.5 64.5t75.5 161.5t-75.5 161t-190.5 64zM627 158q127 0 212 71.5t85 178.5q0 106 -85 176.5t-212 70.5q-126 0 -210.5 -70.5t-84.5 -176.5q0 -107 84.5 -178.5t210.5 -71.5z" />
    <glyph glyph-name="nine" unicode="9" horiz-adv-x="1200" 
d="M602 1454q206 0 344.5 -132.5t138.5 -330.5q0 -86 -34 -183.5t-117 -238.5l-354 -600l-168 80l284 477q-66 -16 -125 -16q-187 0 -323.5 134t-136.5 329q0 206 140 343.5t351 137.5zM303 975q0 -126 84.5 -208.5t212.5 -82.5q126 0 210.5 84.5t84.5 210.5
q0 124 -83.5 205.5t-209.5 81.5q-129 0 -214 -82.5t-85 -208.5z" />
    <glyph glyph-name="colon" unicode=":" horiz-adv-x="716" 
d="M358 889q65 0 107.5 -41.5t42.5 -104.5q0 -64 -42.5 -106.5t-107.5 -42.5q-64 0 -106.5 42t-42.5 107q0 63 42.5 104.5t106.5 41.5zM358 274q65 0 107.5 -41t42.5 -104q0 -64 -42.5 -106.5t-107.5 -42.5q-64 0 -106.5 42t-42.5 107q0 63 42 104t107 41z" />
    <glyph glyph-name="semicolon" unicode=";" horiz-adv-x="731" 
d="M373 594q-65 0 -107.5 42.5t-42.5 106.5q0 63 42.5 104.5t107.5 41.5q64 0 106.5 -41.5t42.5 -104.5q0 -65 -42 -107t-107 -42zM365 274q65 0 110 -46t45 -134q0 -86 -49 -177.5t-160 -205.5l-102 84q99 101 143 205q-50 -11 -93.5 29t-43.5 102q0 60 43 101.5t107 41.5z
" />
    <glyph glyph-name="less" unicode="&#x3c;" horiz-adv-x="1142" 
d="M971 1122v-221l-631 -244l631 -245v-222l-860 367v199z" />
    <glyph glyph-name="equal" unicode="=" 
d="M989 946v-184h-860v184h860zM989 549v-184h-860v184h860z" />
    <glyph glyph-name="greater" unicode="&#x3e;" horiz-adv-x="1142" 
d="M172 1122l860 -366v-199l-860 -367v222l631 245l-631 244v221z" />
    <glyph glyph-name="question" unicode="?" horiz-adv-x="993" 
d="M465 1454q168 0 277.5 -94t109.5 -238q0 -118 -75.5 -206.5t-209.5 -133.5l-2 -243h-190v358q127 14 204.5 71t77.5 140q0 70 -55 113t-145 43q-131 0 -242 -97l-94 158q145 129 344 129zM467 274q65 0 107 -41t42 -104q0 -65 -42 -107t-107 -42t-107.5 42.5t-42.5 106.5
q0 63 42.5 104t107.5 41z" />
    <glyph glyph-name="at" unicode="@" horiz-adv-x="1808" 
d="M1098 950h172v-424q0 -61 30.5 -96t81.5 -35q71 0 111.5 72t40.5 184q0 165 -80 298t-220.5 208.5t-313.5 75.5q-181 0 -328.5 -83t-231.5 -229.5t-84 -326.5q0 -183 80.5 -329.5t225.5 -230t329 -83.5q253 0 494 162l74 -142q-254 -180 -561 -180q-175 0 -326.5 61
t-258 167.5t-167 255t-60.5 319.5q0 168 62.5 316.5t170 254t259.5 167t324 61.5q163 0 308 -56t248.5 -153t163.5 -233.5t60 -291.5q0 -191 -88.5 -307t-235.5 -116q-142 0 -221 102q-44 -71 -119 -109.5t-166 -38.5q-163 0 -269.5 112t-106.5 278t106.5 276.5t263.5 110.5
q144 0 232 -101v84zM1098 502v200q-32 49 -85.5 76t-115.5 27q-100 0 -165.5 -64t-65.5 -161q0 -96 66 -161t163 -65q59 0 113.5 27.5t93.5 75.5q-4 28 -4 45z" />
    <glyph glyph-name="A" unicode="A" horiz-adv-x="1556" 
d="M1286 0l-180 432h-657l-181 -432h-200l620 1446h178l625 -1446h-205zM524 612h506l-252 609z" />
    <glyph glyph-name="B" unicode="B" horiz-adv-x="1298" 
d="M950 748q108 -43 168 -134t60 -217q0 -183 -121.5 -290t-327.5 -107h-522v1434h491q197 0 312.5 -101t115.5 -272q0 -105 -46 -185t-130 -128zM393 1255v-430h307q114 0 177 57t63 160q0 100 -63 156.5t-177 56.5h-307zM731 178q122 0 192 63t70 173t-70 172.5t-192 62.5
h-338v-471h338z" />
    <glyph glyph-name="C" unicode="C" horiz-adv-x="1521" 
d="M1278 1067q-73 92 -183.5 143.5t-242.5 51.5q-155 0 -281.5 -71t-198 -196.5t-71.5 -279.5q0 -153 71 -277t197 -195t281 -71q144 0 262.5 60.5t194.5 164.5l145 -131q-104 -133 -260 -209.5t-342 -76.5q-208 0 -378.5 96.5t-268 265t-97.5 373.5q0 207 98 376.5t269 266
t379 96.5q169 0 314.5 -65t248.5 -181z" />
    <glyph glyph-name="D" unicode="D" horiz-adv-x="1501" 
d="M207 0v1434h477q150 0 282 -55t226 -149.5t148.5 -228t54.5 -284.5t-54.5 -284.5t-148.5 -228t-226 -149.5t-282 -55h-477zM395 184h285q231 0 378.5 149.5t147.5 383.5t-147.5 383t-378.5 149h-285v-1065z" />
    <glyph glyph-name="E" unicode="E" horiz-adv-x="1146" 
d="M207 0v1434h792v-185h-604v-405h588v-187h-588v-473h604v-184h-792z" />
    <glyph glyph-name="F" unicode="F" horiz-adv-x="1105" 
d="M207 0v1434h792v-185h-604v-446h586v-185h-586v-618h-188z" />
    <glyph glyph-name="G" unicode="G" horiz-adv-x="1581" 
d="M913 834h539v-578q-104 -128 -260 -202t-342 -74q-208 0 -378.5 96.5t-268 265t-97.5 373.5q0 207 98 376.5t269 266t379 96.5q169 0 314.5 -65t248.5 -181l-137 -141q-73 92 -183.5 143.5t-242.5 51.5q-155 0 -281.5 -71t-198 -196.5t-71.5 -279.5q0 -153 71 -277
t197 -195t281 -71q126 0 232 44.5t182 123.5v307h-351v187z" />
    <glyph glyph-name="H" unicode="H" horiz-adv-x="1568" 
d="M1362 1434v-1434h-188v657h-779v-657h-188v1434h188v-590h779v590h188z" />
    <glyph glyph-name="I" unicode="I" horiz-adv-x="602" 
d="M395 1434v-1434h-188v1434h188z" />
    <glyph glyph-name="J" unicode="J" horiz-adv-x="1218" 
d="M1042 1434v-961q0 -219 -133 -356t-346 -137q-215 0 -350.5 135.5t-140.5 353.5l188 14q4 -141 88 -228t213 -87q131 0 212 84.5t81 220.5v961h188z" />
    <glyph glyph-name="K" unicode="K" horiz-adv-x="1337" 
d="M1266 0h-226l-469 741l-176 -184v-557h-188v1434h188v-631l578 631h258l-524 -551z" />
    <glyph glyph-name="L" unicode="L" horiz-adv-x="1134" 
d="M395 1434v-1250h668v-184h-856v1434h188z" />
    <glyph glyph-name="M" unicode="M" horiz-adv-x="1808" 
d="M1358 1434h246v-1434h-191v1153l-420 -1030h-178l-420 1026v-1149h-188v1434h244l454 -1098z" />
    <glyph glyph-name="N" unicode="N" horiz-adv-x="1609" 
d="M1405 0h-148l-862 1094v-1094h-188v1434h149l861 -1094v1094h188v-1434z" />
    <glyph glyph-name="O" unicode="O" horiz-adv-x="1703" 
d="M852 -20q-209 0 -380 96t-268.5 265t-97.5 376t98.5 376t270.5 265t381 96q156 0 293.5 -57t235.5 -154.5t155 -234.5t57 -291t-57.5 -291t-156.5 -234.5t-237 -154.5t-294 -57zM852 172q235 0 392 156t157 389t-156 389t-389 156q-156 0 -283.5 -71t-199.5 -196
t-72 -278q0 -233 157.5 -389t393.5 -156z" />
    <glyph glyph-name="P" unicode="P" horiz-adv-x="1275" 
d="M207 0v1434h500q220 0 350.5 -122.5t130.5 -328.5t-131 -329.5t-350 -123.5h-312v-530h-188zM395 719h305q137 0 215 70t78 194t-78 193t-215 69h-305v-526z" />
    <glyph glyph-name="Q" unicode="Q" horiz-adv-x="1701" 
d="M1597 717q0 -262 -155 -458t-402 -257l60 -332l-187 -30l-59 340h-2q-209 0 -380 96t-268.5 265t-97.5 376t98.5 376t270.5 265t381 96q156 0 293.5 -57t235.5 -154.5t155 -234.5t57 -291zM852 172q235 0 392 156t157 389t-156 389t-389 156q-156 0 -283.5 -71
t-199.5 -196t-72 -278q0 -233 157.5 -389t393.5 -156z" />
    <glyph glyph-name="R" unicode="R" horiz-adv-x="1329" 
d="M1225 0h-224l-331 543h-275v-543h-188v1434h500q220 0 350.5 -121t130.5 -324q0 -159 -82 -271t-229 -153zM395 1251v-526h307q137 0 215 69.5t78 194.5q0 124 -78 193t-215 69h-307z" />
    <glyph glyph-name="S" unicode="S" horiz-adv-x="1118" 
d="M563 1454q115 0 223 -47t193 -133l-121 -137q-66 66 -142.5 100.5t-150.5 34.5q-93 0 -154 -50.5t-61 -129.5q0 -58 39.5 -102.5t128.5 -92.5l250 -135q130 -70 191 -159.5t61 -207.5q0 -183 -132 -299t-335 -116q-135 0 -258.5 57t-218.5 172l139 131q148 -176 338 -176
q116 0 195 64t79 163q0 67 -41 117.5t-129 97.5l-251 135q-128 68 -189 151.5t-61 192.5q0 160 113.5 264.5t293.5 104.5z" />
    <glyph glyph-name="T" unicode="T" horiz-adv-x="1179" 
d="M1108 1434v-185h-424v-1249h-188v1249h-424v185h1036z" />
    <glyph glyph-name="U" unicode="U" horiz-adv-x="1517" 
d="M758 -20q-267 0 -427.5 156.5t-160.5 418.5v879h188v-881q0 -178 108.5 -281.5t293.5 -103.5t292 103.5t107 281.5v881h189v-879q0 -261 -161 -418t-429 -157z" />
    <glyph glyph-name="V" unicode="V" horiz-adv-x="1470" 
d="M651 0l-583 1434h211l458 -1160l459 1160h207l-582 -1434h-170z" />
    <glyph glyph-name="W" unicode="W" horiz-adv-x="1931" 
d="M487 0l-407 1434h199l284 -1076l330 1010h149l328 -1012l287 1078h194l-405 -1434h-127l-352 1049l-353 -1049h-127z" />
    <glyph glyph-name="X" unicode="X" horiz-adv-x="1370" 
d="M82 0l493 723l-485 711h229l365 -549l367 549h227l-485 -711l495 -723h-229l-373 559l-375 -559h-229z" />
    <glyph glyph-name="Y" unicode="Y" horiz-adv-x="1304" 
d="M1247 1434l-502 -752v-682h-188v686l-500 748h230l364 -560l367 560h229z" />
    <glyph glyph-name="Z" unicode="Z" horiz-adv-x="1177" 
d="M1071 1434l-665 -1248h661v-186h-975l664 1247h-631v187h946z" />
    <glyph glyph-name="bracketleft" unicode="[" horiz-adv-x="905" 
d="M782 1325h-389v-1325h389v-182h-575v1689h575v-182z" />
    <glyph glyph-name="backslash" unicode="\" horiz-adv-x="909" 
d="M864 0h-200l-619 1434h201z" />
    <glyph glyph-name="bracketright" unicode="]" horiz-adv-x="905" 
d="M698 1507v-1689h-575v182h389v1325h-389v182h575z" />
    <glyph glyph-name="underscore" unicode="_" horiz-adv-x="1396" 
d="M1182 -123v-184h-969v184h969z" />
    <glyph glyph-name="a" unicode="a" horiz-adv-x="1302" 
d="M938 1022h186v-1022h-186v125q-121 -145 -330 -145q-144 0 -262 69.5t-185 192t-67 272.5q0 227 146 377.5t366 150.5q209 0 332 -141v121zM633 164q97 0 178.5 45t126.5 121v366q-45 76 -127 119t-178 43q-151 0 -250.5 -98.5t-99.5 -247.5t100.5 -248.5t249.5 -99.5z
" />
    <glyph glyph-name="b" unicode="b" horiz-adv-x="1318" 
d="M715 1042q220 0 366 -150.5t146 -377.5q0 -150 -67 -272.5t-185 -192t-262 -69.5q-209 0 -332 147v-127h-186v1536h186v-637q125 143 334 143zM688 164q149 0 249.5 99.5t100.5 248.5t-99.5 247.5t-250.5 98.5q-97 0 -179 -44t-128 -122v-358q45 -78 127 -124t180 -46z
" />
    <glyph glyph-name="c" unicode="c" horiz-adv-x="1138" 
d="M913 721q-101 131 -278 131q-150 0 -250 -97.5t-100 -244.5q0 -146 99.5 -243t248.5 -97q95 0 174 41t127 111l145 -127q-76 -100 -194 -157.5t-254 -57.5q-229 0 -385 152.5t-156 377.5q0 112 42.5 211t115 169t173 111t212.5 41q125 0 234.5 -48.5t181.5 -135.5z" />
    <glyph glyph-name="d" unicode="d" horiz-adv-x="1318" 
d="M938 1536h186v-1536h-186v127q-123 -147 -332 -147q-144 0 -262 69.5t-185 192t-67 272.5q0 227 146 377.5t366 150.5q209 0 334 -143v637zM631 164q98 0 180 46t127 124v358q-46 78 -128 122t-179 44q-151 0 -250.5 -98.5t-99.5 -247.5t100.5 -248.5t249.5 -99.5z" />
    <glyph glyph-name="e" unicode="e" horiz-adv-x="1206" 
d="M1116 516l-2 -43h-844q14 -137 116.5 -223t254.5 -86q87 0 164.5 35t163.5 116l123 -141q-103 -100 -211 -147t-232 -47q-241 0 -400 152t-159 382q0 226 152 377t374 151q218 0 359 -148.5t141 -377.5zM614 872q-117 0 -206 -66t-123 -175h637q-30 112 -111 176.5
t-197 64.5z" />
    <glyph glyph-name="f" unicode="f" horiz-adv-x="808" 
d="M442 1022h301v-184h-301v-838h-186v838h-186v184h186v160q0 174 93 274t257 100q81 0 146 -26l-43 -176q-45 18 -93 18q-80 0 -127 -52.5t-47 -141.5v-156z" />
    <glyph glyph-name="g" unicode="g" horiz-adv-x="1337" 
d="M958 1022h187v-1092q0 -214 -142 -348.5t-360 -134.5q-139 0 -253 58t-182 161.5t-75 233.5l186 22q11 -127 101.5 -210t226.5 -83q134 0 222.5 83.5t88.5 217.5v203q-128 -125 -325 -125q-145 0 -263 68t-184.5 187t-66.5 265q0 221 146.5 367.5t369.5 146.5
q198 0 323 -122v102zM657 193q96 0 175.5 40.5t125.5 110.5v365q-47 70 -127.5 109.5t-173.5 39.5q-149 0 -249.5 -94.5t-100.5 -235.5q0 -143 100.5 -239t249.5 -96z" />
    <glyph glyph-name="h" unicode="h" horiz-adv-x="1243" 
d="M723 1044q175 0 275 -111t100 -312v-621h-187v608q0 122 -60.5 187t-170.5 65q-89 0 -171.5 -41.5t-127.5 -113.5v-705h-186v1536h186v-645q58 77 148 115t194 38z" />
    <glyph glyph-name="i" unicode="i" horiz-adv-x="585" 
d="M289 1524q64 0 106.5 -41.5t42.5 -104.5q0 -64 -42 -106.5t-107 -42.5t-107.5 42.5t-42.5 106.5q0 63 42.5 104.5t107.5 41.5zM201 0v1022h186v-1022h-186z" />
    <glyph glyph-name="j" unicode="j" horiz-adv-x="626" 
d="M326 1524q64 0 106.5 -41.5t42.5 -104.5q0 -64 -42.5 -106.5t-106.5 -42.5q-65 0 -107.5 42.5t-42.5 106.5q0 63 42.5 104.5t107.5 41.5zM238 1022h186v-1057q0 -174 -93 -274.5t-257 -100.5q-79 0 -146 27l43 176q45 -18 92 -18q80 0 127.5 52.5t47.5 141.5v1053z" />
    <glyph glyph-name="k" unicode="k" horiz-adv-x="1204" 
d="M1141 0h-223l-334 516l-203 -197v-319h-186v1536h186v-985l475 471h250l-385 -373z" />
    <glyph glyph-name="l" unicode="l" horiz-adv-x="575" 
d="M195 0v1536h186v-1536h-186z" />
    <glyph glyph-name="m" unicode="m" horiz-adv-x="1810" 
d="M1288 1044q173 0 274 -111.5t101 -311.5v-621h-186v602q0 123 -53.5 190.5t-151.5 67.5q-80 0 -151.5 -42t-110.5 -113q4 -54 4 -84v-621h-187v602q0 123 -53.5 190.5t-150.5 67.5q-79 0 -150.5 -40.5t-110.5 -110.5v-709h-186v1022h186v-125q51 68 135.5 107.5
t178.5 39.5q186 0 276 -153q56 71 144.5 112t191.5 41z" />
    <glyph glyph-name="n" unicode="n" horiz-adv-x="1226" 
d="M705 1044q175 0 274.5 -111t99.5 -312v-621h-186v608q0 122 -60.5 187t-170.5 65q-89 0 -172 -41.5t-128 -113.5v-705h-186v1022h186v-131q58 77 148.5 115t194.5 38z" />
    <glyph glyph-name="o" unicode="o" horiz-adv-x="1257" 
d="M631 1042q230 0 383 -151.5t153 -378.5q0 -150 -69.5 -271.5t-192.5 -191t-274 -69.5q-152 0 -276 69.5t-194.5 191.5t-70.5 271q0 227 154.5 378.5t386.5 151.5zM631 858q-151 0 -251.5 -98.5t-100.5 -247.5t100.5 -248.5t251.5 -99.5q149 0 249.5 99.5t100.5 248.5
t-100 247.5t-250 98.5z" />
    <glyph glyph-name="p" unicode="p" horiz-adv-x="1318" 
d="M715 1042q220 0 366 -150.5t146 -377.5q0 -150 -67 -272.5t-185 -192t-262 -69.5q-209 0 -332 147v-659h-186v1554h186v-123q125 143 334 143zM688 164q149 0 249.5 99.5t100.5 248.5t-99.5 247.5t-250.5 98.5q-97 0 -179 -44t-128 -122v-358q45 -78 127 -124t180 -46z
" />
    <glyph glyph-name="q" unicode="q" horiz-adv-x="1318" 
d="M938 1022h186v-1554h-186v659q-123 -147 -332 -147q-144 0 -262 69.5t-185 192t-67 272.5q0 227 146 377.5t366 150.5q209 0 334 -143v123zM631 164q98 0 180 46t127 124v358q-46 78 -128 122t-179 44q-151 0 -250.5 -98.5t-99.5 -247.5t100.5 -248.5t249.5 -99.5z" />
    <glyph glyph-name="r" unicode="r" horiz-adv-x="829" 
d="M768 852q-114 0 -234 -60t-172 -151v-641h-186v1022h186v-176q65 93 174.5 145.5t229.5 52.5z" />
    <glyph glyph-name="s" unicode="s" horiz-adv-x="907" 
d="M453 -20q-223 0 -383 165l125 134q118 -121 268 -121q75 0 121.5 35.5t46.5 91.5q0 73 -103 123l-202 98q-195 91 -195 254q0 122 88.5 202t235.5 80q95 0 182.5 -35.5t150.5 -99.5l-114 -129q-98 92 -215 92q-62 0 -101 -28.5t-39 -73.5q0 -35 27 -63t86 -56l197 -94
q190 -84 190 -262q0 -141 -103.5 -227t-262.5 -86z" />
    <glyph glyph-name="t" unicode="t" horiz-adv-x="1036" 
d="M840 270l118 -139q-82 -79 -158.5 -115t-172.5 -36q-166 0 -263.5 95.5t-97.5 264.5v498h-200v184h200v358h187v-358h469v-184h-469v-488q0 -91 46.5 -138.5t125.5 -47.5q59 0 107.5 25.5t107.5 80.5z" />
    <glyph glyph-name="u" unicode="u" horiz-adv-x="1226" 
d="M864 1022h187v-1022h-187v131q-58 -77 -148 -115.5t-194 -38.5q-175 0 -275 111.5t-100 312.5v621h187v-608q0 -122 60.5 -187t170.5 -65q89 0 171.5 41.5t127.5 113.5v705z" />
    <glyph glyph-name="v" unicode="v" horiz-adv-x="1204" 
d="M944 1022h207l-455 -1022h-186l-455 1022h207l340 -797z" />
    <glyph glyph-name="w" unicode="w" horiz-adv-x="1671" 
d="M1403 1022h199l-308 -1022h-182l-276 745l-277 -745h-182l-307 1022h204l213 -776l267 755h170l264 -757z" />
    <glyph glyph-name="x" unicode="x" horiz-adv-x="1181" 
d="M63 0l416 530l-385 492h236l262 -348l258 348h237l-387 -492l418 -530h-237l-291 387l-291 -387h-236z" />
    <glyph glyph-name="y" unicode="y" horiz-adv-x="1138" 
d="M885 1022h202l-774 -1554h-204l356 714l-414 840h213l305 -631z" />
    <glyph glyph-name="z" unicode="z" horiz-adv-x="1052" 
d="M414 182h542v-182h-868l539 842l-516 -2v182h839z" />
    <glyph glyph-name="braceleft" unicode="{" horiz-adv-x="933" 
d="M315 627q105 -12 151.5 -95.5t8.5 -195.5l-43 -127q-29 -89 13 -147t137 -58h229v-186h-238q-196 0 -288 117t-37 298l35 123q24 80 -14.5 123t-139.5 58v251q102 12 141 55.5t15 123.5l-39 125q-55 181 37.5 298t289.5 117h238v-186h-229q-95 0 -137 -58t-13 -147
l43 -133q37 -108 -9 -191t-151 -92v-73z" />
    <glyph glyph-name="bar" unicode="|" horiz-adv-x="598" 
d="M393 1434v-1844h-186v1844h186z" />
    <glyph glyph-name="braceright" unicode="}" horiz-adv-x="933" 
d="M618 627v73q-105 9 -150.5 92t-8.5 191l43 133q29 89 -13 147t-137 58h-229v186h237q197 0 290 -117t38 -298l-39 -125q-24 -80 15 -123.5t141 -55.5v-251q-101 -15 -139.5 -58t-14.5 -123l35 -123q55 -181 -37.5 -298t-288.5 -117h-237v186h229q95 0 137 58t13 147
l-43 127q-38 112 8 195.5t151 95.5z" />
    <glyph glyph-name="cent" unicode="&#xa2;" horiz-adv-x="1189" 
d="M1100 195q-65 -84 -160.5 -139t-206.5 -70l4 -252h-186l4 254q-195 32 -319.5 177t-124.5 345q0 199 125 345t319 179l-4 254h186l-6 -252q101 -12 188.5 -58.5t149.5 -119.5l-135 -137q-48 62 -120 96.5t-159 34.5q-150 0 -250 -97.5t-100 -244.5q0 -146 99.5 -243
t248.5 -97q95 0 174 41t127 111z" />
    <glyph glyph-name="sterling" unicode="&#xa3;" horiz-adv-x="1347" 
d="M412 184h811v-184h-1014l51 565h-147v162h163l25 277q18 203 139 326.5t314 123.5q196 0 321.5 -124t130.5 -322l-186 -13q-5 122 -79 197.5t-191 75.5q-113 0 -182 -72.5t-81 -191.5l-26 -277h481v-162h-496z" />
    <glyph glyph-name="yen" unicode="&#xa5;" horiz-adv-x="1368" 
d="M1284 1434l-453 -678h291v-142h-340v-204h340v-144h-340v-266h-188v266h-369v144h369v204h-369v142h322l-453 678h230l364 -560l367 560h229z" />
    <glyph glyph-name="periodcentered" unicode="&#xb7;" horiz-adv-x="659" 
d="M328 791q64 0 106.5 -41.5t42.5 -104.5q0 -65 -42.5 -107t-106.5 -42q-65 0 -107.5 42.5t-42.5 106.5q0 63 42.5 104.5t107.5 41.5z" />
    <glyph glyph-name="multiply" unicode="&#xd7;" horiz-adv-x="983" 
d="M862 422l-131 -131l-233 235l-246 -245l-131 131l246 245l-244 242l131 131l244 -242l231 232l131 -131l-231 -232z" />
    <glyph glyph-name="divide" unicode="&#xf7;" 
d="M563 1186q65 0 107.5 -41.5t42.5 -104.5q0 -64 -42.5 -106.5t-107.5 -42.5t-107 42.5t-42 106.5q0 63 42.5 104.5t106.5 41.5zM989 748v-185h-860v185h860zM563 416q65 0 107.5 -41.5t42.5 -104.5q0 -64 -42.5 -106.5t-107.5 -42.5t-107 42.5t-42 106.5q0 63 42.5 104.5
t106.5 41.5z" />
    <glyph glyph-name="endash" unicode="&#x2013;" 
d="M989 748v-185h-860v185h860z" />
    <glyph glyph-name="emdash" unicode="&#x2014;" horiz-adv-x="1359" 
d="M1231 748v-185h-1102v185h1102z" />
    <glyph glyph-name="quoteleft" unicode="&#x2018;" horiz-adv-x="600" 
d="M305 1165q50 11 93.5 -29t43.5 -102q0 -60 -42.5 -101.5t-106.5 -41.5q-65 0 -110.5 46t-45.5 134q0 86 49 177.5t160 205.5l103 -84q-100 -103 -144 -205z" />
    <glyph glyph-name="quoteright" unicode="&#x2019;" horiz-adv-x="600" 
d="M305 1454q65 0 110.5 -46t45.5 -134q0 -86 -49 -177.5t-160 -205.5l-102 84q99 101 143 205q-50 -11 -93.5 29t-43.5 102q0 60 42.5 101.5t106.5 41.5z" />
    <glyph glyph-name="quotedblleft" unicode="&#x201c;" horiz-adv-x="997" 
d="M346 1454l103 -84q-100 -103 -144 -205q50 11 93.5 -29t43.5 -102q0 -60 -42.5 -101.5t-106.5 -41.5q-65 0 -110.5 46t-45.5 134q0 86 49 177.5t160 205.5zM705 1165q50 11 93.5 -29t43.5 -102q0 -60 -43 -101.5t-107 -41.5q-65 0 -110 46t-45 134q0 87 49 178.5
t159 204.5l103 -84q-99 -101 -143 -205z" />
    <glyph glyph-name="quotedblright" unicode="&#x201d;" horiz-adv-x="997" 
d="M305 1454q65 0 110.5 -46t45.5 -134q0 -86 -49 -177.5t-160 -205.5l-102 84q99 101 143 205q-50 -11 -93.5 29t-43.5 102q0 60 42.5 101.5t106.5 41.5zM705 1454q65 0 110 -46t45 -134q0 -86 -49 -177.5t-160 -205.5l-102 84q99 101 143 205q-50 -11 -93.5 29t-43.5 102
q0 60 43 101.5t107 41.5z" />
    <glyph glyph-name="bullet" unicode="&#x2022;" horiz-adv-x="1058" 
d="M530 1004q148 0 251.5 -102t103.5 -247t-103.5 -246.5t-251.5 -101.5t-252 101.5t-104 246.5t104 247t252 102z" />
    <glyph glyph-name="Euro" unicode="&#x20ac;" horiz-adv-x="1671" 
d="M1454 397l145 -131q-104 -133 -260 -209.5t-342 -76.5q-257 0 -451 144.5t-261 377.5h-170v141h143q-4 46 -4 72t4 76h-143v141h170q68 233 262.5 377.5t451.5 144.5q169 0 315 -65t249 -181l-138 -141q-73 92 -183.5 143.5t-242.5 51.5q-176 0 -312 -89.5t-198 -240.5
h644v-141h-680q-4 -50 -4 -76t4 -72h573v-141h-537q61 -150 196.5 -240t311.5 -90q144 0 262.5 60.5t194.5 164.5z" />
    <glyph glyph-name="uni2116" unicode="&#x2116;" horiz-adv-x="2463" 
d="M1978 700q-163 0 -272 107.5t-109 267.5q0 163 109 271t272 108t272 -108t109 -271q0 -160 -109 -267.5t-272 -107.5zM1405 0h-148l-862 1094v-1094h-188v1434h149l861 -1094v1094h188v-1434zM1978 885q85 0 140 54t55 136q0 84 -55.5 139.5t-139.5 55.5q-82 0 -137 -56
t-55 -139q0 -82 55 -136t137 -54zM1978 508q65 0 107.5 -41.5t42.5 -104.5q0 -64 -42.5 -106.5t-107.5 -42.5q-64 0 -106.5 42.5t-42.5 106.5q0 63 42.5 104.5t106.5 41.5z" />
    <glyph glyph-name="minus" unicode="&#x2212;" 
d="M989 748v-185h-860v185h860z" />
    <glyph glyph-name="M.001" horiz-adv-x="1765" 
d="M1559 1440v-1440h-189v1161l-487 -502l-488 500v-1159h-188v1440h160l516 -518l516 518h160z" />
    </font>
</defs>
</svg>
