<?xml version="1.0" standalone="no"?>
<!DOCTYPE svg PUBLIC "-//W3C//DTD SVG 1.1//EN" "http://www.w3.org/Graphics/SVG/1.1/DTD/svg11.dtd" >
<svg xmlns="http://www.w3.org/2000/svg" xmlns:xlink="http://www.w3.org/1999/xlink" version="1.1">
<metadata>
Created by FontForge 20170731 at Thu Feb 26 12:15:06 2009
 By Aleksey,,,
Copyright (c) BPG-IntoTech, 2009. All rights reserved.
</metadata>
<defs>
<font id="BPGMrgvlovani" horiz-adv-x="0" >
  <font-face 
    font-family="BPG Mrgvlovani"
    font-weight="400"
    font-stretch="normal"
    units-per-em="2048"
    panose-1="2 11 6 3 3 8 4 2 2 4"
    ascent="1556"
    descent="-492"
    x-height="1120"
    cap-height="1493"
    bbox="-1023 -1034 2768 2123"
    underline-thickness="143"
    underline-position="-426"
    unicode-range="U+0020-FFFD"
  />
<missing-glyph horiz-adv-x="1229" 
d="M102 -362v1806h1024v-1806h-1024zM217 -248h795v1577h-795v-1577z" />
    <glyph glyph-name=".notdef" horiz-adv-x="1229" 
d="M102 -362v1806h1024v-1806h-1024zM217 -248h795v1577h-795v-1577z" />
    <glyph glyph-name=".null" 
 />
    <glyph glyph-name="nonmarkingreturn" horiz-adv-x="682" 
 />
    <glyph glyph-name="space" unicode=" " horiz-adv-x="651" 
 />
    <glyph glyph-name="exclam" unicode="!" horiz-adv-x="821" 
d="M309 254h203v-254h-203v254zM309 1493h203v-655l-20 -357h-162l-21 357v655z" />
    <glyph glyph-name="quotedbl" unicode="&#x22;" horiz-adv-x="942" 
d="M367 1493v-555h-170v555h170zM745 1493v-555h-170v555h170z" />
    <glyph glyph-name="numbersign" unicode="#" horiz-adv-x="1716" 
d="M1047 901h-291l-84 -334h293zM897 1470l-104 -415h292l105 415h160l-103 -415h312v-154h-351l-82 -334h318v-153h-357l-104 -414h-160l103 414h-293l-103 -414h-161l104 414h-315v153h352l84 334h-322v154h361l102 415h162z" />
    <glyph glyph-name="dollar" unicode="$" horiz-adv-x="1303" 
d="M692 -301h-100l-1 301q-105 2 -210 24.5t-211 67.5v180q102 -64 206.5 -96.5t215.5 -33.5v456q-221 36 -321.5 122t-100.5 236q0 163 109 257t313 108v235h100v-232q93 -4 180 -19.5t170 -42.5v-175q-83 42 -170.5 65t-179.5 27v-427q227 -35 334 -125t107 -246
q0 -169 -113.5 -266.5t-327.5 -112.5v-303zM592 770v410q-116 -13 -177 -66t-61 -141q0 -86 56.5 -134t181.5 -69zM692 578v-433q127 17 191.5 72t64.5 145q0 88 -61.5 140t-194.5 76z" />
    <glyph glyph-name="percent" unicode="%" horiz-adv-x="1946" 
d="M1489 657q-87 0 -136.5 -74t-49.5 -206q0 -130 49.5 -204.5t136.5 -74.5q85 0 134.5 74.5t49.5 204.5q0 131 -49.5 205.5t-134.5 74.5zM1489 784q158 0 251 -110t93 -297t-93.5 -296.5t-250.5 -109.5q-160 0 -253 109.5t-93 296.5q0 188 93.5 297.5t252.5 109.5z
M457 1393q-86 0 -135.5 -74.5t-49.5 -204.5q0 -132 49 -206t136 -74t136.5 74t49.5 206q0 129 -50 204t-136 75zM1360 1520h160l-934 -1549h-160zM457 1520q158 0 252 -109.5t94 -296.5q0 -189 -93.5 -298t-252.5 -109t-251.5 109.5t-92.5 297.5q0 186 93 296t251 110z" />
    <glyph glyph-name="ampersand" unicode="&#x26;" horiz-adv-x="1597" 
d="M498 803q-91 -81 -133.5 -161.5t-42.5 -168.5q0 -146 106 -243t266 -97q95 0 178 31.5t156 95.5zM639 915l508 -520q59 89 92 190.5t39 215.5h186q-12 -132 -64 -261t-145 -255l279 -285h-252l-143 147q-104 -89 -218 -132.5t-245 -43.5q-241 0 -394 137.5t-153 352.5
q0 128 67 240.5t201 211.5q-48 63 -73 125.5t-25 122.5q0 162 111 260.5t295 98.5q83 0 165.5 -18t167.5 -54v-182q-87 47 -166 71.5t-147 24.5q-105 0 -170.5 -55.5t-65.5 -143.5q0 -51 29.5 -102.5t120.5 -145.5z" />
    <glyph glyph-name="quotesingle" unicode="'" horiz-adv-x="563" 
d="M367 1493v-555h-170v555h170z" />
    <glyph glyph-name="parenleft" unicode="(" horiz-adv-x="799" 
d="M635 1554q-134 -230 -199 -455t-65 -456t65.5 -457.5t198.5 -455.5h-160q-150 235 -224.5 462t-74.5 451q0 223 74 449t225 462h160z" />
    <glyph glyph-name="parenright" unicode=")" horiz-adv-x="799" 
d="M164 1554h160q150 -236 224.5 -462t74.5 -449q0 -224 -74.5 -451t-224.5 -462h-160q133 229 198.5 455.5t65.5 457.5t-65.5 456t-198.5 455z" />
    <glyph glyph-name="asterisk" unicode="*" horiz-adv-x="1024" 
d="M963 1247l-359 -194l359 -195l-58 -98l-336 203v-377h-114v377l-336 -203l-58 98l359 195l-359 194l58 99l336 -203v377h114v-377l336 203z" />
    <glyph glyph-name="plus" unicode="+" horiz-adv-x="1716" 
d="M942 1284v-557h557v-170h-557v-557h-168v557h-557v170h557v557h168z" />
    <glyph glyph-name="comma" unicode="," horiz-adv-x="651" 
d="M240 254h211v-172l-164 -320h-129l82 320v172z" />
    <glyph glyph-name="hyphen" unicode="-" horiz-adv-x="739" 
d="M100 643h539v-164h-539v164z" />
    <glyph glyph-name="period" unicode="." horiz-adv-x="651" 
d="M219 254h211v-254h-211v254z" />
    <glyph glyph-name="slash" unicode="/" horiz-adv-x="690" 
d="M520 1493h170l-520 -1683h-170z" />
    <glyph glyph-name="zero" unicode="0" horiz-adv-x="1303" 
d="M651 1360q-156 0 -234.5 -153.5t-78.5 -461.5q0 -307 78.5 -460.5t234.5 -153.5q157 0 235.5 153.5t78.5 460.5q0 308 -78.5 461.5t-235.5 153.5zM651 1520q251 0 383.5 -198.5t132.5 -576.5q0 -377 -132.5 -575.5t-383.5 -198.5t-383.5 198.5t-132.5 575.5
q0 378 132.5 576.5t383.5 198.5z" />
    <glyph glyph-name="one" unicode="1" horiz-adv-x="1303" 
d="M254 170h330v1139l-359 -72v184l357 72h202v-1323h330v-170h-860v170z" />
    <glyph glyph-name="two" unicode="2" horiz-adv-x="1303" 
d="M393 170h705v-170h-948v170q115 119 313.5 319.5t249.5 258.5q97 109 135.5 184.5t38.5 148.5q0 119 -83.5 194t-217.5 75q-95 0 -200.5 -33t-225.5 -100v204q122 49 228 74t194 25q232 0 370 -116t138 -310q0 -92 -34.5 -174.5t-125.5 -194.5q-25 -29 -159 -167.5
t-378 -387.5z" />
    <glyph glyph-name="three" unicode="3" horiz-adv-x="1303" 
d="M831 805q145 -31 226.5 -129t81.5 -242q0 -221 -152 -342t-432 -121q-94 0 -193.5 18.5t-205.5 55.5v195q84 -49 184 -74t209 -25q190 0 289.5 75t99.5 218q0 132 -92.5 206.5t-257.5 74.5h-174v166h182q149 0 228 59.5t79 171.5q0 115 -81.5 176.5t-233.5 61.5
q-83 0 -178 -18t-209 -56v180q115 32 215.5 48t189.5 16q230 0 364 -104.5t134 -282.5q0 -124 -71 -209.5t-202 -118.5z" />
    <glyph glyph-name="four" unicode="4" horiz-adv-x="1303" 
d="M774 1317l-510 -797h510v797zM721 1493h254v-973h213v-168h-213v-352h-201v352h-674v195z" />
    <glyph glyph-name="five" unicode="5" horiz-adv-x="1303" 
d="M221 1493h793v-170h-608v-366q44 15 88 22.5t88 7.5q250 0 396 -137t146 -371q0 -241 -150 -374.5t-423 -133.5q-94 0 -191.5 16t-201.5 48v203q90 -49 186 -73t203 -24q173 0 274 91t101 247t-101 247t-274 91q-81 0 -161.5 -18t-164.5 -56v750z" />
    <glyph glyph-name="six" unicode="6" horiz-adv-x="1303" 
d="M676 827q-136 0 -215.5 -93t-79.5 -255q0 -161 79.5 -254.5t215.5 -93.5t215.5 93.5t79.5 254.5q0 162 -79.5 255t-215.5 93zM1077 1460v-184q-76 36 -153.5 55t-153.5 19q-200 0 -305.5 -135t-120.5 -408q59 87 148 133.5t196 46.5q225 0 355.5 -136.5t130.5 -371.5
q0 -230 -136 -369t-362 -139q-259 0 -396 198.5t-137 575.5q0 354 168 564.5t451 210.5q76 0 153.5 -15t161.5 -45z" />
    <glyph glyph-name="seven" unicode="7" horiz-adv-x="1303" 
d="M168 1493h960v-86l-542 -1407h-211l510 1323h-717v170z" />
    <glyph glyph-name="eight" unicode="8" horiz-adv-x="1303" 
d="M651 709q-144 0 -226.5 -77t-82.5 -212t82.5 -212t226.5 -77t227 77.5t83 211.5q0 135 -82.5 212t-227.5 77zM449 795q-130 32 -202.5 121t-72.5 217q0 179 127.5 283t349.5 104q223 0 350 -104t127 -283q0 -128 -72.5 -217t-201.5 -121q146 -34 227.5 -133t81.5 -242
q0 -217 -132.5 -333t-379.5 -116t-379.5 116t-132.5 333q0 143 82 242t228 133zM375 1114q0 -116 72.5 -181t203.5 -65q130 0 203.5 65t73.5 181t-73.5 181t-203.5 65q-131 0 -203.5 -65t-72.5 -181z" />
    <glyph glyph-name="nine" unicode="9" horiz-adv-x="1303" 
d="M225 31v184q76 -36 154 -55t153 -19q200 0 305.5 134.5t120.5 408.5q-58 -86 -147 -132t-197 -46q-224 0 -354.5 135.5t-130.5 370.5q0 230 136 369t362 139q259 0 395.5 -198.5t136.5 -576.5q0 -353 -167.5 -563.5t-450.5 -210.5q-76 0 -154 15t-162 45zM627 664
q136 0 215.5 93t79.5 255q0 161 -79.5 254.5t-215.5 93.5t-215.5 -93.5t-79.5 -254.5q0 -162 79.5 -255t215.5 -93z" />
    <glyph glyph-name="colon" unicode=":" horiz-adv-x="690" 
d="M240 254h211v-254h-211v254zM240 1059h211v-254h-211v254z" />
    <glyph glyph-name="semicolon" unicode=";" horiz-adv-x="690" 
d="M240 1059h211v-254h-211v254zM240 254h211v-172l-164 -320h-129l82 320v172z" />
    <glyph glyph-name="less" unicode="&#x3c;" horiz-adv-x="1716" 
d="M1499 1008l-1032 -367l1032 -365v-182l-1282 465v166l1282 465v-182z" />
    <glyph glyph-name="equal" unicode="=" horiz-adv-x="1716" 
d="M217 930h1282v-168h-1282v168zM217 522h1282v-170h-1282v170z" />
    <glyph glyph-name="greater" unicode="&#x3e;" horiz-adv-x="1716" 
d="M217 1008v182l1282 -465v-166l-1282 -465v182l1030 365z" />
    <glyph glyph-name="question" unicode="?" horiz-adv-x="1087" 
d="M391 254h203v-254h-203v254zM588 401h-191v154q0 101 28 166t118 151l90 89q57 53 82.5 100t25.5 96q0 89 -65.5 144t-173.5 55q-79 0 -168.5 -35t-186.5 -102v188q94 57 190.5 85t199.5 28q184 0 295.5 -97t111.5 -256q0 -76 -36 -144.5t-126 -154.5l-88 -86
q-47 -47 -66.5 -73.5t-27.5 -51.5q-6 -21 -9 -51t-3 -82v-123z" />
    <glyph glyph-name="at" unicode="@" horiz-adv-x="2048" 
d="M762 537q0 -143 71 -224.5t195 -81.5q123 0 193.5 82t70.5 224q0 140 -72 222.5t-194 82.5q-121 0 -192.5 -82t-71.5 -223zM1307 238q-60 -77 -137.5 -113.5t-180.5 -36.5q-172 0 -279.5 124.5t-107.5 324.5t108 325t279 125q103 0 181 -37.5t137 -113.5v131h143v-736
q146 22 228.5 133.5t82.5 288.5q0 107 -31.5 201t-95.5 174q-104 131 -253.5 200.5t-325.5 69.5q-123 0 -236 -32.5t-209 -96.5q-157 -102 -245.5 -267.5t-88.5 -358.5q0 -159 57.5 -298t166.5 -245q105 -104 243 -158.5t295 -54.5q129 0 253.5 43.5t228.5 124.5l90 -111
q-125 -97 -272.5 -148.5t-299.5 -51.5q-185 0 -349 65.5t-292 190.5t-195 289.5t-67 353.5q0 182 68 347t194 290q129 127 298 194.5t358 67.5q212 0 393.5 -87t304.5 -247q75 -98 114.5 -213t39.5 -238q0 -263 -159 -415t-439 -158v154z" />
    <glyph glyph-name="A" unicode="A" horiz-adv-x="1401" 
d="M700 1294l-274 -743h549zM586 1493h229l569 -1493h-210l-136 383h-673l-136 -383h-213z" />
    <glyph glyph-name="B" unicode="B" horiz-adv-x="1405" 
d="M403 713v-547h324q163 0 241.5 67.5t78.5 206.5q0 140 -78.5 206.5t-241.5 66.5h-324zM403 1327v-450h299q148 0 220.5 55.5t72.5 169.5q0 113 -72.5 169t-220.5 56h-299zM201 1493h516q231 0 356 -96t125 -273q0 -137 -64 -218t-188 -101q149 -32 231.5 -133.5
t82.5 -253.5q0 -200 -136 -309t-387 -109h-536v1493z" />
    <glyph glyph-name="C" unicode="C" horiz-adv-x="1430" 
d="M1319 1378v-213q-102 95 -217.5 142t-245.5 47q-256 0 -392 -156.5t-136 -452.5q0 -295 136 -451.5t392 -156.5q130 0 245.5 47t217.5 142v-211q-106 -72 -224.5 -108t-250.5 -36q-339 0 -534 207.5t-195 566.5q0 360 195 567.5t534 207.5q134 0 252.5 -35.5
t222.5 -106.5z" />
    <glyph glyph-name="D" unicode="D" horiz-adv-x="1577" 
d="M403 1327v-1161h244q309 0 452.5 140t143.5 442q0 300 -143.5 439.5t-452.5 139.5h-244zM201 1493h415q434 0 637 -180.5t203 -564.5q0 -386 -204 -567t-636 -181h-415v1493z" />
    <glyph glyph-name="E" unicode="E" horiz-adv-x="1294" 
d="M201 1493h944v-170h-742v-442h711v-170h-711v-541h760v-170h-962v1493z" />
    <glyph glyph-name="F" unicode="F" horiz-adv-x="1178" 
d="M201 1493h858v-170h-656v-440h592v-170h-592v-713h-202v1493z" />
    <glyph glyph-name="G" unicode="G" horiz-adv-x="1587" 
d="M1219 213v401h-330v166h530v-641q-117 -83 -258 -125.5t-301 -42.5q-350 0 -547.5 204.5t-197.5 569.5q0 366 197.5 570.5t547.5 204.5q146 0 277.5 -36t242.5 -106v-215q-112 95 -238 143t-265 48q-274 0 -411.5 -153t-137.5 -456q0 -302 137.5 -455t411.5 -153
q107 0 191 18.5t151 57.5z" />
    <glyph glyph-name="H" unicode="H" horiz-adv-x="1540" 
d="M201 1493h202v-612h734v612h202v-1493h-202v711h-734v-711h-202v1493z" />
    <glyph glyph-name="I" unicode="I" horiz-adv-x="604" 
d="M201 1493h202v-1493h-202v1493z" />
    <glyph glyph-name="J" unicode="J" horiz-adv-x="604" 
d="M201 1493h202v-1389q0 -270 -102.5 -392t-329.5 -122h-77v170h63q134 0 189 75t55 269v1389z" />
    <glyph glyph-name="K" unicode="K" horiz-adv-x="1343" 
d="M201 1493h202v-631l670 631h260l-741 -696l794 -797h-266l-717 719v-719h-202v1493z" />
    <glyph glyph-name="L" unicode="L" horiz-adv-x="1141" 
d="M201 1493h202v-1323h727v-170h-929v1493z" />
    <glyph glyph-name="M" unicode="M" horiz-adv-x="1767" 
d="M201 1493h301l381 -1016l383 1016h301v-1493h-197v1311l-385 -1024h-203l-385 1024v-1311h-196v1493z" />
    <glyph glyph-name="N" unicode="N" horiz-adv-x="1532" 
d="M201 1493h272l662 -1249v1249h196v-1493h-272l-662 1249v-1249h-196v1493z" />
    <glyph glyph-name="O" unicode="O" horiz-adv-x="1612" 
d="M807 1356q-220 0 -349.5 -164t-129.5 -447q0 -282 129.5 -446t349.5 -164t348.5 164t128.5 446q0 283 -128.5 447t-348.5 164zM807 1520q314 0 502 -210.5t188 -564.5q0 -353 -188 -563.5t-502 -210.5q-315 0 -503.5 210t-188.5 564t188.5 564.5t503.5 210.5z" />
    <glyph glyph-name="P" unicode="P" horiz-adv-x="1235" 
d="M403 1327v-561h254q141 0 218 73t77 208q0 134 -77 207t-218 73h-254zM201 1493h456q251 0 379.5 -113.5t128.5 -332.5q0 -221 -128.5 -334t-379.5 -113h-254v-600h-202v1493z" />
    <glyph glyph-name="Q" unicode="Q" horiz-adv-x="1612" 
d="M807 1356q-220 0 -349.5 -164t-129.5 -447q0 -282 129.5 -446t349.5 -164t348.5 164t128.5 446q0 283 -128.5 447t-348.5 164zM1090 27l266 -291h-244l-221 239q-33 -2 -50.5 -3t-33.5 -1q-315 0 -503.5 210.5t-188.5 563.5q0 354 188.5 564.5t503.5 210.5
q314 0 502 -210.5t188 -564.5q0 -260 -104.5 -445t-302.5 -273z" />
    <glyph glyph-name="R" unicode="R" horiz-adv-x="1423" 
d="M909 700q65 -22 126.5 -94t123.5 -198l205 -408h-217l-191 383q-74 150 -143.5 199t-189.5 49h-220v-631h-202v1493h456q256 0 382 -107t126 -323q0 -141 -65.5 -234t-190.5 -129zM403 1327v-530h254q146 0 220.5 67.5t74.5 198.5t-74.5 197.5t-220.5 66.5h-254z" />
    <glyph glyph-name="S" unicode="S" horiz-adv-x="1300" 
d="M1096 1444v-197q-115 55 -217 82t-197 27q-165 0 -254.5 -64t-89.5 -182q0 -99 59.5 -149.5t225.5 -81.5l122 -25q226 -43 333.5 -151.5t107.5 -290.5q0 -217 -145.5 -329t-426.5 -112q-106 0 -225.5 24t-247.5 71v208q123 -69 241 -104t232 -35q173 0 267 68t94 194
q0 110 -67.5 172t-221.5 93l-123 24q-226 45 -327 141t-101 267q0 198 139.5 312t384.5 114q105 0 214 -19t223 -57z" />
    <glyph glyph-name="T" unicode="T" horiz-adv-x="1251" 
d="M-6 1493h1263v-170h-530v-1323h-203v1323h-530v170z" />
    <glyph glyph-name="U" unicode="U" horiz-adv-x="1499" 
d="M178 1493h203v-907q0 -240 87 -345.5t282 -105.5q194 0 281 105.5t87 345.5v907h203v-932q0 -292 -144.5 -441t-426.5 -149q-283 0 -427.5 149t-144.5 441v932z" />
    <glyph glyph-name="V" unicode="V" horiz-adv-x="1401" 
d="M586 0l-570 1493h211l473 -1257l474 1257h210l-569 -1493h-229z" />
    <glyph glyph-name="W" unicode="W" horiz-adv-x="2025" 
d="M68 1493h204l314 -1262l313 1262h227l314 -1262l313 1262h205l-375 -1493h-254l-315 1296l-318 -1296h-254z" />
    <glyph glyph-name="X" unicode="X" horiz-adv-x="1403" 
d="M129 1493h217l371 -555l373 555h217l-480 -717l512 -776h-217l-420 635l-423 -635h-218l533 797z" />
    <glyph glyph-name="Y" unicode="Y" horiz-adv-x="1251" 
d="M-4 1493h217l414 -614l411 614h217l-528 -782v-711h-203v711z" />
    <glyph glyph-name="Z" unicode="Z" horiz-adv-x="1403" 
d="M115 1493h1173v-154l-944 -1169h967v-170h-1219v154l944 1169h-921v170z" />
    <glyph glyph-name="bracketleft" unicode="[" horiz-adv-x="799" 
d="M176 1556h424v-143h-240v-1540h240v-143h-424v1826z" />
    <glyph glyph-name="backslash" unicode="\" horiz-adv-x="690" 
d="M170 1493l520 -1683h-170l-520 1683h170z" />
    <glyph glyph-name="bracketright" unicode="]" horiz-adv-x="799" 
d="M623 1556v-1826h-424v143h239v1540h-239v143h424z" />
    <glyph glyph-name="asciicircum" unicode="^" horiz-adv-x="1716" 
d="M956 1493l543 -557h-201l-440 395l-440 -395h-201l543 557h196z" />
    <glyph glyph-name="underscore" unicode="_" horiz-adv-x="1024" 
d="M1044 -340v-143h-1064v143h1064z" />
    <glyph glyph-name="grave" unicode="`" horiz-adv-x="1024" 
d="M367 1638l282 -374h-153l-326 374h197z" />
    <glyph glyph-name="a" unicode="a" horiz-adv-x="1255" 
d="M702 563q-223 0 -309 -51t-86 -174q0 -98 64.5 -155.5t175.5 -57.5q153 0 245.5 108.5t92.5 288.5v41h-183zM1069 639v-639h-184v170q-63 -102 -157 -150.5t-230 -48.5q-172 0 -273.5 96.5t-101.5 258.5q0 189 126.5 285t377.5 96h258v18q0 127 -83.5 196.5t-234.5 69.5
q-96 0 -187 -23t-175 -69v170q101 39 196 58.5t185 19.5q243 0 363 -126t120 -382z" />
    <glyph glyph-name="b" unicode="b" horiz-adv-x="1300" 
d="M997 559q0 203 -83.5 318.5t-229.5 115.5t-229.5 -115.5t-83.5 -318.5t83.5 -318.5t229.5 -115.5t229.5 115.5t83.5 318.5zM371 950q58 100 146.5 148.5t211.5 48.5q204 0 331.5 -162t127.5 -426t-127.5 -426t-331.5 -162q-123 0 -211.5 48.5t-146.5 148.5v-168h-185
v1556h185v-606z" />
    <glyph glyph-name="c" unicode="c" horiz-adv-x="1126" 
d="M999 1077v-172q-78 43 -156.5 64.5t-158.5 21.5q-179 0 -278 -113.5t-99 -318.5t99 -318.5t278 -113.5q80 0 158.5 21.5t156.5 64.5v-170q-77 -36 -159.5 -54t-175.5 -18q-253 0 -402 159t-149 429q0 274 150.5 431t412.5 157q85 0 166 -17.5t157 -52.5z" />
    <glyph glyph-name="d" unicode="d" horiz-adv-x="1300" 
d="M930 950v606h184v-1556h-184v168q-58 -100 -146.5 -148.5t-212.5 -48.5q-203 0 -330.5 162t-127.5 426t127.5 426t330.5 162q124 0 212.5 -48.5t146.5 -148.5zM303 559q0 -203 83.5 -318.5t229.5 -115.5t230 115.5t84 318.5t-84 318.5t-230 115.5t-229.5 -115.5
t-83.5 -318.5z" />
    <glyph glyph-name="e" unicode="e" horiz-adv-x="1260" 
d="M1151 606v-90h-846q12 -190 114.5 -289.5t285.5 -99.5q106 0 205.5 26t197.5 78v-174q-99 -42 -203 -64t-211 -22q-268 0 -424.5 156t-156.5 422q0 275 148.5 436.5t400.5 161.5q226 0 357.5 -145.5t131.5 -395.5zM967 660q-2 151 -84.5 241t-218.5 90q-154 0 -246.5 -87
t-106.5 -245z" />
    <glyph glyph-name="f" unicode="f" horiz-adv-x="721" 
d="M760 1556v-153h-176q-99 0 -137.5 -40t-38.5 -144v-99h303v-143h-303v-977h-185v977h-176v143h176v78q0 187 87 272.5t276 85.5h174z" />
    <glyph glyph-name="g" unicode="g" horiz-adv-x="1300" 
d="M930 573q0 200 -82.5 310t-231.5 110q-148 0 -230.5 -110t-82.5 -310q0 -199 82.5 -309t230.5 -110q149 0 231.5 110t82.5 309zM1114 139q0 -286 -127 -425.5t-389 -139.5q-97 0 -183 14.5t-167 44.5v179q81 -44 160 -65t161 -21q181 0 271 94.5t90 285.5v91
q-57 -99 -146 -148t-213 -49q-206 0 -332 157t-126 416q0 260 126 417t332 157q124 0 213 -49t146 -148v170h184v-981z" />
    <glyph glyph-name="h" unicode="h" horiz-adv-x="1298" 
d="M1124 676v-676h-184v670q0 159 -62 238t-186 79q-149 0 -235 -95t-86 -259v-633h-185v1556h185v-610q66 101 155.5 151t206.5 50q193 0 292 -119.5t99 -351.5z" />
    <glyph glyph-name="i" unicode="i" horiz-adv-x="569" 
d="M193 1120h184v-1120h-184v1120zM193 1556h184v-233h-184v233z" />
    <glyph glyph-name="j" unicode="j" horiz-adv-x="569" 
d="M193 1120h184v-1140q0 -214 -81.5 -310t-262.5 -96h-70v156h49q105 0 143 48.5t38 201.5v1140zM193 1556h184v-233h-184v233z" />
    <glyph glyph-name="k" unicode="k" horiz-adv-x="1186" 
d="M186 1556h185v-919l549 483h235l-594 -524l619 -596h-240l-569 547v-547h-185v1556z" />
    <glyph glyph-name="l" unicode="l" horiz-adv-x="569" 
d="M193 1556h184v-1556h-184v1556z" />
    <glyph glyph-name="m" unicode="m" horiz-adv-x="1995" 
d="M1065 905q69 124 165 183t226 59q175 0 270 -122.5t95 -348.5v-676h-185v670q0 161 -57 239t-174 78q-143 0 -226 -95t-83 -259v-633h-185v670q0 162 -57 239.5t-176 77.5q-141 0 -224 -95.5t-83 -258.5v-633h-185v1120h185v-174q63 103 151 152t209 49q122 0 207.5 -62
t126.5 -180z" />
    <glyph glyph-name="n" unicode="n" horiz-adv-x="1298" 
d="M1124 676v-676h-184v670q0 159 -62 238t-186 79q-149 0 -235 -95t-86 -259v-633h-185v1120h185v-174q66 101 155.5 151t206.5 50q193 0 292 -119.5t99 -351.5z" />
    <glyph glyph-name="o" unicode="o" horiz-adv-x="1253" 
d="M614 991q-148 0 -234 -115.5t-86 -316.5t85.5 -316.5t234.5 -115.5q147 0 233 116t86 316q0 199 -86 315.5t-233 116.5zM614 1147q240 0 377 -156t137 -432q0 -275 -137 -431.5t-377 -156.5q-241 0 -377.5 156.5t-136.5 431.5q0 276 136.5 432t377.5 156z" />
    <glyph glyph-name="p" unicode="p" horiz-adv-x="1300" 
d="M371 168v-594h-185v1546h185v-170q58 100 146.5 148.5t211.5 48.5q204 0 331.5 -162t127.5 -426t-127.5 -426t-331.5 -162q-123 0 -211.5 48.5t-146.5 148.5zM997 559q0 203 -83.5 318.5t-229.5 115.5t-229.5 -115.5t-83.5 -318.5t83.5 -318.5t229.5 -115.5t229.5 115.5
t83.5 318.5z" />
    <glyph glyph-name="q" unicode="q" horiz-adv-x="1300" 
d="M303 559q0 -203 83.5 -318.5t229.5 -115.5t230 115.5t84 318.5t-84 318.5t-230 115.5t-229.5 -115.5t-83.5 -318.5zM930 168q-58 -100 -146.5 -148.5t-212.5 -48.5q-203 0 -330.5 162t-127.5 426t127.5 426t330.5 162q124 0 212.5 -48.5t146.5 -148.5v170h184v-1546h-184
v594z" />
    <glyph glyph-name="r" unicode="r" horiz-adv-x="842" 
d="M842 948q-31 18 -67.5 26.5t-80.5 8.5q-156 0 -239.5 -101.5t-83.5 -291.5v-590h-185v1120h185v-174q58 102 151 151.5t226 49.5q19 0 42 -2.5t51 -7.5z" />
    <glyph glyph-name="s" unicode="s" horiz-adv-x="1067" 
d="M907 1087v-174q-78 40 -162 60t-174 20q-137 0 -205.5 -42t-68.5 -126q0 -64 49 -100.5t197 -69.5l63 -14q196 -42 278.5 -118.5t82.5 -213.5q0 -156 -123.5 -247t-339.5 -91q-90 0 -187.5 17.5t-205.5 52.5v190q102 -53 201 -79.5t196 -26.5q130 0 200 44.5t70 125.5
q0 75 -50.5 115t-221.5 77l-64 15q-171 36 -247 110.5t-76 204.5q0 158 112 244t318 86q102 0 192 -15t166 -45z" />
    <glyph glyph-name="t" unicode="t" horiz-adv-x="803" 
d="M375 1438v-318h379v-143h-379v-608q0 -137 37.5 -176t152.5 -39h189v-154h-189q-213 0 -294 79.5t-81 289.5v608h-135v143h135v318h185z" />
    <glyph glyph-name="u" unicode="u" horiz-adv-x="1298" 
d="M174 442v678h184v-671q0 -159 62 -238.5t186 -79.5q149 0 235.5 95t86.5 259v635h184v-1120h-184v172q-67 -102 -155.5 -151.5t-205.5 -49.5q-193 0 -293 120t-100 351z" />
    <glyph glyph-name="v" unicode="v" horiz-adv-x="1212" 
d="M61 1120h195l350 -940l350 940h195l-420 -1120h-250z" />
    <glyph glyph-name="w" unicode="w" horiz-adv-x="1675" 
d="M86 1120h184l230 -874l229 874h217l230 -874l229 874h184l-293 -1120h-217l-241 918l-242 -918h-217z" />
    <glyph glyph-name="x" unicode="x" horiz-adv-x="1212" 
d="M1124 1120l-405 -545l426 -575h-217l-326 440l-326 -440h-217l435 586l-398 534h217l297 -399l297 399h217z" />
    <glyph glyph-name="y" unicode="y" horiz-adv-x="1212" 
d="M659 -104q-78 -200 -152 -261t-198 -61h-147v154h108q76 0 118 36t93 170l33 84l-453 1102h195l350 -876l350 876h195z" />
    <glyph glyph-name="z" unicode="z" horiz-adv-x="1075" 
d="M113 1120h874v-168l-692 -805h692v-147h-899v168l692 805h-667v147z" />
    <glyph glyph-name="braceleft" unicode="{" horiz-adv-x="1303" 
d="M1047 -190v-144h-62q-249 0 -333.5 74t-84.5 295v239q0 151 -54 209t-196 58h-61v143h61q143 0 196.5 57.5t53.5 206.5v240q0 221 84.5 294.5t333.5 73.5h62v-143h-68q-141 0 -184 -44t-43 -185v-248q0 -157 -45.5 -228t-155.5 -96q111 -27 156 -98t45 -227v-248
q0 -141 43 -185t184 -44h68z" />
    <glyph glyph-name="bar" unicode="|" horiz-adv-x="690" 
d="M430 1565v-2048h-170v2048h170z" />
    <glyph glyph-name="braceright" unicode="}" horiz-adv-x="1303" 
d="M256 -190h70q140 0 182.5 43t42.5 186v248q0 156 45 227t156 98q-111 25 -156 96t-45 228v248q0 142 -42.5 185.5t-182.5 43.5h-70v143h63q249 0 332.5 -73.5t83.5 -294.5v-240q0 -149 54 -206.5t196 -57.5h62v-143h-62q-142 0 -196 -58t-54 -209v-239q0 -221 -83.5 -295
t-332.5 -74h-63v144z" />
    <glyph glyph-name="asciitilde" unicode="~" horiz-adv-x="1716" 
d="M1499 817v-178q-105 -79 -194.5 -113t-186.5 -34q-110 0 -256 59q-11 4 -16 6q-7 3 -22 8q-155 62 -249 62q-88 0 -174 -38.5t-184 -121.5v178q105 79 194.5 113.5t186.5 34.5q110 0 257 -60l15 -6q8 -3 22 -8q155 -62 249 -62q86 0 170.5 38t187.5 122z" />
    <glyph glyph-name="uni00A0" unicode="&#xa0;" horiz-adv-x="1303" 
 />
    <glyph glyph-name="exclamdown" unicode="&#xa1;" horiz-adv-x="821" 
d="M512 1239h-203v254h203v-254zM512 0h-203v655l21 357h162l20 -357v-655z" />
    <glyph glyph-name="cent" unicode="&#xa2;" horiz-adv-x="1303" 
d="M678 131v856q-147 -18 -229 -131t-82 -297q0 -185 82 -298t229 -130zM1059 1077v-172q-74 41 -142 62t-136 24l-1 -864q70 5 138.5 26t140.5 60v-170q-65 -30 -133.5 -47.5t-145.5 -24.5v-284h-102v288q-241 20 -373.5 173.5t-132.5 410.5q0 258 132.5 411t373.5 175v287
h102l1 -287q73 -4 141.5 -20.5t136.5 -47.5z" />
    <glyph glyph-name="sterling" unicode="&#xa3;" horiz-adv-x="1303" 
d="M1102 1460v-182q-76 41 -144 61.5t-129 20.5q-148 0 -206 -77.5t-58 -289.5v-215h391v-143h-391v-465h557v-170h-993v170h236v465h-199v143h199v238q0 261 107 382.5t339 121.5q61 0 136.5 -15.5t154.5 -44.5z" />
    <glyph glyph-name="currency" unicode="&#xa4;" horiz-adv-x="1303" 
d="M891 993l207 209l114 -115l-206 -206q37 -59 55 -118.5t18 -121.5q0 -63 -19 -120.5t-59 -114.5l209 -207l-114 -113l-207 207q-59 -40 -117 -59t-119 -19q-58 0 -118 18.5t-121 55.5l-207 -207l-113 115l207 206q-37 62 -55.5 121t-18.5 117q0 64 19 122t57 114
l-207 206l115 115l207 -207q55 39 113 57.5t122 18.5q60 0 118.5 -18t119.5 -56zM922 643q0 112 -77.5 189t-191.5 77q-112 0 -191 -77t-79 -189q0 -114 78.5 -192t191.5 -78t191 78.5t78 191.5z" />
    <glyph glyph-name="yen" unicode="&#xa5;" horiz-adv-x="1303" 
d="M1165 455h-413v-455h-201v455h-416v123h416v51l-84 155h-332v123h264l-317 586h190l379 -700l377 700h191l-318 -586h264v-123h-331l-84 -155v-51h415v-123z" />
    <glyph glyph-name="brokenbar" unicode="&#xa6;" horiz-adv-x="690" 
d="M430 408v-758h-170v758h170zM430 1432v-758h-170v758h170z" />
    <glyph glyph-name="section" unicode="&#xa7;" horiz-adv-x="1024" 
d="M379 936q-63 -46 -94 -91t-31 -91q0 -76 69.5 -142.5t319.5 -201.5q63 45 94 90.5t31 91.5q0 75 -71.5 143t-317.5 201zM829 1462v-164q-83 39 -154.5 58.5t-127.5 19.5q-97 0 -151 -40t-54 -111q0 -90 206 -205q26 -15 40 -23q211 -119 276.5 -196t65.5 -178
q0 -90 -46 -160t-139 -123q62 -52 90.5 -106.5t28.5 -118.5q0 -142 -102 -226t-275 -84q-73 0 -150 14.5t-165 43.5v164q87 -39 161 -58.5t132 -19.5q102 0 158.5 42t56.5 118q0 102 -221 225l-25 14q-214 120 -278 196.5t-64 178.5q0 91 46.5 162.5t137.5 120.5
q-59 44 -88.5 100t-29.5 125q0 130 100 209.5t266 79.5q73 0 149.5 -14.5t155.5 -43.5z" />
    <glyph glyph-name="dieresis" unicode="&#xa8;" horiz-adv-x="1024" 
d="M606 1552h203v-202h-203v202zM215 1552h203v-202h-203v202z" />
    <glyph glyph-name="copyright" unicode="&#xa9;" horiz-adv-x="2048" 
d="M1024 1485q152 0 283.5 -55t240.5 -164t163 -240t54 -285q0 -152 -54 -282.5t-163 -239.5t-240.5 -164t-283.5 -55t-283.5 55t-240.5 164t-163 239.5t-54 282.5q0 154 54 285t163 240t240.5 164t283.5 55zM1024 1382q-131 0 -244 -47t-207 -141t-142 -208.5t-48 -244.5
q0 -129 48 -242.5t142 -207.5t207 -141.5t244 -47.5q132 0 245.5 47.5t207.5 141.5q93 93 139.5 206t46.5 244q0 133 -47 246.5t-139 206.5q-94 94 -207.5 141t-245.5 47zM1323 1137v-129q-66 33 -131 49t-131 16q-149 0 -232.5 -87.5t-83.5 -244.5q0 -159 85.5 -246
t240.5 -87q64 0 125 15.5t127 49.5v-127q-67 -29 -135.5 -43t-138.5 -14q-216 0 -341.5 122t-125.5 330q0 209 125.5 330t341.5 121q73 0 141 -14t133 -41z" />
    <glyph glyph-name="ordfeminine" unicode="&#xaa;" horiz-adv-x="965" 
d="M139 592h688v-123h-688v123zM825 1165v-448h-149v112q-44 -63 -116 -97t-165 -34q-128 0 -204 67.5t-76 180.5q0 135 95.5 204t283.5 69h182v4q0 91 -58.5 136.5t-175.5 45.5q-62 0 -130 -17t-136 -51v127q73 28 145.5 42t141.5 14q183 0 272.5 -88t89.5 -267zM549 1104
q-161 0 -224 -33.5t-63 -112.5q0 -64 49 -102.5t131 -38.5q104 0 169 72t65 186v29h-127z" />
    <glyph glyph-name="guillemotleft" unicode="&#xab;" horiz-adv-x="1253" 
d="M1061 1059v-191l-301 -268l301 -268v-191l-469 418v82zM627 1059v-191l-301 -268l301 -268v-191l-469 418v82z" />
    <glyph glyph-name="logicalnot" unicode="&#xac;" horiz-adv-x="1716" 
d="M217 862h1282v-575h-168v405h-1114v170z" />
    <glyph glyph-name="uni00AD" unicode="&#xad;" horiz-adv-x="739" 
d="M100 643h539v-164h-539v164z" />
    <glyph glyph-name="registered" unicode="&#xae;" horiz-adv-x="2048" 
d="M1024 1382q-131 0 -244 -47t-207 -141t-142 -208.5t-48 -244.5q0 -129 48 -242.5t142 -207.5t207 -141.5t244 -47.5q132 0 245.5 47.5t207.5 141.5q93 93 139.5 206t46.5 244q0 133 -47 246.5t-139 206.5q-94 94 -207.5 141t-245.5 47zM1024 1485q152 0 283.5 -55
t240.5 -164t163 -240t54 -285q0 -152 -54 -282.5t-163 -239.5t-240.5 -164t-283.5 -55t-283.5 55t-240.5 164t-163 239.5t-54 282.5q0 154 54 285t163 240t240.5 164t283.5 55zM997 1071h-123v-276h123q110 0 153.5 31t43.5 106q0 76 -44 107.5t-153 31.5zM1004 1174
q176 0 263 -59.5t87 -180.5q0 -86 -52.5 -142t-148.5 -73q24 -8 57.5 -46.5t79.5 -111.5l137 -223h-172l-129 209q-59 96 -95.5 121.5t-90.5 25.5h-66v-356h-155v836h285z" />
    <glyph glyph-name="macron" unicode="&#xaf;" horiz-adv-x="1024" 
d="M213 1526h598v-148h-598v148z" />
    <glyph glyph-name="degree" unicode="&#xb0;" horiz-adv-x="1024" 
d="M512 1391q-80 0 -135 -55.5t-55 -135.5q0 -79 55 -133.5t135 -54.5t135 54.5t55 133.5t-55.5 135t-134.5 56zM512 1520q64 0 123 -24.5t102 -70.5q46 -45 69 -102t23 -123q0 -132 -92.5 -223.5t-226.5 -91.5q-135 0 -225 90t-90 225q0 134 92 227t225 93z" />
    <glyph glyph-name="plusminus" unicode="&#xb1;" horiz-adv-x="1716" 
d="M942 1284v-387h557v-170h-557v-387h-168v387h-557v170h557v387h168zM217 170h1282v-170h-1282v170z" />
    <glyph glyph-name="uni00B2" unicode="&#xb2;" horiz-adv-x="821" 
d="M268 782h424v-114h-598v110q34 31 97 87q344 305 344 399q0 66 -52 106.5t-137 40.5q-52 0 -113 -17.5t-133 -52.5v123q77 28 143.5 42t123.5 14q145 0 232 -66t87 -174q0 -139 -331 -423q-56 -48 -87 -75z" />
    <glyph glyph-name="uni00B3" unicode="&#xb3;" horiz-adv-x="821" 
d="M524 1120q92 -18 142.5 -72.5t50.5 -136.5q0 -124 -95 -191t-272 -67q-57 0 -119.5 10.5t-132.5 30.5v121q52 -27 111.5 -40t126.5 -13q109 0 169 39.5t60 109.5q0 74 -55.5 112t-163.5 38h-86v108h94q94 0 142.5 31.5t48.5 91.5q0 58 -50 88.5t-145 30.5q-40 0 -91 -9
t-132 -32v115q73 17 137 26t119 9q144 0 228.5 -59t84.5 -158q0 -69 -45 -117t-127 -66z" />
    <glyph glyph-name="acute" unicode="&#xb4;" horiz-adv-x="1024" 
d="M651 1638h199l-326 -376h-153z" />
    <glyph glyph-name="mu" unicode="&#xb5;" horiz-adv-x="1303" 
d="M174 -426v1546h184v-696q0 -145 69 -219t204 -74q148 0 222.5 84t74.5 252v653h184v-862q0 -60 17.5 -88.5t54.5 -28.5q9 0 25 5.5t44 17.5v-148q-41 -23 -77.5 -34t-71.5 -11q-69 0 -110 39t-56 119q-50 -79 -122.5 -118.5t-170.5 -39.5q-102 0 -173.5 39t-113.5 117
v-553h-184z" />
    <glyph glyph-name="paragraph" unicode="&#xb6;" horiz-adv-x="1303" 
d="M633 1493h448v-1690h-141v1567h-190v-1567h-142v846q-215 17 -332.5 127.5t-117.5 294.5q0 190 130 306t345 116z" />
    <glyph glyph-name="periodcentered" unicode="&#xb7;" horiz-adv-x="651" 
d="M219 838h211v-254h-211v254z" />
    <glyph glyph-name="cedilla" unicode="&#xb8;" horiz-adv-x="1024" 
d="M596 0q55 -62 82 -114.5t27 -100.5q0 -89 -60 -134.5t-178 -45.5q-46 0 -89.5 6t-86.5 18v131q34 -17 71 -24.5t84 -7.5q59 0 89 24t30 70q0 30 -21.5 73.5t-66.5 104.5h119z" />
    <glyph glyph-name="uni00B9" unicode="&#xb9;" horiz-adv-x="821" 
d="M156 778h204v611l-223 -41v116l230 39h137v-725h205v-110h-553v110z" />
    <glyph glyph-name="ordmasculine" unicode="&#xba;" horiz-adv-x="965" 
d="M139 592h688v-123h-688v123zM483 1520q179 0 282 -110.5t103 -301.5t-103 -300.5t-282 -109.5t-283 110t-104 300q0 191 104 301.5t283 110.5zM483 1405q-105 0 -168 -80.5t-63 -216.5q0 -133 63.5 -213t167.5 -80q105 0 167.5 80t62.5 213q0 137 -62 217t-168 80z" />
    <glyph glyph-name="guillemotright" unicode="&#xbb;" horiz-adv-x="1253" 
d="M193 1059l469 -418v-82l-469 -418v191l301 268l-301 268v191zM627 1059l469 -418v-82l-469 -418v191l301 268l-301 268v191z" />
    <glyph glyph-name="onequarter" unicode="&#xbc;" horiz-adv-x="1985" 
d="M156 778h204v611l-223 -41v116l230 39h137v-725h205v-110h-553v110zM1378 1520h160l-932 -1549h-160zM1640 715l-309 -419h309v419zM1618 836h166v-540h135v-109h-135v-186h-144v186h-414v121z" />
    <glyph glyph-name="onehalf" unicode="&#xbd;" horiz-adv-x="1985" 
d="M156 778h204v611l-223 -41v116l230 39h137v-725h205v-110h-553v110zM1378 1520h160l-932 -1549h-160zM1431 115h424v-114h-598v110q34 31 97 87q344 305 344 399q0 66 -52 106.5t-137 40.5q-52 0 -113 -17.5t-133 -52.5v123q77 28 143.5 42t123.5 14q145 0 232 -66
t87 -174q0 -139 -331 -423q-56 -48 -87 -75z" />
    <glyph glyph-name="threequarters" unicode="&#xbe;" horiz-adv-x="1985" 
d="M524 1120q92 -18 142.5 -72.5t50.5 -136.5q0 -124 -95 -191t-272 -67q-57 0 -119.5 10.5t-132.5 30.5v121q52 -27 111.5 -40t126.5 -13q109 0 169 39.5t60 109.5q0 74 -55.5 112t-163.5 38h-86v108h94q94 0 142.5 31.5t48.5 91.5q0 58 -50 88.5t-145 30.5q-40 0 -91 -9
t-132 -32v115q73 17 137 26t119 9q144 0 228.5 -59t84.5 -158q0 -69 -45 -117t-127 -66zM1378 1520h160l-932 -1549h-160zM1640 715l-309 -419h309v419zM1618 836h166v-540h135v-109h-135v-186h-144v186h-414v121z" />
    <glyph glyph-name="questiondown" unicode="&#xbf;" horiz-adv-x="1087" 
d="M500 1092h190v-156q0 -101 -27.5 -166t-117.5 -152l-90 -88q-58 -53 -83.5 -100t-25.5 -96q0 -89 65.5 -144t174.5 -55q78 0 168 35t186 102v-188q-94 -57 -190 -85t-199 -28q-184 0 -296 97t-112 256q0 76 36.5 144.5t125.5 154.5l88 86q48 47 67 73.5t27 51.5
q7 21 10 51t3 84v123zM696 1239h-202v254h202v-254z" />
    <glyph glyph-name="Agrave" unicode="&#xc0;" horiz-adv-x="1401" 
d="M700 1294l-274 -743h549zM586 1493h229l569 -1493h-210l-136 383h-673l-136 -383h-213zM643 1899l196 -264h-153l-230 264h187z" />
    <glyph glyph-name="Aacute" unicode="&#xc1;" horiz-adv-x="1401" 
d="M700 1294l-274 -743h549zM586 1493h229l569 -1493h-210l-136 383h-673l-136 -383h-213zM755 1899h185l-228 -264h-153z" />
    <glyph glyph-name="Acircumflex" unicode="&#xc2;" horiz-adv-x="1401" 
d="M700 1294l-274 -743h549zM586 1493h229l569 -1493h-210l-136 383h-673l-136 -383h-213zM606 1901h188l211 -266h-139l-166 178l-166 -178h-139z" />
    <glyph glyph-name="Atilde" unicode="&#xc3;" horiz-adv-x="1401" 
d="M700 1294l-274 -743h549zM586 1493h229l569 -1493h-210l-136 383h-673l-136 -383h-213zM696 1710l-57 33q-25 14 -40.5 19.5t-27.5 5.5q-36 0 -56 -25t-20 -70v-6h-125q0 101 51.5 160t137.5 59q36 0 66.5 -8t78.5 -35l57 -30q23 -13 40 -19t32 -6q32 0 52 25.5t20 66.5
v6h125q-2 -100 -53.5 -159.5t-135.5 -59.5q-34 0 -63.5 8t-81.5 35z" />
    <glyph glyph-name="Adieresis" unicode="&#xc4;" horiz-adv-x="1401" 
d="M700 1294l-274 -743h549zM586 1493h229l569 -1493h-210l-136 383h-673l-136 -383h-213zM794 1870h203v-203h-203v203zM403 1870h203v-203h-203v203z" />
    <glyph glyph-name="Aring" unicode="&#xc5;" horiz-adv-x="1401" 
d="M852 1626q0 63 -44.5 107.5t-107.5 44.5q-64 0 -107.5 -43.5t-43.5 -108.5q0 -63 44 -107t107 -44t107.5 44t44.5 107zM700 1294l-272 -743h545zM549 1397q-61 41 -92 98.5t-31 130.5q0 115 79.5 195t194.5 80q114 0 194.5 -80.5t80.5 -194.5q0 -70 -31.5 -129
t-91.5 -100l532 -1397h-210l-136 383h-673l-136 -383h-213z" />
    <glyph glyph-name="AE" unicode="&#xc6;" horiz-adv-x="1995" 
d="M1845 1493v-170h-741v-442h711v-170h-711v-541h760v-170h-963v383h-528l-160 -383h-205l625 1493h1212zM772 1335l-330 -784h459v784h-129z" />
    <glyph glyph-name="Ccedilla" unicode="&#xc7;" horiz-adv-x="1430" 
d="M1319 1378v-213q-102 95 -217.5 142t-245.5 47q-256 0 -392 -156.5t-136 -452.5q0 -295 136 -451.5t392 -156.5q130 0 245.5 47t217.5 142v-211q-106 -72 -224.5 -108t-250.5 -36q-339 0 -534 207.5t-195 566.5q0 360 195 567.5t534 207.5q134 0 252.5 -35.5
t222.5 -106.5zM897 0q55 -62 82 -114.5t27 -100.5q0 -89 -60 -134.5t-178 -45.5q-46 0 -89.5 6t-86.5 18v131q34 -17 71 -24.5t84 -7.5q59 0 89 24t30 70q0 30 -21.5 73.5t-66.5 104.5h119z" />
    <glyph glyph-name="Egrave" unicode="&#xc8;" horiz-adv-x="1294" 
d="M201 1493h944v-170h-742v-442h711v-170h-711v-541h760v-170h-962v1493zM613 1899l196 -264h-153l-230 264h187z" />
    <glyph glyph-name="Eacute" unicode="&#xc9;" horiz-adv-x="1294" 
d="M201 1493h944v-170h-742v-442h711v-170h-711v-541h760v-170h-962v1493zM725 1899h185l-228 -264h-153z" />
    <glyph glyph-name="Ecircumflex" unicode="&#xca;" horiz-adv-x="1294" 
d="M201 1493h944v-170h-742v-442h711v-170h-711v-541h760v-170h-962v1493zM576 1901h188l211 -266h-139l-166 178l-166 -178h-139z" />
    <glyph glyph-name="Edieresis" unicode="&#xcb;" horiz-adv-x="1294" 
d="M201 1493h944v-170h-742v-442h711v-170h-711v-541h760v-170h-962v1493zM764 1870h203v-203h-203v203zM373 1870h203v-203h-203v203z" />
    <glyph glyph-name="Igrave" unicode="&#xcc;" horiz-adv-x="604" 
d="M201 1493h202v-1493h-202v1493zM246 1899l196 -264h-153l-230 264h187z" />
    <glyph glyph-name="Iacute" unicode="&#xcd;" horiz-adv-x="604" 
d="M201 1493h202v-1493h-202v1493zM358 1899h185l-228 -264h-153z" />
    <glyph glyph-name="Icircumflex" unicode="&#xce;" horiz-adv-x="604" 
d="M201 1493h202v-1493h-202v1493zM209 1901h188l211 -266h-139l-166 178l-166 -178h-139z" />
    <glyph glyph-name="Idieresis" unicode="&#xcf;" horiz-adv-x="604" 
d="M201 1493h202v-1493h-202v1493zM397 1870h203v-203h-203v203zM6 1870h203v-203h-203v203z" />
    <glyph glyph-name="Eth" unicode="&#xd0;" horiz-adv-x="1587" 
d="M211 1493h416q433 0 636 -180.5t203 -564.5q0 -386 -203.5 -567t-635.5 -181h-416v700h-201v144h201v649zM414 1327v-483h336v-144h-336v-534h243q309 0 452.5 140t143.5 442q0 300 -143.5 439.5t-452.5 139.5h-243z" />
    <glyph glyph-name="Ntilde" unicode="&#xd1;" horiz-adv-x="1532" 
d="M201 1493h272l662 -1249v1249h196v-1493h-272l-662 1249v-1249h-196v1493zM762 1710l-57 33q-25 14 -40.5 19.5t-27.5 5.5q-36 0 -56 -25t-20 -70v-6h-125q0 101 51.5 160t137.5 59q36 0 66.5 -8t78.5 -35l57 -30q23 -13 40 -19t32 -6q32 0 52 25.5t20 66.5v6h125
q-2 -100 -53.5 -159.5t-135.5 -59.5q-34 0 -63.5 8t-81.5 35z" />
    <glyph glyph-name="Ograve" unicode="&#xd2;" horiz-adv-x="1612" 
d="M807 1356q-220 0 -349.5 -164t-129.5 -447q0 -282 129.5 -446t349.5 -164t348.5 164t128.5 446q0 283 -128.5 447t-348.5 164zM807 1520q314 0 502 -210.5t188 -564.5q0 -353 -188 -563.5t-502 -210.5q-315 0 -503.5 210t-188.5 564t188.5 564.5t503.5 210.5zM750 1899
l196 -264h-153l-230 264h187z" />
    <glyph glyph-name="Oacute" unicode="&#xd3;" horiz-adv-x="1612" 
d="M807 1356q-220 0 -349.5 -164t-129.5 -447q0 -282 129.5 -446t349.5 -164t348.5 164t128.5 446q0 283 -128.5 447t-348.5 164zM807 1520q314 0 502 -210.5t188 -564.5q0 -353 -188 -563.5t-502 -210.5q-315 0 -503.5 210t-188.5 564t188.5 564.5t503.5 210.5zM862 1899
h185l-228 -264h-153z" />
    <glyph glyph-name="Ocircumflex" unicode="&#xd4;" horiz-adv-x="1612" 
d="M807 1356q-220 0 -349.5 -164t-129.5 -447q0 -282 129.5 -446t349.5 -164t348.5 164t128.5 446q0 283 -128.5 447t-348.5 164zM807 1520q314 0 502 -210.5t188 -564.5q0 -353 -188 -563.5t-502 -210.5q-315 0 -503.5 210t-188.5 564t188.5 564.5t503.5 210.5zM713 1901
h188l211 -266h-139l-166 178l-166 -178h-139z" />
    <glyph glyph-name="Otilde" unicode="&#xd5;" horiz-adv-x="1612" 
d="M807 1356q-220 0 -349.5 -164t-129.5 -447q0 -282 129.5 -446t349.5 -164t348.5 164t128.5 446q0 283 -128.5 447t-348.5 164zM807 1520q314 0 502 -210.5t188 -564.5q0 -353 -188 -563.5t-502 -210.5q-315 0 -503.5 210t-188.5 564t188.5 564.5t503.5 210.5zM803 1710
l-57 33q-25 14 -40.5 19.5t-27.5 5.5q-36 0 -56 -25t-20 -70v-6h-125q0 101 51.5 160t137.5 59q36 0 66.5 -8t78.5 -35l57 -30q23 -13 40 -19t32 -6q32 0 52 25.5t20 66.5v6h125q-2 -100 -53.5 -159.5t-135.5 -59.5q-34 0 -63.5 8t-81.5 35z" />
    <glyph glyph-name="Odieresis" unicode="&#xd6;" horiz-adv-x="1612" 
d="M807 1356q-220 0 -349.5 -164t-129.5 -447q0 -282 129.5 -446t349.5 -164t348.5 164t128.5 446q0 283 -128.5 447t-348.5 164zM807 1520q314 0 502 -210.5t188 -564.5q0 -353 -188 -563.5t-502 -210.5q-315 0 -503.5 210t-188.5 564t188.5 564.5t503.5 210.5zM901 1870
h203v-203h-203v203zM510 1870h203v-203h-203v203z" />
    <glyph glyph-name="multiply" unicode="&#xd7;" horiz-adv-x="1716" 
d="M1436 1100l-457 -459l457 -457l-119 -121l-459 459l-459 -459l-118 121l456 457l-456 459l118 121l459 -459l459 459z" />
    <glyph glyph-name="Oslash" unicode="&#xd8;" horiz-adv-x="1612" 
d="M1206 1112l-717 -846q62 -64 142.5 -97.5t175.5 -33.5q220 0 348.5 164t128.5 446q0 112 -19.5 204t-58.5 163zM1124 1225q-61 64 -141.5 97.5t-175.5 33.5q-220 0 -349.5 -164t-129.5 -447q0 -112 19.5 -206t58.5 -162zM272 219q-78 102 -117.5 234t-39.5 292
q0 354 188.5 564.5t503.5 210.5q130 0 240.5 -38.5t197.5 -113.5l162 191l102 -89l-170 -198q78 -103 118 -236t40 -291q0 -353 -188 -563.5t-502 -210.5q-128 0 -238.5 37.5t-201.5 112.5l-162 -191l-103 88z" />
    <glyph glyph-name="Ugrave" unicode="&#xd9;" horiz-adv-x="1499" 
d="M178 1493h203v-907q0 -240 87 -345.5t282 -105.5q194 0 281 105.5t87 345.5v907h203v-932q0 -292 -144.5 -441t-426.5 -149q-283 0 -427.5 149t-144.5 441v932zM693 1899l196 -264h-153l-230 264h187z" />
    <glyph glyph-name="Uacute" unicode="&#xda;" horiz-adv-x="1499" 
d="M178 1493h203v-907q0 -240 87 -345.5t282 -105.5q194 0 281 105.5t87 345.5v907h203v-932q0 -292 -144.5 -441t-426.5 -149q-283 0 -427.5 149t-144.5 441v932zM805 1899h185l-228 -264h-153z" />
    <glyph glyph-name="Ucircumflex" unicode="&#xdb;" horiz-adv-x="1499" 
d="M178 1493h203v-907q0 -240 87 -345.5t282 -105.5q194 0 281 105.5t87 345.5v907h203v-932q0 -292 -144.5 -441t-426.5 -149q-283 0 -427.5 149t-144.5 441v932zM656 1901h188l211 -266h-139l-166 178l-166 -178h-139z" />
    <glyph glyph-name="Udieresis" unicode="&#xdc;" horiz-adv-x="1499" 
d="M178 1493h203v-907q0 -240 87 -345.5t282 -105.5q194 0 281 105.5t87 345.5v907h203v-932q0 -292 -144.5 -441t-426.5 -149q-283 0 -427.5 149t-144.5 441v932zM844 1870h203v-203h-203v203zM453 1870h203v-203h-203v203z" />
    <glyph glyph-name="Yacute" unicode="&#xdd;" horiz-adv-x="1251" 
d="M-4 1493h217l414 -614l411 614h217l-528 -782v-711h-203v711zM682 1899h185l-228 -264h-153z" />
    <glyph glyph-name="Thorn" unicode="&#xde;" horiz-adv-x="1239" 
d="M201 1493h202v-264h254q251 0 379.5 -112.5t128.5 -332.5t-128.5 -333t-379.5 -113h-254v-338h-202v1493zM403 1063v-559h254q141 0 218 73t77 207t-76.5 206.5t-218.5 72.5h-254z" />
    <glyph glyph-name="germandbls" unicode="&#xdf;" horiz-adv-x="1290" 
d="M186 1137q0 200 119.5 309.5t337.5 109.5q208 0 317.5 -116t112.5 -340q-151 -8 -235 -65.5t-84 -153.5q0 -47 29 -87.5t94 -82.5l57 -37q166 -106 214 -177t48 -171q0 -172 -112.5 -263.5t-323.5 -91.5q-64 0 -132 12.5t-141 36.5v164q80 -30 150 -44.5t135 -14.5
q116 0 176 47.5t60 138.5q0 63 -29.5 105t-130.5 104l-92 55q-96 59 -139.5 126.5t-43.5 158.5q0 127 83.5 213t234.5 115q-8 103 -73.5 159t-178.5 56q-130 0 -198 -69.5t-68 -200.5v-1133h-187v1137z" />
    <glyph glyph-name="agrave" unicode="&#xe0;" horiz-adv-x="1255" 
d="M702 563q-223 0 -309 -51t-86 -174q0 -98 64.5 -155.5t175.5 -57.5q153 0 245.5 108.5t92.5 288.5v41h-183zM1069 639v-639h-184v170q-63 -102 -157 -150.5t-230 -48.5q-172 0 -273.5 96.5t-101.5 258.5q0 189 126.5 285t377.5 96h258v18q0 127 -83.5 196.5t-234.5 69.5
q-96 0 -187 -23t-175 -69v170q101 39 196 58.5t185 19.5q243 0 363 -126t120 -382zM449 1638l282 -374h-153l-326 374h197z" />
    <glyph glyph-name="aacute" unicode="&#xe1;" horiz-adv-x="1255" 
d="M702 563q-223 0 -309 -51t-86 -174q0 -98 64.5 -155.5t175.5 -57.5q153 0 245.5 108.5t92.5 288.5v41h-183zM1069 639v-639h-184v170q-63 -102 -157 -150.5t-230 -48.5q-172 0 -273.5 96.5t-101.5 258.5q0 189 126.5 285t377.5 96h258v18q0 127 -83.5 196.5t-234.5 69.5
q-96 0 -187 -23t-175 -69v170q101 39 196 58.5t185 19.5q243 0 363 -126t120 -382zM733 1638h199l-326 -376h-153z" />
    <glyph glyph-name="acircumflex" unicode="&#xe2;" horiz-adv-x="1255" 
d="M702 563q-223 0 -309 -51t-86 -174q0 -98 64.5 -155.5t175.5 -57.5q153 0 245.5 108.5t92.5 288.5v41h-183zM1069 639v-639h-184v170q-63 -102 -157 -150.5t-230 -48.5q-172 0 -273.5 96.5t-101.5 258.5q0 189 126.5 285t377.5 96h258v18q0 127 -83.5 196.5t-234.5 69.5
q-96 0 -187 -23t-175 -69v170q101 39 196 58.5t185 19.5q243 0 363 -126t120 -382zM520 1638h148l245 -376h-139l-180 245l-180 -245h-139z" />
    <glyph glyph-name="atilde" unicode="&#xe3;" horiz-adv-x="1255" 
d="M702 563q-223 0 -309 -51t-86 -174q0 -98 64.5 -155.5t175.5 -57.5q153 0 245.5 108.5t92.5 288.5v41h-183zM1069 639v-639h-184v170q-63 -102 -157 -150.5t-230 -48.5q-172 0 -273.5 96.5t-101.5 258.5q0 189 126.5 285t377.5 96h258v18q0 127 -83.5 196.5t-234.5 69.5
q-96 0 -187 -23t-175 -69v170q101 39 196 58.5t185 19.5q243 0 363 -126t120 -382zM590 1370l-57 55q-22 20 -38.5 29.5t-29.5 9.5q-38 0 -56 -36.5t-20 -118.5h-125q2 135 53 208.5t142 73.5q38 0 70 -14t69 -47l57 -55q22 -20 38.5 -29.5t29.5 -9.5q38 0 56 36.5t20 118.5
h125q-2 -135 -53 -208.5t-142 -73.5q-38 0 -70 14t-69 47z" />
    <glyph glyph-name="adieresis" unicode="&#xe4;" horiz-adv-x="1255" 
d="M702 563q-223 0 -309 -51t-86 -174q0 -98 64.5 -155.5t175.5 -57.5q153 0 245.5 108.5t92.5 288.5v41h-183zM1069 639v-639h-184v170q-63 -102 -157 -150.5t-230 -48.5q-172 0 -273.5 96.5t-101.5 258.5q0 189 126.5 285t377.5 96h258v18q0 127 -83.5 196.5t-234.5 69.5
q-96 0 -187 -23t-175 -69v170q101 39 196 58.5t185 19.5q243 0 363 -126t120 -382zM688 1552h203v-202h-203v202zM297 1552h203v-202h-203v202z" />
    <glyph glyph-name="aring" unicode="&#xe5;" horiz-adv-x="1255" 
d="M702 563q-223 0 -309 -51t-86 -174q0 -98 64.5 -155.5t175.5 -57.5q153 0 245.5 108.5t92.5 288.5v41h-183zM1069 639v-639h-184v170q-63 -102 -157 -150.5t-230 -48.5q-172 0 -273.5 96.5t-101.5 258.5q0 189 126.5 285t377.5 96h258v18q0 127 -83.5 196.5t-234.5 69.5
q-96 0 -187 -23t-175 -69v170q101 39 196 58.5t185 19.5q243 0 363 -126t120 -382zM746 1524q0 63 -44 107t-108 44q-65 0 -108.5 -43.5t-43.5 -107.5q0 -65 43.5 -108.5t108.5 -43.5q64 0 108 44t44 108zM868 1524q0 -115 -79.5 -195t-194.5 -80t-194.5 80t-79.5 195
t79.5 194.5t194.5 79.5t194.5 -79.5t79.5 -194.5z" />
    <glyph glyph-name="ae" unicode="&#xe6;" horiz-adv-x="2011" 
d="M1718 660q-1 151 -83.5 241t-219.5 90q-153 0 -245.5 -87t-106.5 -245zM995 963q74 90 180 137t238 47q226 0 358 -145.5t132 -395.5v-90h-846q12 -191 114 -291t285 -100q104 0 204 26.5t200 79.5v-174q-100 -42 -204 -64t-210 -22q-167 0 -291 60.5t-201 179.5
q-73 -120 -181 -180t-251 -60q-189 0 -294 93.5t-105 261.5q0 189 126.5 285t377.5 96h258v18q0 127 -83.5 196.5t-234.5 69.5q-96 0 -187 -23t-175 -69v170q101 39 196 58.5t185 19.5q142 0 248.5 -48t160.5 -136zM702 563q-223 0 -309 -51t-86 -174q0 -98 64.5 -155.5
t175.5 -57.5q153 0 245.5 108.5t92.5 288.5v41h-183z" />
    <glyph glyph-name="ccedilla" unicode="&#xe7;" horiz-adv-x="1126" 
d="M999 1077v-172q-78 43 -156.5 64.5t-158.5 21.5q-179 0 -278 -113.5t-99 -318.5t99 -318.5t278 -113.5q80 0 158.5 21.5t156.5 64.5v-170q-77 -36 -159.5 -54t-175.5 -18q-253 0 -402 159t-149 429q0 274 150.5 431t412.5 157q85 0 166 -17.5t157 -52.5zM739 0
q55 -62 82 -114.5t27 -100.5q0 -89 -60 -134.5t-178 -45.5q-46 0 -89.5 6t-86.5 18v131q34 -17 71 -24.5t84 -7.5q59 0 89 24t30 70q0 30 -21.5 73.5t-66.5 104.5h119z" />
    <glyph glyph-name="egrave" unicode="&#xe8;" horiz-adv-x="1260" 
d="M1151 606v-90h-846q12 -190 114.5 -289.5t285.5 -99.5q106 0 205.5 26t197.5 78v-174q-99 -42 -203 -64t-211 -22q-268 0 -424.5 156t-156.5 422q0 275 148.5 436.5t400.5 161.5q226 0 357.5 -145.5t131.5 -395.5zM967 660q-2 151 -84.5 241t-218.5 90q-154 0 -246.5 -87
t-106.5 -245zM506 1638l282 -374h-153l-326 374h197z" />
    <glyph glyph-name="eacute" unicode="&#xe9;" horiz-adv-x="1260" 
d="M1151 606v-90h-846q12 -190 114.5 -289.5t285.5 -99.5q106 0 205.5 26t197.5 78v-174q-99 -42 -203 -64t-211 -22q-268 0 -424.5 156t-156.5 422q0 275 148.5 436.5t400.5 161.5q226 0 357.5 -145.5t131.5 -395.5zM967 660q-2 151 -84.5 241t-218.5 90q-154 0 -246.5 -87
t-106.5 -245zM790 1638h199l-326 -376h-153z" />
    <glyph glyph-name="ecircumflex" unicode="&#xea;" horiz-adv-x="1260" 
d="M1151 606v-90h-846q12 -190 114.5 -289.5t285.5 -99.5q106 0 205.5 26t197.5 78v-174q-99 -42 -203 -64t-211 -22q-268 0 -424.5 156t-156.5 422q0 275 148.5 436.5t400.5 161.5q226 0 357.5 -145.5t131.5 -395.5zM967 660q-2 151 -84.5 241t-218.5 90q-154 0 -246.5 -87
t-106.5 -245zM577 1638h148l245 -376h-139l-180 245l-180 -245h-139z" />
    <glyph glyph-name="edieresis" unicode="&#xeb;" horiz-adv-x="1260" 
d="M1151 606v-90h-846q12 -190 114.5 -289.5t285.5 -99.5q106 0 205.5 26t197.5 78v-174q-99 -42 -203 -64t-211 -22q-268 0 -424.5 156t-156.5 422q0 275 148.5 436.5t400.5 161.5q226 0 357.5 -145.5t131.5 -395.5zM967 660q-2 151 -84.5 241t-218.5 90q-154 0 -246.5 -87
t-106.5 -245zM745 1552h203v-202h-203v202zM354 1552h203v-202h-203v202z" />
    <glyph glyph-name="igrave" unicode="&#xec;" horiz-adv-x="569" 
d="M193 1120h184v-1120h-184v1120zM141 1638l282 -374h-153l-326 374h197z" />
    <glyph glyph-name="iacute" unicode="&#xed;" horiz-adv-x="569" 
d="M193 1120h184v-1120h-184v1120zM425 1638h199l-326 -376h-153z" />
    <glyph glyph-name="icircumflex" unicode="&#xee;" horiz-adv-x="569" 
d="M193 1120h184v-1120h-184v1120zM212 1638h148l245 -376h-139l-180 245l-180 -245h-139z" />
    <glyph glyph-name="idieresis" unicode="&#xef;" horiz-adv-x="569" 
d="M193 1120h184v-1120h-184v1120zM380 1552h203v-202h-203v202zM-11 1552h203v-202h-203v202z" />
    <glyph glyph-name="eth" unicode="&#xf0;" horiz-adv-x="1253" 
d="M838 915q-50 17 -94 25t-85 8q-167 0 -259.5 -108t-92.5 -303q0 -188 87 -299t233 -111q145 0 232 111t87 299q0 122 -27 216t-81 162zM901 1141q126 -143 183 -287t57 -317q0 -255 -142 -410.5t-372 -155.5q-231 0 -372.5 155.5t-141.5 410.5q0 250 138 405.5t359 155.5
q18 0 44 -2.5t68 -7.5l-159 180l-319 -107l-33 99l281 92l-181 204h228l127 -145l333 111l33 -97l-295 -98z" />
    <glyph glyph-name="ntilde" unicode="&#xf1;" horiz-adv-x="1298" 
d="M1124 676v-676h-184v670q0 159 -62 238t-186 79q-149 0 -235 -95t-86 -259v-633h-185v1120h185v-174q66 101 155.5 151t206.5 50q193 0 292 -119.5t99 -351.5zM660 1370l-57 55q-22 20 -38.5 29.5t-29.5 9.5q-38 0 -56 -36.5t-20 -118.5h-125q2 135 53 208.5t142 73.5
q38 0 70 -14t69 -47l57 -55q22 -20 38.5 -29.5t29.5 -9.5q38 0 56 36.5t20 118.5h125q-2 -135 -53 -208.5t-142 -73.5q-38 0 -70 14t-69 47z" />
    <glyph glyph-name="ograve" unicode="&#xf2;" horiz-adv-x="1253" 
d="M614 991q-148 0 -234 -115.5t-86 -316.5t85.5 -316.5t234.5 -115.5q147 0 233 116t86 316q0 199 -86 315.5t-233 116.5zM614 1147q240 0 377 -156t137 -432q0 -275 -137 -431.5t-377 -156.5q-241 0 -377.5 156.5t-136.5 431.5q0 276 136.5 432t377.5 156zM482 1638
l282 -374h-153l-326 374h197z" />
    <glyph glyph-name="oacute" unicode="&#xf3;" horiz-adv-x="1253" 
d="M614 991q-148 0 -234 -115.5t-86 -316.5t85.5 -316.5t234.5 -115.5q147 0 233 116t86 316q0 199 -86 315.5t-233 116.5zM614 1147q240 0 377 -156t137 -432q0 -275 -137 -431.5t-377 -156.5q-241 0 -377.5 156.5t-136.5 431.5q0 276 136.5 432t377.5 156zM766 1638h199
l-326 -376h-153z" />
    <glyph glyph-name="ocircumflex" unicode="&#xf4;" horiz-adv-x="1253" 
d="M614 991q-148 0 -234 -115.5t-86 -316.5t85.5 -316.5t234.5 -115.5q147 0 233 116t86 316q0 199 -86 315.5t-233 116.5zM614 1147q240 0 377 -156t137 -432q0 -275 -137 -431.5t-377 -156.5q-241 0 -377.5 156.5t-136.5 431.5q0 276 136.5 432t377.5 156zM553 1638h148
l245 -376h-139l-180 245l-180 -245h-139z" />
    <glyph glyph-name="otilde" unicode="&#xf5;" horiz-adv-x="1253" 
d="M614 991q-148 0 -234 -115.5t-86 -316.5t85.5 -316.5t234.5 -115.5q147 0 233 116t86 316q0 199 -86 315.5t-233 116.5zM614 1147q240 0 377 -156t137 -432q0 -275 -137 -431.5t-377 -156.5q-241 0 -377.5 156.5t-136.5 431.5q0 276 136.5 432t377.5 156zM623 1370
l-57 55q-22 20 -38.5 29.5t-29.5 9.5q-38 0 -56 -36.5t-20 -118.5h-125q2 135 53 208.5t142 73.5q38 0 70 -14t69 -47l57 -55q22 -20 38.5 -29.5t29.5 -9.5q38 0 56 36.5t20 118.5h125q-2 -135 -53 -208.5t-142 -73.5q-38 0 -70 14t-69 47z" />
    <glyph glyph-name="odieresis" unicode="&#xf6;" horiz-adv-x="1253" 
d="M614 991q-148 0 -234 -115.5t-86 -316.5t85.5 -316.5t234.5 -115.5q147 0 233 116t86 316q0 199 -86 315.5t-233 116.5zM614 1147q240 0 377 -156t137 -432q0 -275 -137 -431.5t-377 -156.5q-241 0 -377.5 156.5t-136.5 431.5q0 276 136.5 432t377.5 156zM721 1552h203
v-202h-203v202zM330 1552h203v-202h-203v202z" />
    <glyph glyph-name="divide" unicode="&#xf7;" horiz-adv-x="1716" 
d="M735 1135h246v-246h-246v246zM735 395h246v-245h-246v245zM217 727h1282v-170h-1282v170z" />
    <glyph glyph-name="oslash" unicode="&#xf8;" horiz-adv-x="1253" 
d="M905 801l-487 -592q41 -42 92.5 -62t116.5 -20q147 0 233 116t86 316q0 79 -10 137.5t-31 104.5zM834 909q-42 41 -93.5 61.5t-113.5 20.5q-151 0 -235.5 -117.5t-84.5 -328.5q0 -72 9.5 -127t29.5 -101zM221 166q-54 77 -81 175.5t-27 217.5q0 276 136.5 432t377.5 156
q93 0 172.5 -25.5t146.5 -77.5l139 168l95 -79l-146 -179q53 -77 80 -176t27 -219q0 -275 -137 -431.5t-377 -156.5q-96 0 -176.5 26t-143.5 77l-139 -168l-96 78z" />
    <glyph glyph-name="ugrave" unicode="&#xf9;" horiz-adv-x="1298" 
d="M174 442v678h184v-671q0 -159 62 -238.5t186 -79.5q149 0 235.5 95t86.5 259v635h184v-1120h-184v172q-67 -102 -155.5 -151.5t-205.5 -49.5q-193 0 -293 120t-100 351zM490 1638l282 -374h-153l-326 374h197z" />
    <glyph glyph-name="uacute" unicode="&#xfa;" horiz-adv-x="1298" 
d="M174 442v678h184v-671q0 -159 62 -238.5t186 -79.5q149 0 235.5 95t86.5 259v635h184v-1120h-184v172q-67 -102 -155.5 -151.5t-205.5 -49.5q-193 0 -293 120t-100 351zM774 1638h199l-326 -376h-153z" />
    <glyph glyph-name="ucircumflex" unicode="&#xfb;" horiz-adv-x="1298" 
d="M174 442v678h184v-671q0 -159 62 -238.5t186 -79.5q149 0 235.5 95t86.5 259v635h184v-1120h-184v172q-67 -102 -155.5 -151.5t-205.5 -49.5q-193 0 -293 120t-100 351zM561 1638h148l245 -376h-139l-180 245l-180 -245h-139z" />
    <glyph glyph-name="udieresis" unicode="&#xfc;" horiz-adv-x="1298" 
d="M174 442v678h184v-671q0 -159 62 -238.5t186 -79.5q149 0 235.5 95t86.5 259v635h184v-1120h-184v172q-67 -102 -155.5 -151.5t-205.5 -49.5q-193 0 -293 120t-100 351zM729 1552h203v-202h-203v202zM338 1552h203v-202h-203v202z" />
    <glyph glyph-name="yacute" unicode="&#xfd;" horiz-adv-x="1212" 
d="M659 -104q-78 -200 -152 -261t-198 -61h-147v154h108q76 0 118 36t93 170l33 84l-453 1102h195l350 -876l350 876h195zM745 1638h199l-326 -376h-153z" />
    <glyph glyph-name="thorn" unicode="&#xfe;" horiz-adv-x="1300" 
d="M371 168v-594h-185v1982h185v-606q58 100 146.5 148.5t211.5 48.5q204 0 331.5 -162t127.5 -426t-127.5 -426t-331.5 -162q-123 0 -211.5 48.5t-146.5 148.5zM997 559q0 203 -83.5 318.5t-229.5 115.5t-229.5 -115.5t-83.5 -318.5t83.5 -318.5t229.5 -115.5t229.5 115.5
t83.5 318.5z" />
    <glyph glyph-name="ydieresis" unicode="&#xff;" horiz-adv-x="1212" 
d="M659 -104q-78 -200 -152 -261t-198 -61h-147v154h108q76 0 118 36t93 170l33 84l-453 1102h195l350 -876l350 876h195zM700 1552h203v-202h-203v202zM309 1552h203v-202h-203v202z" />
    <glyph glyph-name="Amacron" unicode="&#x100;" horiz-adv-x="1401" 
d="M401 1841h598v-148h-598v148zM700 1294l-274 -743h549zM586 1493h229l569 -1493h-210l-136 383h-673l-136 -383h-213z" />
    <glyph glyph-name="amacron" unicode="&#x101;" horiz-adv-x="1255" 
d="M287 1526h598v-148h-598v148zM702 563q-223 0 -309 -51t-86 -174q0 -98 64.5 -155.5t175.5 -57.5q153 0 245.5 108.5t92.5 288.5v41h-183zM1069 639v-639h-184v170q-63 -102 -157 -150.5t-230 -48.5q-172 0 -273.5 96.5t-101.5 258.5q0 189 126.5 285t377.5 96h258v18
q0 127 -83.5 196.5t-234.5 69.5q-96 0 -187 -23t-175 -69v170q101 39 196 58.5t185 19.5q243 0 363 -126t120 -382z" />
    <glyph glyph-name="Abreve" unicode="&#x102;" horiz-adv-x="1401" 
d="M405 1938h118q11 -75 59.5 -112.5t135.5 -37.5q86 0 134 37t61 113h118q-10 -143 -89 -215t-224 -72t-224 72t-89 215zM700 1294l-274 -743h549zM586 1493h229l569 -1493h-210l-136 383h-673l-136 -383h-213z" />
    <glyph glyph-name="abreve" unicode="&#x103;" horiz-adv-x="1255" 
d="M278 1568h118q11 -75 59.5 -112.5t135.5 -37.5q86 0 134 37t61 113h118q-10 -143 -89 -215t-224 -72t-224 72t-89 215zM702 563q-223 0 -309 -51t-86 -174q0 -98 64.5 -155.5t175.5 -57.5q153 0 245.5 108.5t92.5 288.5v41h-183zM1069 639v-639h-184v170
q-63 -102 -157 -150.5t-230 -48.5q-172 0 -273.5 96.5t-101.5 258.5q0 189 126.5 285t377.5 96h258v18q0 127 -83.5 196.5t-234.5 69.5q-96 0 -187 -23t-175 -69v170q101 39 196 58.5t185 19.5q243 0 363 -126t120 -382z" />
    <glyph glyph-name="Aogonek" unicode="&#x104;" horiz-adv-x="1401" 
d="M1180 0h119q-45 -61 -66.5 -105t-21.5 -75q0 -46 27.5 -69t81.5 -23q32 0 63 7.5t62 22.5v-133q-38 -10 -72 -15t-64 -5q-122 0 -179.5 43.5t-57.5 136.5q0 48 26.5 100.5t81.5 114.5zM700 1294l-274 -743h549zM586 1493h229l569 -1493h-210l-136 383h-673l-136 -383
h-213z" />
    <glyph glyph-name="aogonek" unicode="&#x105;" horiz-adv-x="1255" 
d="M887 0h119q-45 -61 -66.5 -105t-21.5 -75q0 -46 27.5 -69t81.5 -23q32 0 63 7.5t62 22.5v-133q-38 -10 -72 -15t-64 -5q-122 0 -179.5 43.5t-57.5 136.5q0 48 26.5 100.5t81.5 114.5zM702 563q-223 0 -309 -51t-86 -174q0 -98 64.5 -155.5t175.5 -57.5q153 0 245.5 108.5
t92.5 288.5v41h-183zM1069 639v-639h-184v170q-63 -102 -157 -150.5t-230 -48.5q-172 0 -273.5 96.5t-101.5 258.5q0 189 126.5 285t377.5 96h258v18q0 127 -83.5 196.5t-234.5 69.5q-96 0 -187 -23t-175 -69v170q101 39 196 58.5t185 19.5q243 0 363 -126t120 -382z" />
    <glyph glyph-name="Cacute" unicode="&#x106;" horiz-adv-x="1430" 
d="M1319 1378v-213q-102 95 -217.5 142t-245.5 47q-256 0 -392 -156.5t-136 -452.5q0 -295 136 -451.5t392 -156.5q130 0 245.5 47t217.5 142v-211q-106 -72 -224.5 -108t-250.5 -36q-339 0 -534 207.5t-195 566.5q0 360 195 567.5t534 207.5q134 0 252.5 -35.5
t222.5 -106.5zM868 1899h185l-228 -264h-153z" />
    <glyph glyph-name="cacute" unicode="&#x107;" horiz-adv-x="1126" 
d="M999 1077v-172q-78 43 -156.5 64.5t-158.5 21.5q-179 0 -278 -113.5t-99 -318.5t99 -318.5t278 -113.5q80 0 158.5 21.5t156.5 64.5v-170q-77 -36 -159.5 -54t-175.5 -18q-253 0 -402 159t-149 429q0 274 150.5 431t412.5 157q85 0 166 -17.5t157 -52.5zM788 1638h199
l-326 -376h-153z" />
    <glyph glyph-name="Ccircumflex" unicode="&#x108;" horiz-adv-x="1430" 
d="M750 1901h188l211 -266h-139l-166 178l-166 -178h-139zM1319 1378v-213q-102 95 -217.5 142t-245.5 47q-256 0 -392 -156.5t-136 -452.5q0 -295 136 -451.5t392 -156.5q130 0 245.5 47t217.5 142v-211q-106 -72 -224.5 -108t-250.5 -36q-339 0 -534 207.5t-195 566.5
q0 360 195 567.5t534 207.5q134 0 252.5 -35.5t222.5 -106.5z" />
    <glyph glyph-name="ccircumflex" unicode="&#x109;" horiz-adv-x="1126" 
d="M602 1638h148l245 -376h-139l-180 245l-180 -245h-139zM999 1077v-172q-78 43 -156.5 64.5t-158.5 21.5q-179 0 -278 -113.5t-99 -318.5t99 -318.5t278 -113.5q80 0 158.5 21.5t156.5 64.5v-170q-77 -36 -159.5 -54t-175.5 -18q-253 0 -402 159t-149 429q0 274 150.5 431
t412.5 157q85 0 166 -17.5t157 -52.5z" />
    <glyph glyph-name="Cdotaccent" unicode="&#x10a;" horiz-adv-x="1430" 
d="M742 1872h204v-205h-204v205zM1319 1378v-213q-102 95 -217.5 142t-245.5 47q-256 0 -392 -156.5t-136 -452.5q0 -295 136 -451.5t392 -156.5q130 0 245.5 47t217.5 142v-211q-106 -72 -224.5 -108t-250.5 -36q-339 0 -534 207.5t-195 566.5q0 360 195 567.5t534 207.5
q134 0 252.5 -35.5t222.5 -106.5z" />
    <glyph glyph-name="cdotaccent" unicode="&#x10b;" horiz-adv-x="1126" 
d="M574 1552h204v-204h-204v204zM999 1077v-172q-78 43 -156.5 64.5t-158.5 21.5q-179 0 -278 -113.5t-99 -318.5t99 -318.5t278 -113.5q80 0 158.5 21.5t156.5 64.5v-170q-77 -36 -159.5 -54t-175.5 -18q-253 0 -402 159t-149 429q0 274 150.5 431t412.5 157
q85 0 166 -17.5t157 -52.5z" />
    <glyph glyph-name="Ccaron" unicode="&#x10c;" horiz-adv-x="1430" 
d="M1319 1378v-213q-102 95 -217.5 142t-245.5 47q-256 0 -392 -156.5t-136 -452.5q0 -295 136 -451.5t392 -156.5q130 0 245.5 47t217.5 142v-211q-106 -72 -224.5 -108t-250.5 -36q-339 0 -534 207.5t-195 566.5q0 360 195 567.5t534 207.5q134 0 252.5 -35.5
t222.5 -106.5zM719 1635l-211 266h139l166 -178l166 178h139l-211 -266h-188z" />
    <glyph glyph-name="ccaron" unicode="&#x10d;" horiz-adv-x="1126" 
d="M999 1077v-172q-78 43 -156.5 64.5t-158.5 21.5q-179 0 -278 -113.5t-99 -318.5t99 -318.5t278 -113.5q80 0 158.5 21.5t156.5 64.5v-170q-77 -36 -159.5 -54t-175.5 -18q-253 0 -402 159t-149 429q0 274 150.5 431t412.5 157q85 0 166 -17.5t157 -52.5zM575 1262
l-245 376h139l180 -245l180 245h139l-245 -376h-148z" />
    <glyph glyph-name="Dcaron" unicode="&#x10e;" horiz-adv-x="1577" 
d="M403 1327v-1161h244q309 0 452.5 140t143.5 442q0 300 -143.5 439.5t-452.5 139.5h-244zM201 1493h415q434 0 637 -180.5t203 -564.5q0 -386 -204 -567t-636 -181h-415v1493zM654 1655l-211 266h139l166 -178l166 178h139l-211 -266h-188z" />
    <glyph glyph-name="dcaron" unicode="&#x10f;" horiz-adv-x="1300" 
d="M930 950v606h184v-1556h-184v168q-58 -100 -146.5 -148.5t-212.5 -48.5q-203 0 -330.5 162t-127.5 426t127.5 426t330.5 162q124 0 212.5 -48.5t146.5 -148.5zM303 559q0 -203 83.5 -318.5t229.5 -115.5t230 115.5t84 318.5t-84 318.5t-230 115.5t-229.5 -115.5
t-83.5 -318.5zM1300 1554h199l-117 -376h-153z" />
    <glyph glyph-name="Dcroat" unicode="&#x110;" horiz-adv-x="1587" 
d="M211 1493h416q433 0 636 -180.5t203 -564.5q0 -386 -203.5 -567t-635.5 -181h-416v700h-201v144h201v649zM414 1327v-483h336v-144h-336v-534h243q309 0 452.5 140t143.5 442q0 300 -143.5 439.5t-452.5 139.5h-243z" />
    <glyph glyph-name="dcroat" unicode="&#x111;" horiz-adv-x="1300" 
d="M930 950v334h-326v125h326v147h184v-147h154v-125h-154v-1284h-184v168q-58 -100 -146.5 -148.5t-212.5 -48.5q-203 0 -330.5 162t-127.5 426t127.5 426t330.5 162q124 0 212.5 -48.5t146.5 -148.5zM303 559q0 -203 83.5 -318.5t229.5 -115.5t230 115.5t84 318.5
t-84 318.5t-230 115.5t-229.5 -115.5t-83.5 -318.5z" />
    <glyph glyph-name="Emacron" unicode="&#x112;" horiz-adv-x="1294" 
d="M374 1843h598v-148h-598v148zM201 1493h944v-170h-742v-442h711v-170h-711v-541h760v-170h-962v1493z" />
    <glyph glyph-name="emacron" unicode="&#x113;" horiz-adv-x="1260" 
d="M363 1526h598v-148h-598v148zM1151 606v-90h-846q12 -190 114.5 -289.5t285.5 -99.5q106 0 205.5 26t197.5 78v-174q-99 -42 -203 -64t-211 -22q-268 0 -424.5 156t-156.5 422q0 275 148.5 436.5t400.5 161.5q226 0 357.5 -145.5t131.5 -395.5zM967 660q-2 151 -84.5 241
t-218.5 90q-154 0 -246.5 -87t-106.5 -245z" />
    <glyph glyph-name="Ebreve" unicode="&#x114;" horiz-adv-x="1294" 
d="M360 1901h118q13 -54 62.5 -82.5t132.5 -28.5q82 0 130.5 27.5t64.5 83.5h118q-10 -119 -90 -180.5t-223 -61.5q-144 0 -223.5 61t-89.5 181zM201 1493h944v-170h-742v-442h711v-170h-711v-541h760v-170h-962v1493z" />
    <glyph glyph-name="ebreve" unicode="&#x115;" horiz-adv-x="1260" 
d="M349 1608h118q11 -75 59.5 -112.5t135.5 -37.5q86 0 134 37t61 113h118q-10 -143 -89 -215t-224 -72t-224 72t-89 215zM1151 606v-90h-846q12 -190 114.5 -289.5t285.5 -99.5q106 0 205.5 26t197.5 78v-174q-99 -42 -203 -64t-211 -22q-268 0 -424.5 156t-156.5 422
q0 275 148.5 436.5t400.5 161.5q226 0 357.5 -145.5t131.5 -395.5zM967 660q-2 151 -84.5 241t-218.5 90q-154 0 -246.5 -87t-106.5 -245z" />
    <glyph glyph-name="Edotaccent" unicode="&#x116;" horiz-adv-x="1294" 
d="M571 1872h204v-205h-204v205zM201 1493h944v-170h-742v-442h711v-170h-711v-541h760v-170h-962v1493z" />
    <glyph glyph-name="edotaccent" unicode="&#x117;" horiz-adv-x="1260" 
d="M560 1552h204v-204h-204v204zM1151 606v-90h-846q12 -190 114.5 -289.5t285.5 -99.5q106 0 205.5 26t197.5 78v-174q-99 -42 -203 -64t-211 -22q-268 0 -424.5 156t-156.5 422q0 275 148.5 436.5t400.5 161.5q226 0 357.5 -145.5t131.5 -395.5zM967 660q-2 151 -84.5 241
t-218.5 90q-154 0 -246.5 -87t-106.5 -245z" />
    <glyph glyph-name="Eogonek" unicode="&#x118;" horiz-adv-x="1294" 
d="M900 0h119q-45 -61 -66.5 -105t-21.5 -75q0 -46 27.5 -69t81.5 -23q32 0 63 7.5t62 22.5v-133q-38 -10 -72 -15t-64 -5q-122 0 -179.5 43.5t-57.5 136.5q0 48 26.5 100.5t81.5 114.5zM201 1493h944v-170h-742v-442h711v-170h-711v-541h760v-170h-962v1493z" />
    <glyph glyph-name="eogonek" unicode="&#x119;" horiz-adv-x="1260" 
d="M816 0h119q-45 -61 -66.5 -105t-21.5 -75q0 -46 27.5 -69t81.5 -23q32 0 63 7.5t62 22.5v-133q-38 -10 -72 -15t-64 -5q-122 0 -179.5 43.5t-57.5 136.5q0 48 26.5 100.5t81.5 114.5zM1151 606v-90h-846q12 -190 114.5 -289.5t285.5 -99.5q106 0 205.5 26t197.5 78v-174
q-99 -42 -203 -64t-211 -22q-268 0 -424.5 156t-156.5 422q0 275 148.5 436.5t400.5 161.5q226 0 357.5 -145.5t131.5 -395.5zM967 660q-2 151 -84.5 241t-218.5 90q-154 0 -246.5 -87t-106.5 -245z" />
    <glyph glyph-name="Ecaron" unicode="&#x11a;" horiz-adv-x="1294" 
d="M201 1493h944v-170h-742v-442h711v-170h-711v-541h760v-170h-962v1493zM584 1629l-211 266h139l166 -178l166 178h139l-211 -266h-188z" />
    <glyph glyph-name="ecaron" unicode="&#x11b;" horiz-adv-x="1260" 
d="M1151 606v-90h-846q12 -190 114.5 -289.5t285.5 -99.5q106 0 205.5 26t197.5 78v-174q-99 -42 -203 -64t-211 -22q-268 0 -424.5 156t-156.5 422q0 275 148.5 436.5t400.5 161.5q226 0 357.5 -145.5t131.5 -395.5zM967 660q-2 151 -84.5 241t-218.5 90q-154 0 -246.5 -87
t-106.5 -245zM586 1258l-245 376h139l180 -245l180 245h139l-245 -376h-148z" />
    <glyph glyph-name="Gcircumflex" unicode="&#x11c;" horiz-adv-x="1587" 
d="M766 1901h188l211 -266h-139l-166 178l-166 -178h-139zM1219 213v401h-330v166h530v-641q-117 -83 -258 -125.5t-301 -42.5q-350 0 -547.5 204.5t-197.5 569.5q0 366 197.5 570.5t547.5 204.5q146 0 277.5 -36t242.5 -106v-215q-112 95 -238 143t-265 48
q-274 0 -411.5 -153t-137.5 -456q0 -302 137.5 -455t411.5 -153q107 0 191 18.5t151 57.5z" />
    <glyph glyph-name="gcircumflex" unicode="&#x11d;" horiz-adv-x="1300" 
d="M542 1638h148l245 -376h-139l-180 245l-180 -245h-139zM930 573q0 200 -82.5 310t-231.5 110q-148 0 -230.5 -110t-82.5 -310q0 -199 82.5 -309t230.5 -110q149 0 231.5 110t82.5 309zM1114 139q0 -286 -127 -425.5t-389 -139.5q-97 0 -183 14.5t-167 44.5v179
q81 -44 160 -65t161 -21q181 0 271 94.5t90 285.5v91q-57 -99 -146 -148t-213 -49q-206 0 -332 157t-126 416q0 260 126 417t332 157q124 0 213 -49t146 -148v170h184v-981z" />
    <glyph glyph-name="Gbreve" unicode="&#x11e;" horiz-adv-x="1587" 
d="M1219 213v401h-330v166h530v-641q-117 -83 -258 -125.5t-301 -42.5q-350 0 -547.5 204.5t-197.5 569.5q0 366 197.5 570.5t547.5 204.5q146 0 277.5 -36t242.5 -106v-215q-112 95 -238 143t-265 48q-274 0 -411.5 -153t-137.5 -456q0 -302 137.5 -455t411.5 -153
q107 0 191 18.5t151 57.5zM482 1901h118q13 -54 62.5 -82.5t132.5 -28.5q82 0 130.5 27.5t64.5 83.5h118q-10 -119 -90 -180.5t-223 -61.5q-144 0 -223.5 61t-89.5 181z" />
    <glyph glyph-name="gbreve" unicode="&#x11f;" horiz-adv-x="1300" 
d="M930 573q0 200 -82.5 310t-231.5 110q-148 0 -230.5 -110t-82.5 -310q0 -199 82.5 -309t230.5 -110q149 0 231.5 110t82.5 309zM1114 139q0 -286 -127 -425.5t-389 -139.5q-97 0 -183 14.5t-167 44.5v179q81 -44 160 -65t161 -21q181 0 271 94.5t90 285.5v91
q-57 -99 -146 -148t-213 -49q-206 0 -332 157t-126 416q0 260 126 417t332 157q124 0 213 -49t146 -148v170h184v-981zM338 1608h118q11 -75 59.5 -112.5t135.5 -37.5q86 0 134 37t61 113h118q-10 -143 -89 -215t-224 -72t-224 72t-89 215z" />
    <glyph glyph-name="Gdotaccent" unicode="&#x120;" horiz-adv-x="1587" 
d="M758 1872h204v-205h-204v205zM1219 213v401h-330v166h530v-641q-117 -83 -258 -125.5t-301 -42.5q-350 0 -547.5 204.5t-197.5 569.5q0 366 197.5 570.5t547.5 204.5q146 0 277.5 -36t242.5 -106v-215q-112 95 -238 143t-265 48q-274 0 -411.5 -153t-137.5 -456
q0 -302 137.5 -455t411.5 -153q107 0 191 18.5t151 57.5z" />
    <glyph glyph-name="gdotaccent" unicode="&#x121;" horiz-adv-x="1300" 
d="M514 1552h204v-204h-204v204zM930 573q0 200 -82.5 310t-231.5 110q-148 0 -230.5 -110t-82.5 -310q0 -199 82.5 -309t230.5 -110q149 0 231.5 110t82.5 309zM1114 139q0 -286 -127 -425.5t-389 -139.5q-97 0 -183 14.5t-167 44.5v179q81 -44 160 -65t161 -21
q181 0 271 94.5t90 285.5v91q-57 -99 -146 -148t-213 -49q-206 0 -332 157t-126 416q0 260 126 417t332 157q124 0 213 -49t146 -148v170h184v-981z" />
    <glyph glyph-name="Gcommaaccent" unicode="&#x122;" horiz-adv-x="1587" 
d="M794 -150h211l-164 -320h-129zM1219 213v401h-330v166h530v-641q-117 -83 -258 -125.5t-301 -42.5q-350 0 -547.5 204.5t-197.5 569.5q0 366 197.5 570.5t547.5 204.5q146 0 277.5 -36t242.5 -106v-215q-112 95 -238 143t-265 48q-274 0 -411.5 -153t-137.5 -456
q0 -302 137.5 -455t411.5 -153q107 0 191 18.5t151 57.5z" />
    <glyph glyph-name="gcommaaccent" unicode="&#x123;" horiz-adv-x="1300" 
d="M722 1269h-211l164 319h129zM930 573q0 200 -82.5 310t-231.5 110q-148 0 -230.5 -110t-82.5 -310q0 -199 82.5 -309t230.5 -110q149 0 231.5 110t82.5 309zM1114 139q0 -286 -127 -425.5t-389 -139.5q-97 0 -183 14.5t-167 44.5v179q81 -44 160 -65t161 -21
q181 0 271 94.5t90 285.5v91q-57 -99 -146 -148t-213 -49q-206 0 -332 157t-126 416q0 260 126 417t332 157q124 0 213 -49t146 -148v170h184v-981z" />
    <glyph glyph-name="Hcircumflex" unicode="&#x124;" horiz-adv-x="1540" 
d="M676 1901h188l211 -266h-139l-166 178l-166 -178h-139zM201 1493h202v-612h734v612h202v-1493h-202v711h-734v-711h-202v1493z" />
    <glyph glyph-name="hcircumflex" unicode="&#x125;" horiz-adv-x="1298" 
d="M184 1901h188l211 -266h-139l-166 178l-166 -178h-139zM1124 676v-676h-184v670q0 159 -62 238t-186 79q-149 0 -235 -95t-86 -259v-633h-185v1556h185v-610q66 101 155.5 151t206.5 50q193 0 292 -119.5t99 -351.5z" />
    <glyph glyph-name="Hbar" unicode="&#x126;" horiz-adv-x="1876" 
d="M369 1493h202v-224h734v224h202v-224h168v-164h-168v-1105h-202v711h-734v-711h-202v1105h-168v164h168v224zM571 1105v-224h734v224h-734z" />
    <glyph glyph-name="hbar" unicode="&#x127;" horiz-adv-x="1423" 
d="M1183 676v-676h-184v670q0 159 -62 238t-186 79q-149 0 -235 -95t-86 -259v-633h-185v1270h-125v164h125v122h185v-122h352v-164h-352v-324q66 101 155.5 151t206.5 50q193 0 292 -119.5t99 -351.5z" />
    <glyph glyph-name="Itilde" unicode="&#x128;" horiz-adv-x="604" 
d="M298 1710l-57 33q-25 14 -40.5 19.5t-27.5 5.5q-36 0 -56 -25t-20 -70v-6h-125q0 101 51.5 160t137.5 59q36 0 66.5 -8t78.5 -35l57 -30q23 -13 40 -19t32 -6q32 0 52 25.5t20 66.5v6h125q-2 -100 -53.5 -159.5t-135.5 -59.5q-34 0 -63.5 8t-81.5 35zM201 1493h202v-1493
h-202v1493z" />
    <glyph glyph-name="itilde" unicode="&#x129;" horiz-adv-x="569" 
d="M282 1370l-57 55q-22 20 -38.5 29.5t-29.5 9.5q-38 0 -56 -36.5t-20 -118.5h-125q2 135 53 208.5t142 73.5q38 0 70 -14t69 -47l57 -55q22 -20 38.5 -29.5t29.5 -9.5q38 0 56 36.5t20 118.5h125q-2 -135 -53 -208.5t-142 -73.5q-38 0 -70 14t-69 47zM193 1120h184v-1120
h-184v1120z" />
    <glyph glyph-name="Imacron" unicode="&#x12a;" horiz-adv-x="604" 
d="M4 1841h598v-148h-598v148zM201 1493h202v-1493h-202v1493z" />
    <glyph glyph-name="imacron" unicode="&#x12b;" horiz-adv-x="569" 
d="M-13 1526h598v-148h-598v148zM193 1120h184v-1120h-184v1120z" />
    <glyph glyph-name="Ibreve" unicode="&#x12c;" horiz-adv-x="604" 
d="M-11 1901h118q13 -54 62.5 -82.5t132.5 -28.5q82 0 130.5 27.5t64.5 83.5h118q-10 -119 -90 -180.5t-223 -61.5q-144 0 -223.5 61t-89.5 181zM201 1493h202v-1493h-202v1493z" />
    <glyph glyph-name="ibreve" unicode="&#x12d;" horiz-adv-x="569" 
d="M-27 1608h118q11 -75 59.5 -112.5t135.5 -37.5q86 0 134 37t61 113h118q-10 -143 -89 -215t-224 -72t-224 72t-89 215zM193 1120h184v-1120h-184v1120z" />
    <glyph glyph-name="Iogonek" unicode="&#x12e;" horiz-adv-x="604" 
d="M285 0h119q-45 -61 -66.5 -105t-21.5 -75q0 -46 27.5 -69t81.5 -23q32 0 63 7.5t62 22.5v-133q-38 -10 -72 -15t-64 -5q-122 0 -179.5 43.5t-57.5 136.5q0 48 26.5 100.5t81.5 114.5zM201 1493h202v-1493h-202v1493z" />
    <glyph glyph-name="iogonek" unicode="&#x12f;" horiz-adv-x="569" 
d="M259 0h119q-45 -61 -66.5 -105t-21.5 -75q0 -46 27.5 -69t81.5 -23q32 0 63 7.5t62 22.5v-133q-38 -10 -72 -15t-64 -5q-122 0 -179.5 43.5t-57.5 136.5q0 48 26.5 100.5t81.5 114.5zM193 1120h184v-1120h-184v1120zM193 1556h184v-233h-184v233z" />
    <glyph glyph-name="Idotaccent" unicode="&#x130;" horiz-adv-x="604" 
d="M201 1493h202v-1493h-202v1493zM201 1872h204v-205h-204v205z" />
    <glyph glyph-name="dotlessi" unicode="&#x131;" horiz-adv-x="569" 
d="M193 1120h184v-1120h-184v1120z" />
    <glyph glyph-name="IJ" unicode="&#x132;" horiz-adv-x="1208" 
d="M805 1493h202v-1389q0 -270 -102.5 -392t-329.5 -122h-77v170h63q134 0 189 75t55 269v1389zM201 1493h202v-1493h-202v1493z" />
    <glyph glyph-name="ij" unicode="&#x133;" horiz-adv-x="1138" 
d="M761 1120h184v-1140q0 -214 -81.5 -310t-262.5 -96h-70v156h49q105 0 143 48.5t38 201.5v1140zM761 1556h184v-233h-184v233zM193 1120h184v-1120h-184v1120zM193 1556h184v-233h-184v233z" />
    <glyph glyph-name="Jcircumflex" unicode="&#x134;" horiz-adv-x="604" 
d="M208 1901h188l211 -266h-139l-166 178l-166 -178h-139zM201 1493h202v-1389q0 -270 -102.5 -392t-329.5 -122h-77v170h63q134 0 189 75t55 269v1389z" />
    <glyph glyph-name="jcircumflex" unicode="&#x135;" horiz-adv-x="569" 
d="M212 1638h148l245 -376h-139l-180 245l-180 -245h-139zM193 1120h184v-1140q0 -214 -81.5 -310t-262.5 -96h-70v156h49q105 0 143 48.5t38 201.5v1140z" />
    <glyph glyph-name="Kcommaaccent" unicode="&#x136;" horiz-adv-x="1343" 
d="M727 -122h211l-164 -320h-129zM201 1493h202v-631l670 631h260l-741 -696l794 -797h-266l-717 719v-719h-202v1493z" />
    <glyph glyph-name="kcommaaccent" unicode="&#x137;" horiz-adv-x="1186" 
d="M616 -122h211l-164 -320h-129zM186 1556h185v-919l549 483h235l-594 -524l619 -596h-240l-569 547v-547h-185v1556z" />
    <glyph glyph-name="kgreenlandic" unicode="&#x138;" horiz-adv-x="1186" 
d="M186 1120h185v-485l549 485h235l-594 -526l619 -594h-240l-569 545v-545h-185v1120z" />
    <glyph glyph-name="Lacute" unicode="&#x139;" horiz-adv-x="1141" 
d="M421 1900h185l-228 -264h-153zM201 1493h202v-1323h727v-170h-929v1493z" />
    <glyph glyph-name="lacute" unicode="&#x13a;" horiz-adv-x="600" 
d="M401 1900h185l-228 -264h-153zM193 1556h184v-1556h-184v1556z" />
    <glyph glyph-name="Lcommaaccent" unicode="&#x13b;" horiz-adv-x="1141" 
d="M599 -122h211l-164 -320h-129zM201 1493h202v-1323h727v-170h-929v1493z" />
    <glyph glyph-name="lcommaaccent" unicode="&#x13c;" horiz-adv-x="569" 
d="M218 -122h211l-164 -320h-129zM193 1556h184v-1556h-184v1556z" />
    <glyph glyph-name="Lcaron" unicode="&#x13d;" horiz-adv-x="1141" 
d="M671 1494h199l-117 -376h-153zM201 1493h202v-1323h727v-170h-929v1493z" />
    <glyph glyph-name="lcaron" unicode="&#x13e;" horiz-adv-x="768" 
d="M569 1556h199l-117 -376h-153zM193 1556h184v-1556h-184v1556z" />
    <glyph glyph-name="Ldot" unicode="&#x13f;" horiz-adv-x="1141" 
d="M780 957h211v-254h-211v254zM201 1493h202v-1323h727v-170h-929v1493z" />
    <glyph glyph-name="ldot" unicode="&#x140;" horiz-adv-x="700" 
d="M433 953h211v-254h-211v254zM193 1556h184v-1556h-184v1556z" />
    <glyph glyph-name="Lslash" unicode="&#x141;" horiz-adv-x="1151" 
d="M211 1493h203v-616l313 219l80 -111l-393 -274v-541h727v-170h-930v571l-148 -106l-77 110l225 158v760z" />
    <glyph glyph-name="lslash" unicode="&#x142;" horiz-adv-x="582" 
d="M199 1556h184v-602l125 90l76 -106l-201 -141v-797h-184v666l-123 -88l-74 106l197 141v731z" />
    <glyph glyph-name="Nacute" unicode="&#x143;" horiz-adv-x="1532" 
d="M764 1900h185l-228 -264h-153zM201 1493h272l662 -1249v1249h196v-1493h-272l-662 1249v-1249h-196v1493z" />
    <glyph glyph-name="nacute" unicode="&#x144;" horiz-adv-x="1298" 
d="M717 1645h199l-326 -376h-153zM1124 676v-676h-184v670q0 159 -62 238t-186 79q-149 0 -235 -95t-86 -259v-633h-185v1120h185v-174q66 101 155.5 151t206.5 50q193 0 292 -119.5t99 -351.5z" />
    <glyph glyph-name="Ncommaaccent" unicode="&#x145;" horiz-adv-x="1532" 
d="M700 -122h211l-164 -320h-129zM201 1493h272l662 -1249v1249h196v-1493h-272l-662 1249v-1249h-196v1493z" />
    <glyph glyph-name="ncommaaccent" unicode="&#x146;" horiz-adv-x="1298" 
d="M588 -122h211l-164 -320h-129zM1124 676v-676h-184v670q0 159 -62 238t-186 79q-149 0 -235 -95t-86 -259v-633h-185v1120h185v-174q66 101 155.5 151t206.5 50q193 0 292 -119.5t99 -351.5z" />
    <glyph glyph-name="Ncaron" unicode="&#x147;" horiz-adv-x="1532" 
d="M201 1493h272l662 -1249v1249h196v-1493h-272l-662 1249v-1249h-196v1493zM663 1621l-211 266h139l166 -178l166 178h139l-211 -266h-188z" />
    <glyph glyph-name="ncaron" unicode="&#x148;" horiz-adv-x="1298" 
d="M1124 676v-676h-184v670q0 159 -62 238t-186 79q-149 0 -235 -95t-86 -259v-633h-185v1120h185v-174q66 101 155.5 151t206.5 50q193 0 292 -119.5t99 -351.5zM579 1262l-245 376h139l180 -245l180 245h139l-245 -376h-148z" />
    <glyph glyph-name="napostrophe" unicode="&#x149;" horiz-adv-x="1666" 
d="M1465 676v-676h-184v670q0 159 -62 238t-186 79q-149 0 -235 -95t-86 -259v-633h-185v1120h185v-174q66 101 155.5 151t206.5 50q193 0 292 -119.5t99 -351.5zM287 1493h211v-152l-164 -319h-129l82 319v152z" />
    <glyph glyph-name="Eng" unicode="&#x14a;" horiz-adv-x="1532" 
d="M213 1493h184l738 -1149v1149h184v-1513q0 -214 -82 -310q-81 -96 -262 -96h-254v156h233q105 0 143 48q38 49 38 222l-738 1149v-1149h-184v1493z" />
    <glyph glyph-name="eng" unicode="&#x14b;" horiz-adv-x="1298" 
d="M1124 676v-696q0 -214 -82 -310q-81 -96 -262 -96h-254v156h233q105 0 143 48q38 49 38 202v690q0 159 -62 238t-186 79q-149 0 -235 -95t-86 -259v-633h-185v1120h185v-174q66 101 155 151q90 50 207 50q193 0 292 -119q99 -120 99 -352z" />
    <glyph glyph-name="Omacron" unicode="&#x14c;" horiz-adv-x="1612" 
d="M508 1841h598v-148h-598v148zM807 1356q-220 0 -349.5 -164t-129.5 -447q0 -282 129.5 -446t349.5 -164t348.5 164t128.5 446q0 283 -128.5 447t-348.5 164zM807 1520q314 0 502 -210.5t188 -564.5q0 -353 -188 -563.5t-502 -210.5q-315 0 -503.5 210t-188.5 564
t188.5 564.5t503.5 210.5z" />
    <glyph glyph-name="omacron" unicode="&#x14d;" horiz-adv-x="1253" 
d="M328 1526h598v-148h-598v148zM614 991q-148 0 -234 -115.5t-86 -316.5t85.5 -316.5t234.5 -115.5q147 0 233 116t86 316q0 199 -86 315.5t-233 116.5zM614 1147q240 0 377 -156t137 -432q0 -275 -137 -431.5t-377 -156.5q-241 0 -377.5 156.5t-136.5 431.5
q0 276 136.5 432t377.5 156z" />
    <glyph glyph-name="Obreve" unicode="&#x14e;" horiz-adv-x="1612" 
d="M494 1901h118q13 -54 62.5 -82.5t132.5 -28.5q82 0 130.5 27.5t64.5 83.5h118q-10 -119 -90 -180.5t-223 -61.5q-144 0 -223.5 61t-89.5 181zM807 1356q-220 0 -349.5 -164t-129.5 -447q0 -282 129.5 -446t349.5 -164t348.5 164t128.5 446q0 283 -128.5 447t-348.5 164z
M807 1520q314 0 502 -210.5t188 -564.5q0 -353 -188 -563.5t-502 -210.5q-315 0 -503.5 210t-188.5 564t188.5 564.5t503.5 210.5z" />
    <glyph glyph-name="obreve" unicode="&#x14f;" horiz-adv-x="1253" 
d="M314 1608h118q11 -75 59.5 -112.5t135.5 -37.5q86 0 134 37t61 113h118q-10 -143 -89 -215t-224 -72t-224 72t-89 215zM614 991q-148 0 -234 -115.5t-86 -316.5t85.5 -316.5t234.5 -115.5q147 0 233 116t86 316q0 199 -86 315.5t-233 116.5zM614 1147q240 0 377 -156
t137 -432q0 -275 -137 -431.5t-377 -156.5q-241 0 -377.5 156.5t-136.5 431.5q0 276 136.5 432t377.5 156z" />
    <glyph glyph-name="Ohungarumlaut" unicode="&#x150;" horiz-adv-x="1612" 
d="M1056 1899h185l-228 -264h-153zM721 1899h185l-228 -264h-153zM807 1356q-220 0 -349.5 -164t-129.5 -447q0 -282 129.5 -446t349.5 -164t348.5 164t128.5 446q0 283 -128.5 447t-348.5 164zM807 1520q314 0 502 -210.5t188 -564.5q0 -353 -188 -563.5t-502 -210.5
q-315 0 -503.5 210t-188.5 564t188.5 564.5t503.5 210.5z" />
    <glyph glyph-name="ohungarumlaut" unicode="&#x151;" horiz-adv-x="1253" 
d="M924 1638h178l-248 -376h-135zM590 1638h170l-223 -376h-137zM614 991q-148 0 -234 -115.5t-86 -316.5t85.5 -316.5t234.5 -115.5q147 0 233 116t86 316q0 199 -86 315.5t-233 116.5zM614 1147q240 0 377 -156t137 -432q0 -275 -137 -431.5t-377 -156.5
q-241 0 -377.5 156.5t-136.5 431.5q0 276 136.5 432t377.5 156z" />
    <glyph glyph-name="OE" unicode="&#x152;" horiz-adv-x="2191" 
d="M2042 1493v-170h-742v-442h711v-170h-711v-541h760v-170h-1065q-433 0 -656.5 190t-223.5 558q0 365 223.5 555t656.5 190h1047zM1098 1323h-129q-321 0 -481 -143.5t-160 -431.5q0 -289 160 -433.5t481 -144.5h129v1153z" />
    <glyph glyph-name="oe" unicode="&#x153;" horiz-adv-x="2095" 
d="M1802 660q-2 152 -84 241.5t-219 89.5q-153 0 -245.5 -87t-106.5 -245zM1987 606v-90h-846q12 -190 114 -289.5t285 -99.5q106 0 206 26t198 78v-174q-100 -42 -204 -64t-210 -22q-160 0 -281 55t-202 164q-71 -110 -175.5 -164.5t-244.5 -54.5q-241 0 -377.5 156.5
t-136.5 431.5q0 276 136.5 432t377.5 156q140 0 245.5 -55.5t171.5 -163.5q78 107 194 163t259 56q226 0 358 -145.5t132 -395.5zM627 991q-148 0 -234 -115.5t-86 -316.5t85.5 -316.5t234.5 -115.5q147 0 233 116t86 316q0 199 -86 315.5t-233 116.5z" />
    <glyph glyph-name="Racute" unicode="&#x154;" horiz-adv-x="1423" 
d="M716 1900h185l-228 -264h-153zM909 700q65 -22 126.5 -94t123.5 -198l205 -408h-217l-191 383q-74 150 -143.5 199t-189.5 49h-220v-631h-202v1493h456q256 0 382 -107t126 -323q0 -141 -65.5 -234t-190.5 -129zM403 1327v-530h254q146 0 220.5 67.5t74.5 198.5
t-74.5 197.5t-220.5 66.5h-254z" />
    <glyph glyph-name="racute" unicode="&#x155;" horiz-adv-x="842" 
d="M717 1645h199l-326 -376h-153zM842 948q-31 18 -67.5 26.5t-80.5 8.5q-156 0 -239.5 -101.5t-83.5 -291.5v-590h-185v1120h185v-174q58 102 151 151.5t226 49.5q19 0 42 -2.5t51 -7.5z" />
    <glyph glyph-name="Rcommaaccent" unicode="&#x156;" horiz-adv-x="1423" 
d="M716 -122h211l-164 -320h-129zM909 700q65 -22 126.5 -94t123.5 -198l205 -408h-217l-191 383q-74 150 -143.5 199t-189.5 49h-220v-631h-202v1493h456q256 0 382 -107t126 -323q0 -141 -65.5 -234t-190.5 -129zM403 1327v-530h254q146 0 220.5 67.5t74.5 198.5
t-74.5 197.5t-220.5 66.5h-254z" />
    <glyph glyph-name="rcommaaccent" unicode="&#x157;" horiz-adv-x="842" 
d="M212 -122h211l-164 -320h-129zM842 948q-31 18 -67.5 26.5t-80.5 8.5q-156 0 -239.5 -101.5t-83.5 -291.5v-590h-185v1120h185v-174q58 102 151 151.5t226 49.5q19 0 42 -2.5t51 -7.5z" />
    <glyph glyph-name="Rcaron" unicode="&#x158;" horiz-adv-x="1423" 
d="M909 700q65 -22 126.5 -94t123.5 -198l205 -408h-217l-191 383q-74 150 -143.5 199t-189.5 49h-220v-631h-202v1493h456q256 0 382 -107t126 -323q0 -141 -65.5 -234t-190.5 -129zM403 1327v-530h254q146 0 220.5 67.5t74.5 198.5t-74.5 197.5t-220.5 66.5h-254z
M543 1621l-211 266h139l166 -178l166 178h139l-211 -266h-188z" />
    <glyph glyph-name="rcaron" unicode="&#x159;" horiz-adv-x="842" 
d="M842 948q-31 18 -67.5 26.5t-80.5 8.5q-156 0 -239.5 -101.5t-83.5 -291.5v-590h-185v1120h185v-174q58 102 151 151.5t226 49.5q19 0 42 -2.5t51 -7.5zM465 1262l-245 376h139l180 -245l180 245h139l-245 -376h-148z" />
    <glyph glyph-name="Sacute" unicode="&#x15a;" horiz-adv-x="1300" 
d="M716 1900h185l-228 -264h-153zM1096 1444v-197q-115 55 -217 82t-197 27q-165 0 -254.5 -64t-89.5 -182q0 -99 59.5 -149.5t225.5 -81.5l122 -25q226 -43 333.5 -151.5t107.5 -290.5q0 -217 -145.5 -329t-426.5 -112q-106 0 -225.5 24t-247.5 71v208q123 -69 241 -104
t232 -35q173 0 267 68t94 194q0 110 -67.5 172t-221.5 93l-123 24q-226 45 -327 141t-101 267q0 198 139.5 312t384.5 114q105 0 214 -19t223 -57z" />
    <glyph glyph-name="sacute" unicode="&#x15b;" horiz-adv-x="1067" 
d="M717 1645h199l-326 -376h-153zM907 1087v-174q-78 40 -162 60t-174 20q-137 0 -205.5 -42t-68.5 -126q0 -64 49 -100.5t197 -69.5l63 -14q196 -42 278.5 -118.5t82.5 -213.5q0 -156 -123.5 -247t-339.5 -91q-90 0 -187.5 17.5t-205.5 52.5v190q102 -53 201 -79.5
t196 -26.5q130 0 200 44.5t70 125.5q0 75 -50.5 115t-221.5 77l-64 15q-171 36 -247 110.5t-76 204.5q0 158 112 244t318 86q102 0 192 -15t166 -45z" />
    <glyph glyph-name="Scircumflex" unicode="&#x15c;" horiz-adv-x="1300" 
d="M565 1901h188l211 -266h-139l-166 178l-166 -178h-139zM1096 1444v-197q-115 55 -217 82t-197 27q-165 0 -254.5 -64t-89.5 -182q0 -99 59.5 -149.5t225.5 -81.5l122 -25q226 -43 333.5 -151.5t107.5 -290.5q0 -217 -145.5 -329t-426.5 -112q-106 0 -225.5 24t-247.5 71
v208q123 -69 241 -104t232 -35q173 0 267 68t94 194q0 110 -67.5 172t-221.5 93l-123 24q-226 45 -327 141t-101 267q0 198 139.5 312t384.5 114q105 0 214 -19t223 -57z" />
    <glyph glyph-name="scircumflex" unicode="&#x15d;" horiz-adv-x="1067" 
d="M475 1638h148l245 -376h-139l-180 245l-180 -245h-139zM907 1087v-174q-78 40 -162 60t-174 20q-137 0 -205.5 -42t-68.5 -126q0 -64 49 -100.5t197 -69.5l63 -14q196 -42 278.5 -118.5t82.5 -213.5q0 -156 -123.5 -247t-339.5 -91q-90 0 -187.5 17.5t-205.5 52.5v190
q102 -53 201 -79.5t196 -26.5q130 0 200 44.5t70 125.5q0 75 -50.5 115t-221.5 77l-64 15q-171 36 -247 110.5t-76 204.5q0 158 112 244t318 86q102 0 192 -15t166 -45z" />
    <glyph glyph-name="Scedilla" unicode="&#x15e;" horiz-adv-x="1300" 
d="M1096 1444v-197q-115 55 -217 82t-197 27q-165 0 -254.5 -64t-89.5 -182q0 -99 59.5 -149.5t225.5 -81.5l122 -25q226 -43 333.5 -151.5t107.5 -290.5q0 -217 -145.5 -329t-426.5 -112q-106 0 -225.5 24t-247.5 71v208q123 -69 241 -104t232 -35q173 0 267 68t94 194
q0 110 -67.5 172t-221.5 93l-123 24q-226 45 -327 141t-101 267q0 198 139.5 312t384.5 114q105 0 214 -19t223 -57zM735 0q55 -62 82 -114.5t27 -100.5q0 -89 -60 -134.5t-178 -45.5q-46 0 -89.5 6t-86.5 18v131q34 -17 71 -24.5t84 -7.5q59 0 89 24t30 70q0 30 -21.5 73.5
t-66.5 104.5h119z" />
    <glyph glyph-name="scedilla" unicode="&#x15f;" horiz-adv-x="1067" 
d="M907 1087v-174q-78 40 -162 60t-174 20q-137 0 -205.5 -42t-68.5 -126q0 -64 49 -100.5t197 -69.5l63 -14q196 -42 278.5 -118.5t82.5 -213.5q0 -156 -123.5 -247t-339.5 -91q-90 0 -187.5 17.5t-205.5 52.5v190q102 -53 201 -79.5t196 -26.5q130 0 200 44.5t70 125.5
q0 75 -50.5 115t-221.5 77l-64 15q-171 36 -247 110.5t-76 204.5q0 158 112 244t318 86q102 0 192 -15t166 -45zM619 0q55 -62 82 -114.5t27 -100.5q0 -89 -60 -134.5t-178 -45.5q-46 0 -89.5 6t-86.5 18v131q34 -17 71 -24.5t84 -7.5q59 0 89 24t30 70q0 30 -21.5 73.5
t-66.5 104.5h119z" />
    <glyph glyph-name="Scaron" unicode="&#x160;" horiz-adv-x="1300" 
d="M1096 1444v-197q-115 55 -217 82t-197 27q-165 0 -254.5 -64t-89.5 -182q0 -99 59.5 -149.5t225.5 -81.5l122 -25q226 -43 333.5 -151.5t107.5 -290.5q0 -217 -145.5 -329t-426.5 -112q-106 0 -225.5 24t-247.5 71v208q123 -69 241 -104t232 -35q173 0 267 68t94 194
q0 110 -67.5 172t-221.5 93l-123 24q-226 45 -327 141t-101 267q0 198 139.5 312t384.5 114q105 0 214 -19t223 -57zM557 1635l-211 266h139l166 -178l166 178h139l-211 -266h-188z" />
    <glyph glyph-name="scaron" unicode="&#x161;" horiz-adv-x="1067" 
d="M907 1087v-174q-78 40 -162 60t-174 20q-137 0 -205.5 -42t-68.5 -126q0 -64 49 -100.5t197 -69.5l63 -14q196 -42 278.5 -118.5t82.5 -213.5q0 -156 -123.5 -247t-339.5 -91q-90 0 -187.5 17.5t-205.5 52.5v190q102 -53 201 -79.5t196 -26.5q130 0 200 44.5t70 125.5
q0 75 -50.5 115t-221.5 77l-64 15q-171 36 -247 110.5t-76 204.5q0 158 112 244t318 86q102 0 192 -15t166 -45zM461 1262l-245 376h139l180 -245l180 245h139l-245 -376h-148z" />
    <glyph glyph-name="Tcommaaccent" unicode="&#x162;" horiz-adv-x="1251" 
d="M676 0q55 -62 82 -114.5t27 -100.5q0 -89 -60 -134.5t-178 -45.5q-46 0 -89.5 6t-86.5 18v131q34 -17 71 -24.5t84 -7.5q59 0 89 24t30 70q0 30 -21.5 73.5t-66.5 104.5h119zM-6 1493h1263v-170h-530v-1323h-203v1323h-530v170z" />
    <glyph glyph-name="tcommaaccent" unicode="&#x163;" horiz-adv-x="803" 
d="M566 0q55 -62 82 -114.5t27 -100.5q0 -89 -60 -134.5t-178 -45.5q-46 0 -89.5 6t-86.5 18v131q34 -17 71 -24.5t84 -7.5q59 0 89 24t30 70q0 30 -21.5 73.5t-66.5 104.5h119zM375 1438v-318h379v-143h-379v-608q0 -137 37.5 -176t152.5 -39h189v-154h-189
q-213 0 -294 79.5t-81 289.5v608h-135v143h135v318h185z" />
    <glyph glyph-name="Tcaron" unicode="&#x164;" horiz-adv-x="1251" 
d="M-6 1493h1263v-170h-530v-1323h-203v1323h-530v170zM533 1621l-211 266h139l166 -178l166 178h139l-211 -266h-188z" />
    <glyph glyph-name="tcaron" unicode="&#x165;" horiz-adv-x="803" 
d="M375 1438v-318h379v-143h-379v-608q0 -137 37.5 -176t152.5 -39h189v-154h-189q-213 0 -294 79.5t-81 289.5v608h-135v143h135v318h185zM567 1666h199l-117 -376h-153z" />
    <glyph glyph-name="Tbar" unicode="&#x166;" horiz-adv-x="1251" 
d="M-6 1493h1263v-170h-530v-576h265v-170h-265v-577h-203v577h-265v170h265v576h-530v170z" />
    <glyph glyph-name="tbar" unicode="&#x167;" horiz-adv-x="803" 
d="M375 1438v-318h379v-143h-379v-233h190v-142h-190v-233q0 -137 37 -176q38 -39 153 -39h189v-154h-189q-213 0 -294 80q-81 79 -81 289v233h-135v142h135v233h-135v143h135v318h185z" />
    <glyph glyph-name="Utilde" unicode="&#x168;" horiz-adv-x="1499" 
d="M746 1710l-57 33q-25 14 -40.5 19.5t-27.5 5.5q-36 0 -56 -25t-20 -70v-6h-125q0 101 51.5 160t137.5 59q36 0 66.5 -8t78.5 -35l57 -30q23 -13 40 -19t32 -6q32 0 52 25.5t20 66.5v6h125q-2 -100 -53.5 -159.5t-135.5 -59.5q-34 0 -63.5 8t-81.5 35zM178 1493h203v-907
q0 -240 87 -345.5t282 -105.5q194 0 281 105.5t87 345.5v907h203v-932q0 -292 -144.5 -441t-426.5 -149q-283 0 -427.5 149t-144.5 441v932z" />
    <glyph glyph-name="utilde" unicode="&#x169;" horiz-adv-x="1298" 
d="M639 1370l-57 55q-22 20 -38.5 29.5t-29.5 9.5q-38 0 -56 -36.5t-20 -118.5h-125q2 135 53 208.5t142 73.5q38 0 70 -14t69 -47l57 -55q22 -20 38.5 -29.5t29.5 -9.5q38 0 56 36.5t20 118.5h125q-2 -135 -53 -208.5t-142 -73.5q-38 0 -70 14t-69 47zM174 442v678h184
v-671q0 -159 62 -238.5t186 -79.5q149 0 235.5 95t86.5 259v635h184v-1120h-184v172q-67 -102 -155.5 -151.5t-205.5 -49.5q-193 0 -293 120t-100 351z" />
    <glyph glyph-name="Umacron" unicode="&#x16a;" horiz-adv-x="1499" 
d="M451 1841h598v-148h-598v148zM178 1493h203v-907q0 -240 87 -345.5t282 -105.5q194 0 281 105.5t87 345.5v907h203v-932q0 -292 -144.5 -441t-426.5 -149q-283 0 -427.5 149t-144.5 441v932z" />
    <glyph glyph-name="umacron" unicode="&#x16b;" horiz-adv-x="1298" 
d="M344 1526h598v-148h-598v148zM174 442v678h184v-671q0 -159 62 -238.5t186 -79.5q149 0 235.5 95t86.5 259v635h184v-1120h-184v172q-67 -102 -155.5 -151.5t-205.5 -49.5q-193 0 -293 120t-100 351z" />
    <glyph glyph-name="Ubreve" unicode="&#x16c;" horiz-adv-x="1499" 
d="M437 1901h118q13 -54 62.5 -82.5t132.5 -28.5q82 0 130.5 27.5t64.5 83.5h118q-10 -119 -90 -180.5t-223 -61.5q-144 0 -223.5 61t-89.5 181zM178 1493h203v-907q0 -240 87 -345.5t282 -105.5q194 0 281 105.5t87 345.5v907h203v-932q0 -292 -144.5 -441t-426.5 -149
q-283 0 -427.5 149t-144.5 441v932z" />
    <glyph glyph-name="ubreve" unicode="&#x16d;" horiz-adv-x="1298" 
d="M330 1608h118q11 -75 59.5 -112.5t135.5 -37.5q86 0 134 37t61 113h118q-10 -143 -89 -215t-224 -72t-224 72t-89 215zM174 442v678h184v-671q0 -159 62 -238.5t186 -79.5q149 0 235.5 95t86.5 259v635h184v-1120h-184v172q-67 -102 -155.5 -151.5t-205.5 -49.5
q-193 0 -293 120t-100 351z" />
    <glyph glyph-name="Uring" unicode="&#x16e;" horiz-adv-x="1499" 
d="M178 1493h203v-907q0 -240 87 -345.5t282 -105.5q194 0 281 105.5t87 345.5v907h203v-932q0 -292 -144.5 -441t-426.5 -149q-283 0 -427.5 149t-144.5 441v932zM904 1849q0 63 -44 107t-108 44q-65 0 -108.5 -43.5t-43.5 -107.5q0 -65 43.5 -108.5t108.5 -43.5
q64 0 108 44t44 108zM1026 1849q0 -115 -79.5 -195t-194.5 -80t-194.5 80t-79.5 195t79.5 194.5t194.5 79.5t194.5 -79.5t79.5 -194.5z" />
    <glyph glyph-name="uring" unicode="&#x16f;" horiz-adv-x="1298" 
d="M174 442v678h184v-671q0 -159 62 -238.5t186 -79.5q149 0 235.5 95t86.5 259v635h184v-1120h-184v172q-67 -102 -155.5 -151.5t-205.5 -49.5q-193 0 -293 120t-100 351zM788 1465q0 63 -44 107t-108 44q-65 0 -108.5 -43.5t-43.5 -107.5q0 -65 43.5 -108.5t108.5 -43.5
q64 0 108 44t44 108zM910 1465q0 -115 -79.5 -195t-194.5 -80t-194.5 80t-79.5 195t79.5 194.5t194.5 79.5t194.5 -79.5t79.5 -194.5z" />
    <glyph glyph-name="Uhungarumlaut" unicode="&#x170;" horiz-adv-x="1499" 
d="M999 1899h185l-228 -264h-153zM664 1899h185l-228 -264h-153zM178 1493h203v-907q0 -240 87 -345.5t282 -105.5q194 0 281 105.5t87 345.5v907h203v-932q0 -292 -144.5 -441t-426.5 -149q-283 0 -427.5 149t-144.5 441v932z" />
    <glyph glyph-name="uhungarumlaut" unicode="&#x171;" horiz-adv-x="1298" 
d="M940 1638h178l-248 -376h-135zM606 1638h170l-223 -376h-137zM174 442v678h184v-671q0 -159 62 -238.5t186 -79.5q149 0 235.5 95t86.5 259v635h184v-1120h-184v172q-67 -102 -155.5 -151.5t-205.5 -49.5q-193 0 -293 120t-100 351z" />
    <glyph glyph-name="Uogonek" unicode="&#x172;" horiz-adv-x="1499" 
d="M178 1493h203v-907q0 -240 87 -345.5t282 -105.5q194 0 281 105.5t87 345.5v907h203v-932q0 -292 -144.5 -441t-426.5 -149q-283 0 -427.5 149t-144.5 441v932zM690 -15h119q-45 -61 -66.5 -105t-21.5 -75q0 -46 27.5 -69t81.5 -23q32 0 63 7.5t62 22.5v-133
q-38 -10 -72 -15t-64 -5q-122 0 -179.5 43.5t-57.5 136.5q0 48 26.5 100.5t81.5 114.5z" />
    <glyph glyph-name="uogonek" unicode="&#x173;" horiz-adv-x="1298" 
d="M174 442v678h184v-671q0 -159 62 -238.5t186 -79.5q149 0 235.5 95t86.5 259v635h184v-1120h-184v172q-67 -102 -155.5 -151.5t-205.5 -49.5q-193 0 -293 120t-100 351zM991 0h119q-45 -61 -66.5 -105t-21.5 -75q0 -46 27.5 -69t81.5 -23q32 0 63 7.5t62 22.5v-133
q-38 -10 -72 -15t-64 -5q-122 0 -179.5 43.5t-57.5 136.5q0 48 26.5 100.5t81.5 114.5z" />
    <glyph glyph-name="Wcircumflex" unicode="&#x174;" horiz-adv-x="2025" 
d="M919 1908h188l211 -266h-139l-166 178l-166 -178h-139zM68 1493h204l314 -1262l313 1262h227l314 -1262l313 1262h205l-375 -1493h-254l-315 1296l-318 -1296h-254z" />
    <glyph glyph-name="wcircumflex" unicode="&#x175;" horiz-adv-x="1675" 
d="M763 1645h148l245 -376h-139l-180 245l-180 -245h-139zM86 1120h184l230 -874l229 874h217l230 -874l229 874h184l-293 -1120h-217l-241 918l-242 -918h-217z" />
    <glyph glyph-name="Ycircumflex" unicode="&#x176;" horiz-adv-x="1251" 
d="M532 1908h188l211 -266h-139l-166 178l-166 -178h-139zM-4 1493h217l414 -614l411 614h217l-528 -782v-711h-203v711z" />
    <glyph glyph-name="ycircumflex" unicode="&#x177;" horiz-adv-x="1212" 
d="M532 1645h148l245 -376h-139l-180 245l-180 -245h-139zM659 -104q-78 -200 -152 -261t-198 -61h-147v154h108q76 0 118 36t93 170l33 84l-453 1102h195l350 -876l350 876h195z" />
    <glyph glyph-name="Ydieresis" unicode="&#x178;" horiz-adv-x="1251" 
d="M-4 1493h217l414 -614l411 614h217l-528 -782v-711h-203v711zM721 1870h203v-203h-203v203zM330 1870h203v-203h-203v203z" />
    <glyph glyph-name="Zacute" unicode="&#x179;" horiz-adv-x="1403" 
d="M716 1900h185l-228 -264h-153zM115 1493h1173v-154l-944 -1169h967v-170h-1219v154l944 1169h-921v170z" />
    <glyph glyph-name="zacute" unicode="&#x17a;" horiz-adv-x="1075" 
d="M717 1645h199l-326 -376h-153zM113 1120h874v-168l-692 -805h692v-147h-899v168l692 805h-667v147z" />
    <glyph glyph-name="Zdotaccent" unicode="&#x17b;" horiz-adv-x="1403" 
d="M578 1853h204v-205h-204v205zM115 1493h1173v-154l-944 -1169h967v-170h-1219v154l944 1169h-921v170z" />
    <glyph glyph-name="zdotaccent" unicode="&#x17c;" horiz-adv-x="1075" 
d="M410 1552h204v-204h-204v204zM113 1120h874v-168l-692 -805h692v-147h-899v168l692 805h-667v147z" />
    <glyph glyph-name="Zcaron" unicode="&#x17d;" horiz-adv-x="1403" 
d="M115 1493h1173v-154l-944 -1169h967v-170h-1219v154l944 1169h-921v170zM608 1635l-211 266h139l166 -178l166 178h139l-211 -266h-188z" />
    <glyph glyph-name="zcaron" unicode="&#x17e;" horiz-adv-x="1075" 
d="M113 1120h874v-168l-692 -805h692v-147h-899v168l692 805h-667v147zM465 1262l-245 376h139l180 -245l180 245h139l-245 -376h-148z" />
    <glyph glyph-name="longs" unicode="&#x17f;" horiz-adv-x="721" 
d="M408 0h-185v977h-176v143h176v78q0 187 87 272.5t276 85.5h174v-153h-176q-99 0 -138 -40q-38 -41 -38 -144v-1219z" />
    <glyph glyph-name="uni0186" unicode="&#x186;" horiz-adv-x="1430" 
d="M115 1378q104 71 222.5 106.5t252.5 35.5q339 0 534 -207.5t195 -567.5q0 -359 -195 -566.5t-534 -207.5q-132 0 -250.5 36t-224.5 108v211q102 -95 217.5 -142t245.5 -47q256 0 392 156.5t136 451.5q0 296 -136 452.5t-392 156.5q-130 0 -245.5 -47t-217.5 -142v213z
" />
    <glyph glyph-name="uni0190" unicode="&#x190;" horiz-adv-x="1303" 
d="M464 805q-131 33 -202 118.5t-71 209.5q0 178 134 282.5t364 104.5q89 0 189.5 -16t215.5 -48v-180q-114 38 -209 56t-178 18q-152 0 -233.5 -61.5t-81.5 -176.5q0 -112 79 -171.5t228 -59.5h182v-166h-174q-165 0 -257.5 -74.5t-92.5 -206.5q0 -143 99.5 -218t289.5 -75
q109 0 209 25t184 74v-195q-106 -37 -205.5 -55.5t-193.5 -18.5q-280 0 -432 121t-152 342q0 144 81.5 242t226.5 129z" />
    <glyph glyph-name="florin" unicode="&#x192;" horiz-adv-x="1303" 
d="M1282 1520v-164q-38 29 -78 43t-84 14q-96 0 -153 -61t-82 -193l-60 -311h287v-143h-317l-127 -635q-58 -285 -152 -390.5t-280 -105.5q-58 0 -108 10.5t-97 32.5v166q52 -33 100.5 -49.5t95.5 -16.5q97 0 151.5 68.5t88.5 234.5l137 685h-248v143h279l63 330
q36 183 135 280.5t250 97.5q53 0 103 -9t96 -27z" />
    <glyph glyph-name="uni0194" unicode="&#x194;" horiz-adv-x="1403" 
d="M832 650q327 -449 324 -844q-3 -236 -416 -236q-408 0 -440 236q-49 366 294 851l-465 696h217l371 -555l373 555h217zM702 495q-206 -301 -199 -625q3 -138 216 -138q205 0 204 138q-3 330 -221 625z" />
    <glyph glyph-name="uni01C4" unicode="&#x1c4;" horiz-adv-x="2912" 
d="M1572 1493h1173v-154l-944 -1169h967v-170h-1219v154l944 1169h-921v170zM2065 1635l-211 266h139l166 -178l166 178h139l-211 -266h-188zM403 1327v-1161h244q309 0 452.5 140t143.5 442q0 300 -143.5 439.5t-452.5 139.5h-244zM201 1493h415q434 0 637 -180.5
t203 -564.5q0 -386 -204 -567t-636 -181h-415v1493z" />
    <glyph glyph-name="uni01C5" unicode="&#x1c5;" horiz-adv-x="2660" 
d="M1606 1120h874v-168l-692 -805h692v-147h-899v168l692 805h-667v147zM1958 1262l-245 376h139l180 -245l180 245h139l-245 -376h-148zM403 1327v-1161h244q309 0 452.5 140t143.5 442q0 300 -143.5 439.5t-452.5 139.5h-244zM201 1493h415q434 0 637 -180.5t203 -564.5
q0 -386 -204 -567t-636 -181h-415v1493z" />
    <glyph glyph-name="uni01C6" unicode="&#x1c6;" horiz-adv-x="2364" 
d="M1319 1120h874v-168l-692 -805h692v-147h-899v168l692 805h-667v147zM1671 1262l-245 376h139l180 -245l180 245h139l-245 -376h-148zM930 950v606h184v-1556h-184v168q-58 -100 -146.5 -148.5t-212.5 -48.5q-203 0 -330.5 162t-127.5 426t127.5 426t330.5 162
q124 0 212.5 -48.5t146.5 -148.5zM303 559q0 -203 83.5 -318.5t229.5 -115.5t230 115.5t84 318.5t-84 318.5t-230 115.5t-229.5 -115.5t-83.5 -318.5z" />
    <glyph glyph-name="uni01C7" unicode="&#x1c7;" horiz-adv-x="1711" 
d="M1370 1493h202v-1389q0 -270 -102.5 -392t-329.5 -122h-77v170h63q134 0 189 75t55 269v1389zM201 1493h202v-1323h727v-170h-929v1493z" />
    <glyph glyph-name="uni01C8" unicode="&#x1c8;" horiz-adv-x="1611" 
d="M1318 1120h184v-1140q0 -214 -81.5 -310t-262.5 -96h-70v156h49q105 0 143 48.5t38 201.5v1140zM1318 1556h184v-233h-184v233zM201 1493h202v-1323h727v-170h-929v1493z" />
    <glyph glyph-name="uni01C9" unicode="&#x1c9;" horiz-adv-x="935" 
d="M567 1120h184v-1140q0 -214 -81.5 -310t-262.5 -96h-70v156h49q105 0 143 48.5t38 201.5v1140zM567 1556h184v-233h-184v233zM193 1556h184v-1556h-184v1556z" />
    <glyph glyph-name="uni01CA" unicode="&#x1ca;" horiz-adv-x="1907" 
d="M1576 1493h202v-1389q0 -270 -102.5 -392t-329.5 -122h-77v170h63q134 0 189 75t55 269v1389zM201 1493h272l662 -1249v1249h196v-1493h-272l-662 1249v-1249h-196v1493z" />
    <glyph glyph-name="uni01CB" unicode="&#x1cb;" horiz-adv-x="1892" 
d="M1535 1120h184v-1140q0 -214 -81.5 -310t-262.5 -96h-70v156h49q105 0 143 48.5t38 201.5v1140zM1535 1556h184v-233h-184v233zM201 1493h272l662 -1249v1249h196v-1493h-272l-662 1249v-1249h-196v1493z" />
    <glyph glyph-name="uni01CC" unicode="&#x1cc;" horiz-adv-x="1633" 
d="M1318 1120h184v-1140q0 -214 -81.5 -310t-262.5 -96h-70v156h49q105 0 143 48.5t38 201.5v1140zM1318 1556h184v-233h-184v233zM1124 676v-676h-184v670q0 159 -62 238t-186 79q-149 0 -235 -95t-86 -259v-633h-185v1120h185v-174q66 101 155.5 151t206.5 50
q193 0 292 -119.5t99 -351.5z" />
    <glyph glyph-name="uni01CD" unicode="&#x1cd;" horiz-adv-x="1401" 
d="M700 1294l-274 -743h549zM586 1493h229l569 -1493h-210l-136 383h-673l-136 -383h-213zM608 1635l-211 266h139l166 -178l166 178h139l-211 -266h-188z" />
    <glyph glyph-name="uni01CE" unicode="&#x1ce;" horiz-adv-x="1255" 
d="M702 563q-223 0 -309 -51t-86 -174q0 -98 64.5 -155.5t175.5 -57.5q153 0 245.5 108.5t92.5 288.5v41h-183zM1069 639v-639h-184v170q-63 -102 -157 -150.5t-230 -48.5q-172 0 -273.5 96.5t-101.5 258.5q0 189 126.5 285t377.5 96h258v18q0 127 -83.5 196.5t-234.5 69.5
q-96 0 -187 -23t-175 -69v170q101 39 196 58.5t185 19.5q243 0 363 -126t120 -382zM528 1262l-245 376h139l180 -245l180 245h139l-245 -376h-148z" />
    <glyph glyph-name="uni01CF" unicode="&#x1cf;" horiz-adv-x="604" 
d="M201 1493h202v-1493h-202v1493zM209 1635l-211 266h139l166 -178l166 178h139l-211 -266h-188z" />
    <glyph glyph-name="uni01D0" unicode="&#x1d0;" horiz-adv-x="569" 
d="M193 1120h184v-1120h-184v1120zM214 1262l-245 376h139l180 -245l180 245h139l-245 -376h-148z" />
    <glyph glyph-name="uni01D1" unicode="&#x1d1;" horiz-adv-x="1612" 
d="M807 1356q-220 0 -349.5 -164t-129.5 -447q0 -282 129.5 -446t349.5 -164t348.5 164t128.5 446q0 283 -128.5 447t-348.5 164zM807 1520q314 0 502 -210.5t188 -564.5q0 -353 -188 -563.5t-502 -210.5q-315 0 -503.5 210t-188.5 564t188.5 564.5t503.5 210.5zM713 1635
l-211 266h139l166 -178l166 178h139l-211 -266h-188z" />
    <glyph glyph-name="uni01D2" unicode="&#x1d2;" horiz-adv-x="1253" 
d="M614 991q-148 0 -234 -115.5t-86 -316.5t85.5 -316.5t234.5 -115.5q147 0 233 116t86 316q0 199 -86 315.5t-233 116.5zM614 1147q240 0 377 -156t137 -432q0 -275 -137 -431.5t-377 -156.5q-241 0 -377.5 156.5t-136.5 431.5q0 276 136.5 432t377.5 156zM556 1262
l-245 376h139l180 -245l180 245h139l-245 -376h-148z" />
    <glyph glyph-name="uni01D3" unicode="&#x1d3;" horiz-adv-x="1499" 
d="M178 1493h203v-907q0 -240 87 -345.5t282 -105.5q194 0 281 105.5t87 345.5v907h203v-932q0 -292 -144.5 -441t-426.5 -149q-283 0 -427.5 149t-144.5 441v932zM664 1635l-211 266h139l166 -178l166 178h139l-211 -266h-188z" />
    <glyph glyph-name="uni01D4" unicode="&#x1d4;" horiz-adv-x="1298" 
d="M174 442v678h184v-671q0 -159 62 -238.5t186 -79.5q149 0 235.5 95t86.5 259v635h184v-1120h-184v172q-67 -102 -155.5 -151.5t-205.5 -49.5q-193 0 -293 120t-100 351zM556 1262l-245 376h139l180 -245l180 245h139l-245 -376h-148z" />
    <glyph glyph-name="uni01D6" unicode="&#x1d6;" horiz-adv-x="1298" 
d="M336 1841h598v-148h-598v148zM174 442v678h184v-671q0 -159 62 -238.5t186 -79.5q149 0 235.5 95t86.5 259v635h184v-1120h-184v172q-67 -102 -155.5 -151.5t-205.5 -49.5q-193 0 -293 120t-100 351zM729 1552h203v-202h-203v202zM338 1552h203v-202h-203v202z" />
    <glyph glyph-name="uni01DF" unicode="&#x1df;" horiz-adv-x="1255" 
d="M295 1841h598v-148h-598v148zM702 563q-223 0 -309 -51t-86 -174q0 -98 64.5 -155.5t175.5 -57.5q153 0 245.5 108.5t92.5 288.5v41h-183zM1069 639v-639h-184v170q-63 -102 -157 -150.5t-230 -48.5q-172 0 -273.5 96.5t-101.5 258.5q0 189 126.5 285t377.5 96h258v18
q0 127 -83.5 196.5t-234.5 69.5q-96 0 -187 -23t-175 -69v170q101 39 196 58.5t185 19.5q243 0 363 -126t120 -382zM688 1552h203v-202h-203v202zM297 1552h203v-202h-203v202z" />
    <glyph glyph-name="uni01E2" unicode="&#x1e2;" horiz-adv-x="1995" 
d="M940 1844h598v-148h-598v148zM1845 1493v-170h-741v-442h711v-170h-711v-541h760v-170h-963v383h-528l-160 -383h-205l625 1493h1212zM772 1335l-330 -784h459v784h-129z" />
    <glyph glyph-name="uni01E3" unicode="&#x1e3;" horiz-adv-x="2011" 
d="M701 1523h598v-148h-598v148zM1718 660q-1 151 -83.5 241t-219.5 90q-153 0 -245.5 -87t-106.5 -245zM995 963q74 90 180 137t238 47q226 0 358 -145.5t132 -395.5v-90h-846q12 -191 114 -291t285 -100q104 0 204 26.5t200 79.5v-174q-100 -42 -204 -64t-210 -22
q-167 0 -291 60.5t-201 179.5q-73 -120 -181 -180t-251 -60q-189 0 -294 93.5t-105 261.5q0 189 126.5 285t377.5 96h258v18q0 127 -83.5 196.5t-234.5 69.5q-96 0 -187 -23t-175 -69v170q101 39 196 58.5t185 19.5q142 0 248.5 -48t160.5 -136zM702 563q-223 0 -309 -51
t-86 -174q0 -98 64.5 -155.5t175.5 -57.5q153 0 245.5 108.5t92.5 288.5v41h-183z" />
    <glyph glyph-name="uni01EA" unicode="&#x1ea;" horiz-adv-x="1612" 
d="M748 -15h119q-45 -61 -66.5 -105t-21.5 -75q0 -46 27.5 -69t81.5 -23q32 0 63 7.5t62 22.5v-133q-38 -10 -72 -15t-64 -5q-122 0 -179.5 43.5t-57.5 136.5q0 48 26.5 100.5t81.5 114.5zM807 1356q-220 0 -349.5 -164t-129.5 -447q0 -282 129.5 -446t349.5 -164t348.5 164
t128.5 446q0 283 -128.5 447t-348.5 164zM807 1520q314 0 502 -210.5t188 -564.5q0 -353 -188 -563.5t-502 -210.5q-315 0 -503.5 210t-188.5 564t188.5 564.5t503.5 210.5z" />
    <glyph glyph-name="uni01EB" unicode="&#x1eb;" horiz-adv-x="1253" 
d="M568 -15h119q-45 -61 -66.5 -105t-21.5 -75q0 -46 27.5 -69t81.5 -23q32 0 63 7.5t62 22.5v-133q-38 -10 -72 -15t-64 -5q-122 0 -179.5 43.5t-57.5 136.5q0 48 26.5 100.5t81.5 114.5zM614 991q-148 0 -234 -115.5t-86 -316.5t85.5 -316.5t234.5 -115.5q147 0 233 116
t86 316q0 199 -86 315.5t-233 116.5zM614 1147q240 0 377 -156t137 -432q0 -275 -137 -431.5t-377 -156.5q-241 0 -377.5 156.5t-136.5 431.5q0 276 136.5 432t377.5 156z" />
    <glyph glyph-name="uni01EC" unicode="&#x1ec;" horiz-adv-x="1612" 
d="M508 1841h598v-148h-598v148zM748 -16h119q-45 -61 -66.5 -105t-21.5 -75q0 -46 27.5 -69t81.5 -23q32 0 63 7.5t62 22.5v-133q-38 -10 -72 -15t-64 -5q-122 0 -179.5 43.5t-57.5 136.5q0 48 26.5 100.5t81.5 114.5zM807 1356q-220 0 -349.5 -164t-129.5 -447
q0 -282 129.5 -446t349.5 -164t348.5 164t128.5 446q0 283 -128.5 447t-348.5 164zM807 1520q314 0 502 -210.5t188 -564.5q0 -353 -188 -563.5t-502 -210.5q-315 0 -503.5 210t-188.5 564t188.5 564.5t503.5 210.5z" />
    <glyph glyph-name="uni01ED" unicode="&#x1ed;" horiz-adv-x="1253" 
d="M328 1525h598v-148h-598v148zM568 -16h119q-45 -61 -66.5 -105t-21.5 -75q0 -46 27.5 -69t81.5 -23q32 0 63 7.5t62 22.5v-133q-38 -10 -72 -15t-64 -5q-122 0 -179.5 43.5t-57.5 136.5q0 48 26.5 100.5t81.5 114.5zM627 991q-148 0 -234 -115.5t-86 -316.5t85.5 -316.5
t234.5 -115.5q147 0 233 116t86 316q0 199 -86 315.5t-233 116.5zM627 1147q240 0 377 -156t137 -432q0 -275 -137 -431.5t-377 -156.5q-241 0 -377.5 156.5t-136.5 431.5q0 276 136.5 432t377.5 156z" />
    <glyph glyph-name="Scommaaccent" unicode="&#x218;" horiz-adv-x="1300" 
d="M562 -132h211l-164 -320h-129zM1096 1444v-197q-115 55 -217 82t-197 27q-165 0 -254.5 -64t-89.5 -182q0 -99 59.5 -149.5t225.5 -81.5l122 -25q226 -43 333.5 -151.5t107.5 -290.5q0 -217 -145.5 -329t-426.5 -112q-106 0 -225.5 24t-247.5 71v208q123 -69 241 -104
t232 -35q173 0 267 68t94 194q0 110 -67.5 172t-221.5 93l-123 24q-226 45 -327 141t-101 267q0 198 139.5 312t384.5 114q105 0 214 -19t223 -57z" />
    <glyph glyph-name="scommaaccent" unicode="&#x219;" horiz-adv-x="1067" 
d="M488 -132h211l-164 -320h-129zM907 1087v-174q-78 40 -162 60t-174 20q-137 0 -205.5 -42t-68.5 -126q0 -64 49 -100.5t197 -69.5l63 -14q196 -42 278.5 -118.5t82.5 -213.5q0 -156 -123.5 -247t-339.5 -91q-90 0 -187.5 17.5t-205.5 52.5v190q102 -53 201 -79.5
t196 -26.5q130 0 200 44.5t70 125.5q0 75 -50.5 115t-221.5 77l-64 15q-171 36 -247 110.5t-76 204.5q0 158 112 244t318 86q102 0 192 -15t166 -45z" />
    <glyph glyph-name="uni021A" unicode="&#x21a;" horiz-adv-x="1251" 
d="M527 -132h211l-164 -320h-129zM-6 1493h1263v-170h-530v-1323h-203v1323h-530v170z" />
    <glyph glyph-name="uni021B" unicode="&#x21b;" horiz-adv-x="803" 
d="M444 -132h211l-164 -320h-129zM375 1438v-318h379v-143h-379v-608q0 -137 37.5 -176t152.5 -39h189v-154h-189q-213 0 -294 79.5t-81 289.5v608h-135v143h135v318h185z" />
    <glyph glyph-name="uni022B" unicode="&#x22b;" horiz-adv-x="1253" 
d="M328 1841h598v-148h-598v148zM627 991q-148 0 -234 -115.5t-86 -316.5t85.5 -316.5t234.5 -115.5q147 0 233 116t86 316q0 199 -86 315.5t-233 116.5zM627 1147q240 0 377 -156t137 -432q0 -275 -137 -431.5t-377 -156.5q-241 0 -377.5 156.5t-136.5 431.5
q0 276 136.5 432t377.5 156zM721 1552h203v-202h-203v202zM330 1552h203v-202h-203v202z" />
    <glyph glyph-name="uni022D" unicode="&#x22d;" horiz-adv-x="1253" 
d="M327 1841h598v-148h-598v148zM627 991q-148 0 -234 -115.5t-86 -316.5t85.5 -316.5t234.5 -115.5q147 0 233 116t86 316q0 199 -86 315.5t-233 116.5zM627 1147q240 0 377 -156t137 -432q0 -275 -137 -431.5t-377 -156.5q-241 0 -377.5 156.5t-136.5 431.5
q0 276 136.5 432t377.5 156zM623 1370l-57 55q-22 20 -38.5 29.5t-29.5 9.5q-38 0 -56 -36.5t-20 -118.5h-125q2 135 53 208.5t142 73.5q38 0 70 -14t69 -47l57 -55q22 -20 38.5 -29.5t29.5 -9.5q38 0 56 36.5t20 118.5h125q-2 -135 -53 -208.5t-142 -73.5q-38 0 -70 14
t-69 47z" />
    <glyph glyph-name="uni022E" unicode="&#x22e;" horiz-adv-x="1612" 
d="M705 1871h204v-205h-204v205zM807 1356q-220 0 -349.5 -164t-129.5 -447q0 -282 129.5 -446t349.5 -164t348.5 164t128.5 446q0 283 -128.5 447t-348.5 164zM807 1520q314 0 502 -210.5t188 -564.5q0 -353 -188 -563.5t-502 -210.5q-315 0 -503.5 210t-188.5 564
t188.5 564.5t503.5 210.5z" />
    <glyph glyph-name="uni022F" unicode="&#x22f;" horiz-adv-x="1253" 
d="M525 1552h204v-204h-204v204zM614 991q-148 0 -234 -115.5t-86 -316.5t85.5 -316.5t234.5 -115.5q147 0 233 116t86 316q0 199 -86 315.5t-233 116.5zM614 1147q240 0 377 -156t137 -432q0 -275 -137 -431.5t-377 -156.5q-241 0 -377.5 156.5t-136.5 431.5
q0 276 136.5 432t377.5 156z" />
    <glyph glyph-name="uni0231" unicode="&#x231;" horiz-adv-x="1253" 
d="M328 1841h598v-148h-598v148zM525 1552h204v-204h-204v204zM627 991q-148 0 -234 -115.5t-86 -316.5t85.5 -316.5t234.5 -115.5q147 0 233 116t86 316q0 199 -86 315.5t-233 116.5zM627 1147q240 0 377 -156t137 -432q0 -275 -137 -431.5t-377 -156.5
q-241 0 -377.5 156.5t-136.5 431.5q0 276 136.5 432t377.5 156z" />
    <glyph glyph-name="uni0232" unicode="&#x232;" horiz-adv-x="1251" 
d="M327 1841h598v-148h-598v148zM-4 1493h217l414 -614l411 614h217l-528 -782v-711h-203v711z" />
    <glyph glyph-name="uni0233" unicode="&#x233;" horiz-adv-x="1212" 
d="M307 1526h598v-148h-598v148zM659 -104q-78 -200 -152 -261t-198 -61h-147v154h108q76 0 118 36t93 170l33 84l-453 1102h195l350 -876l350 876h195z" />
    <glyph glyph-name="uni0237" unicode="&#x237;" horiz-adv-x="569" 
d="M193 1120h184v-1140q0 -214 -81.5 -310t-262.5 -96h-70v156h49q105 0 143 48.5t38 201.5v1140z" />
    <glyph glyph-name="uni0250" unicode="&#x250;" horiz-adv-x="1255" 
d="M490 555q223 0 309 51t86 174q0 98 -65 156q-64 57 -175 57q-153 0 -245 -109q-93 -108 -93 -288v-41h183zM123 479v639h184v-170q63 102 157 150q94 49 230 49q172 0 274 -97q101 -96 101 -258q0 -189 -127 -285q-126 -96 -377 -96h-258v-18q0 -127 83 -197
q84 -69 235 -69q96 0 187 23t175 69v-170q-101 -39 -196 -59q-95 -19 -185 -19q-243 0 -363 126t-120 382z" />
    <glyph glyph-name="uni0251" unicode="&#x251;" horiz-adv-x="1300" 
d="M930 950v170h184v-1120h-184v168q-58 -100 -146 -148q-89 -49 -213 -49q-203 0 -331 162q-127 162 -127 426t127 426q128 162 331 162q124 0 213 -49q88 -48 146 -148zM303 559q0 -203 83 -319q84 -115 230 -115t230 115q84 116 84 319t-84 319q-84 115 -230 115
t-230 -115q-83 -116 -83 -319z" />
    <glyph glyph-name="uni0252" unicode="&#x252;" horiz-adv-x="1300" 
d="M297 168v-170h-184v1120h184v-168q58 100 147 148q88 49 212 49q203 0 330 -162q128 -162 128 -426t-128 -426q-127 -162 -330 -162q-124 0 -212 49q-89 48 -147 148zM924 559q0 203 -84 319q-83 115 -229 115t-230 -115q-84 -116 -84 -319t84 -319q84 -115 230 -115
t229 115q84 116 84 319z" />
    <glyph glyph-name="uni0253" unicode="&#x253;" horiz-adv-x="1300" 
d="M997 559q0 203 -83 319q-84 115 -230 115t-230 -115q-83 -116 -83 -319t83 -319q84 -115 230 -115t230 115q83 116 83 319zM370 950q58 100 148 148q88 49 211 49q204 0 331 -162q128 -162 128 -426t-128 -426q-127 -162 -331 -162q-123 0 -211 49q-89 48 -147 148v-168
h-185v1002v148q0 214 82 310q81 96 262 96h254v-156h-233q-109 0 -143 -48q-38 -52 -38 -202v-148v-52z" />
    <glyph glyph-name="uni0254" unicode="&#x254;" horiz-adv-x="1126" 
d="M113 1077q76 35 157 53q81 17 166 17q262 0 412 -157q151 -157 151 -431q0 -270 -149 -429t-402 -159q-93 0 -176 18q-82 18 -159 54v170q78 -43 157 -65q78 -21 158 -21q179 0 278 113q99 114 99 319t-99 319q-99 113 -278 113q-80 0 -158 -21q-79 -22 -157 -65v172z
" />
    <glyph glyph-name="uni0255" unicode="&#x255;" horiz-adv-x="1126" 
d="M549 146q58 -19 135 -19q146 0 146 57q-2 75 -132 75q-101 0 -149 -113zM513 -16q-6 -57 -6 -125l-153 -3q0 104 12 188q-57 35 -104 86q-149 161 -149 429q0 274 151 431q150 157 412 157q83 0 166 -17q78 -17 157 -53v-172q-75 42 -157 65q-78 21 -158 21
q-179 0 -278 -113q-99 -114 -99 -319t99 -319q4 -5 13 -14q84 176 280 176q299 0 300 -246q1 -189 -333 -189q-80 0 -153 17z" />
    <glyph glyph-name="uni0256" unicode="&#x256;" horiz-adv-x="1300" 
d="M303 559q0 -203 83 -319q84 -115 230 -115t230 115q84 116 84 319t-84 319q-84 115 -230 115t-230 -115q-83 -116 -83 -319zM930 950v606h184v-1576q0 -153 38 -202q38 -48 143 -48h49v-156h-70q-181 0 -262 96q-82 96 -82 310v148v40q-58 -100 -146 -148
q-89 -49 -213 -49q-203 0 -331 162q-127 162 -127 426t127 426q128 162 331 162q124 0 213 -49q88 -48 146 -148z" />
    <glyph glyph-name="uni0257" unicode="&#x257;" horiz-adv-x="1489" 
d="M1114 1002v-1002h-184v168q-58 -100 -146 -148q-89 -49 -213 -49q-203 0 -331 162q-127 162 -127 426t127 426q128 162 331 162q124 0 213 -49q88 -48 146 -148v52v148q0 214 82 310q81 96 262 96h254v-156h-233q-109 0 -143 -48q-38 -52 -38 -202v-148zM303 559
q0 -203 83 -319q84 -115 230 -115t230 115q84 116 84 319t-84 319q-84 115 -230 115t-230 -115q-83 -116 -83 -319z" />
    <glyph glyph-name="uni0258" unicode="&#x258;" horiz-adv-x="1260" 
d="M113 606q0 250 131 396q132 145 358 145q252 0 400 -161q149 -162 149 -437q0 -266 -157 -422q-156 -156 -424 -156q-107 0 -211 22t-203 64v174q98 -52 198 -78q99 -26 205 -26q183 0 285 99q103 100 115 290h-846v90zM297 660l656 -1q-14 158 -107 245q-92 87 -246 87
q-136 0 -218 -90q-83 -90 -85 -241z" />
    <glyph glyph-name="uni0259" unicode="&#x259;" horiz-adv-x="1260" 
d="M113 512v90h846q-12 190 -115 290q-102 99 -285 99q-106 0 -205 -26q-100 -26 -198 -78v174q99 42 203 64t211 22q268 0 424 -156q157 -156 157 -422q0 -275 -149 -437q-148 -161 -400 -161q-226 0 -358 145q-131 146 -131 396zM297 458q2 -151 85 -241q82 -90 218 -90
q154 0 246 87q93 87 107 245z" />
    <glyph glyph-name="uni025A" unicode="&#x25a;" horiz-adv-x="1629" 
d="M846 214q102 138 100 345q1 62 -9 118l-617 -356q30 -69 62 -104q82 -90 218 -90q168 0 246 87zM1120 783q31 -96 31 -214q0 -275 -149 -437q-148 -161 -400 -161q-228 0 -358 145q-92 103 -120 259l766 443q-19 39 -46 74q-76 100 -285 99q-108 -1 -205 -26
q-100 -26 -198 -78v174q99 42 203 64t211 22q268 0 424 -156q36 -35 63 -76l203 117h184v-148q0 -153 38 -202q38 -48 143 -48h43v-156h-64q-175 0 -262 96q-82 90 -82 290z" />
    <glyph glyph-name="uni025B" unicode="&#x25b;" horiz-adv-x="1107" 
d="M395 604q-112 24 -172 89q-60 64 -60 157q0 141 114 220q113 78 309 78q76 0 161 -12t183 -36v-167q-97 29 -177 42q-81 13 -152 13q-119 0 -188 -46q-70 -46 -70 -110q0 -70 68 -115q67 -44 183 -44h155v-152h-148q-137 0 -209 -51q-78 -56 -78 -144q0 -90 84 -146
q85 -56 236 -56q93 0 178 18q85 19 156 56v-171q-90 -28 -174 -42q-85 -14 -165 -14q-238 0 -367 91t-129 264q0 108 69 181t193 97z" />
    <glyph glyph-name="uni025C" unicode="&#x25c;" horiz-adv-x="1116" 
d="M727 607q132 -23 206 -97q75 -74 75 -183q0 -166 -139 -258q-138 -91 -393 -91q-85 0 -176 14t-187 42v173q76 -34 167 -51q91 -18 191 -18q173 0 263 52q91 53 91 151q0 81 -85 136q-84 55 -234 55h-158v144h165q136 0 208 44q72 43 72 104q0 74 -74 117q-75 43 -213 43
q-75 0 -162 -12q-86 -13 -190 -40v167q105 24 196 36q92 12 172 12q210 0 332 -79t122 -213q0 -94 -65 -158q-65 -65 -184 -90z" />
    <glyph glyph-name="uni025D" unicode="&#x25d;" horiz-adv-x="1567" 
d="M727 607q132 -23 206 -97q75 -74 75 -183q0 -166 -139 -258q-138 -91 -393 -91q-85 0 -176 14t-187 42v173q76 -34 167 -51q91 -18 191 -18q173 0 263 52q91 53 91 151q0 81 -85 136q-84 55 -234 55h-158v144h165q136 0 208 44q72 43 72 104q0 74 -74 117q-75 43 -213 43
q-75 0 -162 -12q-86 -13 -190 -40v167q105 24 196 36q92 12 172 12q210 0 332 -79q100 -65 118 -167l226 131h184v-148q0 -153 38 -202q38 -48 143 -48h43v-156h-64q-175 0 -262 96q-82 90 -82 290l-280 -162l-1 1l-6 -6q-65 -65 -184 -90z" />
    <glyph glyph-name="uni025E" unicode="&#x25e;" horiz-adv-x="1396" 
d="M773 984q-452 0 -453 -418q0 -446 453 -447q157 0 230 54q85 64 85 138q0 78 -79 132q-43 30 -228 30h-182v157h182q185 0 228 30q79 55 79 132t-85 138q-76 54 -230 54zM480 1099q112 45 311 46q230 0 364 -86q134 -87 134 -235q0 -103 -71 -174t-202 -98
q131 -28 202 -99t71 -174q0 -148 -134 -234q-134 -87 -364 -87q-196 -2 -311 60q-367 194 -367 538q0 397 367 543z" />
    <glyph glyph-name="uni025F" unicode="&#x25f;" horiz-adv-x="744" 
d="M193 0h-181v143h181v977h184v-977h176v-143h-176v-20q0 -214 -81 -310q-82 -96 -263 -96h-70v156h49q105 0 143 48q38 50 38 202v20z" />
    <glyph glyph-name="uni0260" unicode="&#x260;" horiz-adv-x="1305" 
d="M930 573v420h-314q-148 0 -230 -110q-83 -110 -83 -310q0 -199 83 -309q82 -110 230 -110q149 0 232 110q82 110 82 309zM930 1120v30q0 214 82 310q81 96 262 96h70v-156h-49q-105 0 -143 -48q-38 -49 -38 -202v-30v-43v-938q0 -286 -127 -425q-127 -140 -389 -140
q-97 0 -183 14q-86 15 -167 45v179q81 -44 160 -65t161 -21q181 0 271 94q90 95 90 286v91q-57 -99 -146 -148t-213 -49q-206 0 -332 157t-126 416q0 233 126 390t332 157h359z" />
    <glyph glyph-name="uni0261" unicode="&#x261;" horiz-adv-x="1300" 
d="M930 573v420h-314q-148 0 -230 -110q-83 -110 -83 -310q0 -199 83 -309q82 -110 230 -110q149 0 232 110q82 110 82 309zM1114 1120v-981q0 -286 -127 -425q-127 -140 -389 -140q-97 0 -183 14q-86 15 -167 45v179q81 -44 160 -65t161 -21q181 0 271 94q90 95 90 286v91
q-57 -99 -146 -148t-213 -49q-206 0 -332 157t-126 416q0 233 126 390t332 157h543z" />
    <glyph glyph-name="uni0262" unicode="&#x262;" horiz-adv-x="1289" 
d="M937 178v282h-155v140h321v-528q-72 -34 -159 -54q-78 -18 -280 -18q-253 0 -402 159t-149 429q0 274 151 431q150 157 412 157q62 0 166 -18q104 -17 231 -92v-172q-120 77 -231 104q-87 22 -158 22q-179 0 -278 -114q-99 -113 -99 -318t99 -318q99 -114 278 -114
q173 0 253 22z" />
    <glyph glyph-name="uni0263" unicode="&#x263;" horiz-adv-x="1403" 
d="M841 572q283 -446 283 -766q0 -232 -384 -236q-423 -5 -424 236q-2 342 287 773l-397 541h217l303 -400l291 400h217zM720 452q-220 -308 -217 -582q2 -138 216 -138q203 0 204 138q1 250 -203 582z" />
    <glyph glyph-name="uni0264" unicode="&#x264;" horiz-adv-x="1212" 
d="M494 586l-398 534h217l297 -399l297 399h217l-405 -545q179 -241 179 -408q1 -167 -286 -167q-302 0 -302 167q0 177 184 419zM602 440q-118 -158 -118 -217q0 -104 123 -104q114 0 114 104q0 63 -119 217z" />
    <glyph glyph-name="uni0265" unicode="&#x265;" horiz-adv-x="1298" 
d="M174 442v678h184v-671q0 -159 62 -239q62 -79 186 -79q149 0 236 95q86 95 86 259v635h184v-1546h-184v598q-67 -102 -156 -152q-88 -49 -205 -49q-193 0 -293 120t-100 351z" />
    <glyph glyph-name="uni0266" unicode="&#x266;" horiz-adv-x="1298" 
d="M370 946h1q66 101 155 151q90 50 207 50q193 0 292 -119q99 -120 99 -352v-676h-184v670q0 159 -62 238t-186 79q-149 0 -235 -95t-86 -259v-633h-185v1002v148q0 214 82 310q81 96 262 96h254v-156h-233q-105 0 -143 -48q-38 -49 -38 -202v-204z" />
    <glyph glyph-name="uni0267" unicode="&#x267;" horiz-adv-x="1298" 
d="M370 946h1q66 101 155 151q90 50 207 50q193 0 292 -119q99 -120 99 -352v-696q0 -214 -82 -310q-81 -96 -262 -96h-254v156h233q105 0 143 48q38 49 38 202v690q0 159 -62 238t-186 79q-149 0 -235 -95t-86 -259v-633h-185v1002v148q0 214 82 310q81 96 262 96h254v-156
h-233q-105 0 -143 -48q-38 -49 -38 -202v-204z" />
    <glyph glyph-name="uni0268" unicode="&#x268;" horiz-adv-x="761" 
d="M116 452v164h180v504h184v-504h164v-164h-164v-452h-184v452h-180zM296 1556h184v-233h-184v233z" />
    <glyph glyph-name="uni0269" unicode="&#x269;" horiz-adv-x="793" 
d="M377 1120v-714q0 -153 38 -202q38 -48 143 -48h49v-156h-70q-181 0 -263 96q-81 96 -81 310v714h184z" />
    <glyph glyph-name="uni026A" unicode="&#x26a;" horiz-adv-x="761" 
d="M116 956v164h528v-164h-168v-792h168v-164h-528v164h176v792h-176z" />
    <glyph glyph-name="uni026B" unicode="&#x26b;" horiz-adv-x="998" 
d="M418 1556h184v-787q2 -1 3 -2q17 -9 30 -9q38 0 56 37q18 36 20 118h125q-2 -135 -53 -208q-51 -74 -142 -74q-20 0 -39 4v-635h-184v770q-6 4 -11 7q-17 9 -30 9q-38 0 -56 -37q-18 -36 -20 -118h-125q2 135 53 208q51 74 142 74q25 0 47 -6v649z" />
    <glyph glyph-name="uni026C" unicode="&#x26c;" horiz-adv-x="998" 
d="M418 1556h184v-770h250v-160h-250v-626h-184v596q0 15 -1 30h-61q-280 0 -279 189q1 246 246 246q53 0 95 -25v520zM402 786q-23 132 -78 132q-77 0 -78 -75q0 -57 92 -57h64z" />
    <glyph glyph-name="uni026D" unicode="&#x26d;" horiz-adv-x="570" 
d="M193 128v1428h184v-1428v-148q0 -153 38 -202q38 -48 143 -48h49v-156h-70q-181 0 -262 96q-82 96 -82 310v148z" />
    <glyph glyph-name="uni026E" unicode="&#x26e;" horiz-adv-x="1446" 
d="M835 476q105 0 234 -56q99 -43 184 -151q81 -104 81 -242q0 -221 -152 -342t-432 -121q-94 0 -193 18q-100 19 -206 56v195q84 -49 184 -74t209 -25q190 0 289 75q100 75 100 218q0 132 -92 207q-91 74 -258 74h-174v166l430 499h-662v-973h-184v1556h184v-436h869v-168z
" />
    <glyph glyph-name="uni026F" unicode="&#x26f;" horiz-adv-x="1995" 
d="M942 216q-69 -124 -165 -182q-96 -60 -226 -60q-175 0 -270 123t-95 349v676h185v-670q0 -162 57 -240t174 -78q143 0 226 96q83 94 83 258v634h185v-670q0 -162 57 -240t176 -78q141 0 224 96t83 258v634h185v-1120h-185v174q-63 -104 -151 -152q-88 -50 -209 -50
q-122 0 -208 62q-85 62 -126 180z" />
    <glyph glyph-name="uni0270" unicode="&#x270;" horiz-adv-x="1995" 
d="M942 216q-69 -124 -165 -183t-226 -59q-175 0 -270 122q-95 123 -95 349v676h185v-670q0 -161 57 -239t174 -78q143 0 226 95t83 259v633h185v-670q0 -162 57 -239q57 -78 176 -78q141 0 224 96q83 95 83 258v633h185v-1547h-185v601q-63 -103 -151 -152t-209 -49
q-122 0 -208 62q-85 62 -126 180z" />
    <glyph glyph-name="uni0271" unicode="&#x271;" horiz-adv-x="1995" 
d="M1065 905q69 124 165 183t226 59q175 0 270 -123q95 -122 95 -348v-696q0 -214 -82 -310q-81 -96 -262 -96h-254v156h233q105 0 143 48q38 49 38 202q-2 86 0 500q0 110 -1 190q0 161 -57 239t-174 78q-143 0 -226 -95t-83 -259v-633h-185v670q0 162 -57 240
q-57 77 -176 77q-141 0 -224 -95q-83 -96 -83 -259v-633h-185v1120h185v-174q63 103 151 152t209 49q122 0 207 -62q86 -62 127 -180z" />
    <glyph glyph-name="uni0272" unicode="&#x272;" horiz-adv-x="1323" 
d="M377 -20q0 -214 -81 -310q-82 -96 -263 -96h-70v156h49q105 0 143 48q38 49 38 202v1140h185v-174q66 101 156 151q89 50 206 50q193 0 292 -119q99 -120 99 -352v-676h-184v670q0 159 -62 238t-186 79q-149 0 -235 -95t-86 -259z" />
    <glyph glyph-name="uni0273" unicode="&#x273;" horiz-adv-x="1315" 
d="M940 670q0 159 -62 238t-186 79q-149 0 -235 -95t-86 -259v-633h-185v1120h185v-174q66 101 155 151q90 50 207 50q193 0 292 -119q99 -120 99 -352v-696q0 -153 38 -202q38 -48 143 -48h49v-156h-70q-181 0 -262 96q-82 96 -82 310v690z" />
    <glyph glyph-name="uni0274" unicode="&#x274;" horiz-adv-x="1298" 
d="M179 1147h272l477 -903v903h196v-1147h-272l-477 903v-903h-196v1147z" />
    <glyph glyph-name="uni0275" unicode="&#x275;" horiz-adv-x="1253" 
d="M627 1147q240 0 377 -156t137 -432q0 -275 -137 -431q-137 -157 -377 -157q-241 0 -377 157q-137 156 -137 431q0 276 137 432q136 156 377 156zM627 991q-148 0 -234 -115q-75 -101 -84 -265h635q-10 163 -84 263q-86 117 -233 117zM938 447h-623q17 -123 77 -205
q86 -115 235 -115q147 0 233 116q60 81 78 204z" />
    <glyph glyph-name="uni0276" unicode="&#x276;" horiz-adv-x="1757" 
d="M1558 1120v-154h-556v-291h533v-155h-533v-364h570v-156h-799q-325 0 -492 142q-168 143 -168 419q0 274 168 416q167 143 492 143h785zM815 990h-37q-240 0 -360 -108q-120 -107 -120 -323q0 -217 120 -325q120 -109 360 -109h37v865z" />
    <glyph glyph-name="uni0277" unicode="&#x277;" horiz-adv-x="1491" 
d="M398 780q-59 -96 -62 -116q-24 -112 -20 -178q9 -167 54 -230q60 -85 138 -85q77 0 132 79q30 43 30 228v182h156v-182q0 -185 30 -228q55 -79 132 -79q75 0 138 85q36 48 54 230q-5 75 -20 178q-3 23 -63 116q-105 160 -359 160q-242 0 -340 -160zM205 780
q95 368 543 367q420 -2 538 -367q38 -120 42 -122q14 -101 14 -190q0 -230 -87 -364t-234 -134q-103 0 -174 71t-99 202q-28 -131 -99 -202t-174 -71q-147 0 -234 134q-97 149 -87 364q3 19 14 190q22 66 37 122z" />
    <glyph glyph-name="uni0278" unicode="&#x278;" horiz-adv-x="1253" 
d="M532 1391h-240v164h240h184h240v-164h-240v-250q178 -24 288 -150q137 -156 137 -432q0 -275 -137 -431q-110 -127 -288 -151v-238h240v-164h-240h-184h-240v164h240v239q-174 25 -282 150q-137 156 -137 431q0 276 137 432q108 124 282 149v251zM716 979v-840
q86 26 144 104q86 116 86 316q0 199 -86 315q-58 79 -144 105zM532 141v836q-83 -26 -139 -101q-86 -116 -86 -317t85 -317q56 -75 140 -101z" />
    <glyph glyph-name="uni0279" unicode="&#x279;" horiz-adv-x="961" 
d="M113 172q31 -18 67 -26q37 -9 81 -9q156 0 239 101q84 102 84 292v590h185v-1120h-185v174q-58 -102 -151 -152q-93 -49 -226 -49q-19 0 -42 3q-23 2 -51 7z" />
    <glyph glyph-name="uni027A" unicode="&#x27a;" horiz-adv-x="961" 
d="M113 172q31 -18 67 -26q37 -9 81 -9q159 0 239 101q84 105 84 292v1016h185v-1546h-185v174q-58 -102 -151 -152q-93 -49 -226 -49q-19 0 -42 3q-23 2 -51 7z" />
    <glyph glyph-name="uni027B" unicode="&#x27b;" horiz-adv-x="960" 
d="M113 172q31 -18 67 -26q37 -9 81 -9q156 0 239 101q84 102 84 292v590h185v-1140q0 -153 38 -202q38 -48 143 -48h49v-156h-70q-181 0 -262 96q-82 96 -82 310l-1 194q-58 -102 -151 -152q-93 -49 -226 -49q-19 0 -42 3q-23 2 -51 7z" />
    <glyph glyph-name="uni027C" unicode="&#x27c;" horiz-adv-x="961" 
d="M769 948q-31 18 -67 26q-37 9 -81 9q-156 0 -239 -101q-84 -102 -84 -292v-1016h-185v1546h185v-174q58 102 151 152q93 49 226 49q19 0 42 -3q23 -2 51 -7z" />
    <glyph glyph-name="uni027D" unicode="&#x27d;" horiz-adv-x="961" 
d="M769 948q-31 18 -67 26q-37 9 -81 9q-156 0 -239 -101q-84 -101 -84 -292v-590h-2v-20q0 -153 38 -202q38 -48 143 -48h233v-156h-254q-181 0 -262 96q-82 96 -82 310v1140h186v-174q58 102 151 152q93 49 226 49q19 0 42 -3q23 -2 51 -7z" />
    <glyph glyph-name="uni027E" unicode="&#x27e;" horiz-adv-x="902" 
d="M112 600v141q0 212 82 310q81 96 262 96h254v-156h-233q-105 0 -143 -48q-39 -50 -38 -202l1 -151v-590h-185v600z" />
    <glyph glyph-name="uni027F" unicode="&#x27f;" horiz-adv-x="902" 
d="M710 600v-600h-185v590l1 151q1 152 -38 202q-38 48 -143 48h-233v156h254q181 0 262 -96q82 -98 82 -310v-141z" />
    <glyph glyph-name="uni0280" unicode="&#x280;" horiz-adv-x="1232" 
d="M652 525q55 -17 108 -71q52 -54 105 -148l174 -306h-195l-162 287q-63 113 -122 149q-59 37 -156 37h-169v-473h-185v1120h388q217 0 325 -80q107 -81 107 -243q0 -105 -56 -175t-162 -97zM235 965v-337h198q119 0 182 43q64 43 64 126q0 84 -64 126q-63 42 -182 42h-198
z" />
    <glyph glyph-name="uni0281" unicode="&#x281;" horiz-adv-x="1232" 
d="M652 595q106 -27 162 -97t56 -175q0 -162 -107 -243q-108 -80 -325 -80h-388v1120h185v-473h169q97 0 156 37q59 36 122 149l162 287h195l-174 -306q-53 -94 -105 -148q-53 -54 -108 -71zM235 155h198q119 0 182 42q64 42 64 126q0 83 -64 126q-63 43 -182 43h-198v-337z
" />
    <glyph glyph-name="uni0282" unicode="&#x282;" horiz-adv-x="1067" 
d="M907 1087v-174q-78 40 -162 60t-174 20q-137 0 -205 -42q-69 -42 -69 -126q0 -64 49 -101q49 -36 197 -69l63 -14q196 -42 278 -119q83 -76 83 -213q0 -156 -123 -247q-124 -91 -340 -91q-90 0 -188 17l-21 4v-12q0 -153 38 -202q38 -48 143 -48h233v-156h-254
q-181 0 -262 96q-82 96 -82 310v61v190q102 -53 201 -79q99 -27 196 -27q130 0 200 45q70 44 70 125q0 75 -50 115q-51 40 -222 77l-64 15q-171 36 -247 110q-76 75 -76 205q0 158 112 244t318 86q102 0 192 -15t166 -45z" />
    <glyph glyph-name="uni0283" unicode="&#x283;" horiz-adv-x="688" 
d="M193 -20q-1 624 -3 1218q0 181 87 272q81 86 276 86h174v-153h-176q-99 0 -137 -40q-39 -40 -39 -144l2 -1239q0 -214 -81 -310q-82 -96 -263 -96h-70v156h49q105 0 143 48q38 49 38 202z" />
    <glyph glyph-name="uni0284" unicode="&#x284;" horiz-adv-x="780" 
d="M104 0v143h181v834h-179v143h176v78q0 181 87 272q81 86 276 86h174v-153h-176q-99 0 -137 -40q-39 -40 -39 -144l2 -1076h176v-143h-176v-20q0 -214 -81 -310q-82 -96 -263 -96h-70v156h49q105 0 143 48q38 49 38 202v20h-181z" />
    <glyph glyph-name="uni0285" unicode="&#x285;" horiz-adv-x="945" 
d="M589 -20q0 -153 38 -202q38 -48 143 -48h49v-156h-70q-181 0 -263 96q-82 97 -81 310l2 808q0 104 -39 144q-38 40 -137 40h-176v153h174q195 0 276 -86q93 -97 87 -272q-3 -89 -3 -787z" />
    <glyph glyph-name="uni0286" unicode="&#x286;" horiz-adv-x="688" 
d="M180 -154h-179q-119 0 -116 -51q3 -65 127 -65q110 0 143 48q18 23 25 68zM377 0h181v-155h-191q-18 -111 -71 -175q-82 -96 -263 -96q-303 0 -303 216q0 210 270 210h190v1198q0 180 87 272q81 86 276 86h174v-153h-176q-100 0 -137 -40q-39 -41 -39 -144z" />
    <glyph glyph-name="uni0287" unicode="&#x287;" horiz-adv-x="803" 
d="M434 -318v318h-379v143h379v608q0 137 -38 176q-37 39 -152 39h-189v154h189q213 0 294 -80q81 -79 81 -289v-608h135v-143h-135v-318h-185z" />
    <glyph glyph-name="uni0288" unicode="&#x288;" horiz-adv-x="803" 
d="M375 1438v-318h379v-143h-379v-1033q0 -137 37 -176q38 -39 153 -39h189v-154h-189q-213 0 -294 79t-81 290v1033h-135v143h135v318h185z" />
    <glyph glyph-name="uni0289" unicode="&#x289;" horiz-adv-x="1298" 
d="M0 452v164h174v504h184v-504h570v504h184v-504h186v-164h-186v-452h-184v172q-67 -102 -156 -152q-88 -49 -205 -49q-193 0 -293 120t-100 351v10h-174zM927 452h-569v-3q0 -159 62 -239q62 -79 186 -79q149 0 236 95q77 85 85 226z" />
    <glyph glyph-name="uni028A" unicode="&#x28a;" horiz-adv-x="1265" 
d="M113 956v164h442v-220q-109 -69 -172 -174q-66 -111 -66 -246q0 -159 88 -256t232 -97t232 97q88 98 88 256q0 146 -66 246q-71 111 -171 174v220h436v-164h-236q114 -100 170 -213q54 -110 54 -246q0 -235 -142 -381t-367 -146t-367 145q-142 146 -142 374q0 147 52 254
q53 109 172 213h-237z" />
    <glyph glyph-name="uni028B" unicode="&#x28b;" horiz-adv-x="1225" 
d="M570 986h322q114 -100 170 -213q54 -110 54 -246q0 -235 -142 -381t-367 -146h-70q-181 0 -263 96q-81 96 -81 310v714h184v-714q0 -153 38 -202q40 -50 143 -48l51 1q144 0 232 97q88 98 88 256q0 146 -66 246q-79 119 -171 174q-76 44 -122 56z" />
    <glyph glyph-name="uni028C" unicode="&#x28c;" horiz-adv-x="1212" 
d="M1151 0h-195l-350 940l-350 -940h-195l420 1120h250z" />
    <glyph glyph-name="uni028D" unicode="&#x28d;" horiz-adv-x="1675" 
d="M1589 0h-184l-230 874l-229 -874h-217l-230 874l-229 -874h-184l293 1120h217l241 -918l242 918h217z" />
    <glyph glyph-name="uni028E" unicode="&#x28e;" horiz-adv-x="1212" 
d="M553 1224q78 200 152 261t198 61h147v-154h-108q-76 0 -118 -36t-93 -170l-33 -84l453 -1102h-195l-350 876l-350 -876h-195z" />
    <glyph glyph-name="uni028F" unicode="&#x28f;" horiz-adv-x="1251" 
d="M102 1149h217l293 -456l302 456h217l-419 -624v-525h-203v525z" />
    <glyph glyph-name="uni0290" unicode="&#x290;" horiz-adv-x="1075" 
d="M113 1120h874v-168l-692 -805h692v-147h-2v-20q0 -153 38 -202q38 -48 143 -48h49v-156h-70q-181 0 -262 96q-82 96 -82 310v20h-713v168l692 805h-667v147z" />
    <glyph glyph-name="uni0291" unicode="&#x291;" horiz-adv-x="1075" 
d="M603 0q-3 -51 -3 -111h-153q0 59 3 111h-362v168l692 805h-667v147h874v-168l-692 -805h175q60 288 279 288q227 0 228 -246q1 -189 -333 -189h-41zM624 147h20q174 0 174 54q0 91 -70 91q-88 -2 -124 -145z" />
    <glyph glyph-name="uni0292" unicode="&#x292;" horiz-adv-x="1183" 
d="M572 476q106 0 234 -56q98 -42 184 -151q81 -104 81 -242q0 -221 -152 -342t-432 -121q-94 0 -193 18q-100 19 -206 56v195q84 -49 184 -74t209 -25q190 0 289 75q100 75 100 218q0 132 -92 207q-93 74 -258 74h-174v166l430 499h-667v147h874v-168z" />
    <glyph glyph-name="uni0293" unicode="&#x293;" horiz-adv-x="1183" 
d="M487 -436q-335 0 -333 189q2 251 300 246q246 -4 404 -63q12 42 12 91q0 133 -92 207q-94 74 -258 74h-174v166l430 499h-667v147h874v-168l-411 -476q105 0 234 -56q100 -43 184 -151q81 -103 81 -242q0 -113 -39 -198q100 -101 100 -265h-153q0 82 -40 138l-20 -17
q-151 -121 -432 -121zM777 -186q-125 42 -322 42q-131 0 -132 -75q0 -47 158 -47q190 0 289 75z" />
    <glyph glyph-name="uni0294" unicode="&#x294;" horiz-adv-x="1045" 
d="M340 798h63q192 0 278 114q58 76 58 174q-1 133 -58 198q-99 114 -278 114q-80 0 -159 -22q-78 -21 -156 -64v172q76 35 157 52q81 18 166 18q275 0 413 -157q109 -125 109 -311q0 -170 -108 -285q-112 -119 -282 -149v-652h-202z" />
    <glyph glyph-name="uni0295" unicode="&#x295;" horiz-adv-x="1045" 
d="M680 798v-798h-202v652q-170 30 -282 149q-108 115 -108 285q0 186 110 311q137 157 412 157q85 0 166 -18q81 -17 157 -52v-172q-78 43 -157 64q-78 22 -158 22q-179 0 -278 -114q-57 -65 -58 -198q0 -98 58 -174q86 -114 278 -114h62z" />
    <glyph glyph-name="uni0296" unicode="&#x296;" horiz-adv-x="1045" 
d="M340 756l1 798h202v-652q170 -30 282 -149q108 -115 108 -285q0 -186 -109 -311q-138 -157 -413 -157q-85 0 -166 18q-81 17 -157 52v172q78 -43 156 -64q79 -22 159 -22q179 0 278 114q57 65 58 198q0 98 -58 174q-86 114 -278 114h-63z" />
    <glyph glyph-name="uni0297" unicode="&#x297;" horiz-adv-x="1045" 
d="M88 1088q0 186 110 311q137 157 412 157q85 0 166 -18q81 -17 157 -52v-172q-78 43 -157 64q-78 22 -158 22q-179 0 -278 -114q-57 -65 -58 -198v-1056q1 -133 58 -198q99 -114 278 -114q80 0 158 22q79 21 157 64v-172q-76 -35 -157 -52q-81 -18 -166 -18
q-275 0 -412 157q-110 125 -110 311v1056z" />
    <glyph glyph-name="uni0298" unicode="&#x298;" horiz-adv-x="1234" 
d="M276 566q0 -141 102 -240q100 -99 241 -99t240 99t99 240q0 138 -100 240q-102 102 -240 102q-140 0 -240 -102q-102 -102 -102 -240zM95 565q0 212 154 368q154 157 370 157q212 0 366 -157q154 -156 154 -368q0 -216 -152 -368q-151 -152 -368 -152q-216 0 -370 152
t-154 368zM504 567q0 46 34 80q32 34 80 34q46 0 80 -34q32 -34 32 -80q0 -47 -33 -80t-80 -33t-79 33q-34 33 -34 80z" />
    <glyph glyph-name="uni0299" unicode="&#x299;" horiz-adv-x="1187" 
d="M381 530v-360h221q93 0 139 51q49 54 49 117q0 92 -44 141q-46 51 -140 51h-225zM380 980l1 -280h210q85 0 127 43q42 42 42 105q0 46 -42 89t-128 43h-210zM179 1149h397q178 0 274 -74t96 -210q0 -105 -49 -168q-49 -62 -145 -77q115 -25 179 -103q63 -78 63 -195
q0 -154 -105 -238q-104 -84 -297 -84h-413v1149z" />
    <glyph glyph-name="uni029A" unicode="&#x29a;" horiz-adv-x="1396" 
d="M629 984q-154 0 -230 -54q-85 -61 -85 -138t79 -132q43 -30 228 -30h182v-157h-182q-185 0 -228 -30q-79 -54 -79 -132q0 -74 85 -138q73 -54 230 -54q452 1 453 447q-1 418 -453 418zM922 1099q367 -151 367 -543q0 -344 -367 -538q-115 -62 -311 -60q-230 0 -364 87
q-134 86 -134 234q0 103 71 174t202 99q-131 27 -202 98t-71 174q0 148 134 235q134 86 364 86q200 0 311 -46z" />
    <glyph glyph-name="uni029B" unicode="&#x29b;" horiz-adv-x="1450" 
d="M937 178v282h-155v140h321v-528q-72 -34 -159 -54q-78 -18 -280 -18q-254 0 -402 159q-149 160 -149 429q0 274 151 431q150 157 412 157q62 0 166 -18q32 -6 49 -11v1q0 215 82 310q81 96 262 96h254v-156h-233q-106 0 -143 -48q-38 -50 -38 -202v-148h-2v-106
q-121 77 -231 104q-85 22 -158 22q-179 0 -278 -114q-99 -112 -99 -318t99 -318q99 -114 278 -114q175 0 253 22z" />
    <glyph glyph-name="uni029C" unicode="&#x29c;" horiz-adv-x="1298" 
d="M179 1147h202v-447h541v447h202v-1147h-202v530h-541v-530h-202v1147z" />
    <glyph glyph-name="uni029D" unicode="&#x29d;" horiz-adv-x="750" 
d="M193 1556h184v-233h-184v233zM33 -426q-303 0 -303 221q0 205 270 205h193v1120h184v-1120h181v-155h-191q-18 -112 -71 -175q-82 -96 -263 -96zM182 -154h-181q-119 0 -116 -51q4 -65 127 -65q105 0 143 48q18 23 27 68z" />
    <glyph glyph-name="uni029E" unicode="&#x29e;" horiz-adv-x="1366" 
d="M1180 -436h-185v919l-549 -483h-235l594 524l-619 596h240l569 -547v547h185v-1556z" />
    <glyph glyph-name="uni029F" unicode="&#x29f;" horiz-adv-x="1194" 
d="M179 1147h202v-977h639v-170h-841v1147z" />
    <glyph glyph-name="uni02A0" unicode="&#x2a0;" horiz-adv-x="1489" 
d="M930 168q-58 -100 -146 -148q-89 -49 -213 -49q-203 0 -331 162q-127 162 -127 426t127 426q128 162 331 162q124 0 213 -49q88 -48 146 -148v50v120v28q0 214 82 310q81 96 262 96h254v-156h-233q-105 0 -143 -48q-38 -49 -38 -202v-28v-120v-1426h-184v594zM303 559
q0 -203 83 -319q84 -115 230 -115t230 115q84 116 84 319t-84 319q-84 115 -230 115t-230 -115q-83 -116 -83 -319z" />
    <glyph glyph-name="uni02A1" unicode="&#x2a1;" horiz-adv-x="1045" 
d="M340 798h63q192 0 278 114q58 76 58 174q-1 133 -58 198q-99 114 -278 114q-80 0 -159 -22q-78 -21 -156 -64v172q76 35 157 52q81 18 166 18q275 0 413 -157q109 -125 109 -311q0 -170 -108 -285q-112 -119 -282 -149v-212h231v-164h-231v-276h-202v276h-229v164h228
v358z" />
    <glyph glyph-name="uni02A2" unicode="&#x2a2;" horiz-adv-x="1045" 
d="M478 440v212q-170 30 -282 149q-108 115 -108 285q0 186 110 311q137 157 412 157q85 0 166 -18q81 -17 157 -52v-172q-78 43 -157 64q-78 22 -158 22q-179 0 -278 -114q-57 -65 -58 -198q0 -98 58 -174q86 -114 278 -114h62v-358h229v-164h-229v-276h-202v276h-231v164
h231z" />
    <glyph glyph-name="uni02A3" unicode="&#x2a3;" horiz-adv-x="2077" 
d="M303 559q0 -203 83 -319q84 -115 230 -115t230 115q84 116 84 319t-84 319q-84 115 -230 115t-230 -115q-83 -116 -83 -319zM930 950v606h184v-436h873v-168l-692 -805h692v-147h-873h-26h-158v168q-58 -100 -146 -148q-89 -49 -213 -49q-203 0 -331 162
q-127 162 -127 426t127 426q128 162 331 162q124 0 213 -49q88 -48 146 -148zM1114 973v-775l666 775h-666z" />
    <glyph glyph-name="uni02A4" unicode="&#x2a4;" horiz-adv-x="2166" 
d="M1114 973v-973h-184v168q-58 -100 -146 -148q-89 -49 -213 -49q-203 0 -330.5 162t-127.5 426t127.5 426t330.5 162q124 0 213 -49q88 -48 146 -148v606h184v-436h874v-168l-411 -476q106 0 234 -56q98 -42 184 -151q81 -104 81 -242q0 -221 -152 -342t-432 -121
q-94 0 -193 18q-100 19 -206 56v195q84 -49 184 -74t209 -25q190 0 289 75q100 75 100 218q0 132 -92 207q-93 74 -258 74h-174v166l430 499h-667zM303 559q0 -203 83 -319q84 -115 230 -115t230 115.5t84 318.5t-84 318.5t-230 115.5t-230 -115q-83 -116 -83 -319z" />
    <glyph glyph-name="uni02A5" unicode="&#x2a5;" horiz-adv-x="2074" 
d="M303 559q0 -203 83 -319q84 -115 230 -115t230 115.5t84 318.5t-84 318.5t-230 115.5t-230 -115q-83 -116 -83 -319zM1114 973v-774l665 774h-665zM1114 1120h872v-168l-692 -805h175q60 288 279 288q227 0 228 -246q1 -189 -333 -189h-41q-3 -51 -3 -111h-153
q0 59 3 111h-362h-157v168q-58 -100 -146 -148q-89 -49 -213 -49q-203 0 -330.5 162t-127.5 426t127.5 426t330.5 162q124 0 213 -49q88 -48 146 -148v606h184v-436zM1623 147h20q174 0 174 54q0 91 -70 91q-88 -2 -124 -145z" />
    <glyph glyph-name="uni02A6" unicode="&#x2a6;" horiz-adv-x="1688" 
d="M1540 1087v-174q-78 40 -162 60t-174 20q-137 0 -206 -42q-68 -42 -68 -126q0 -64 49 -101q49 -36 197 -69l63 -14q198 -44 279 -119q82 -76 82 -213q0 -156 -124 -247q-123 -91 -339 -91q-90 0 -187 17q-93 17 -196 50v-38h-189q-213 0 -294 80q-81 79 -81 289v608h-135
v143h135v318h185v-318h379v-143h-379v-608q0 -137 37 -176q38 -39 153 -39h179v77q102 -53 201 -79q99 -27 196 -27q130 0 200 45q70 44 70 125q0 75 -51 115q-44 36 -221 77l-64 15q-171 36 -247 110q-76 75 -76 205q0 158 112 244t318 86q102 0 192 -15t166 -45z" />
    <glyph glyph-name="uni02A7" unicode="&#x2a7;" horiz-adv-x="1249" 
d="M375 1438v-318h376v78q0 181 87 272q81 86 276 86h174v-153h-176q-99 0 -137 -40q-39 -40 -39 -144l2 -1239q0 -214 -81 -310q-82 -96 -263 -96h-70v156h49q105 0 143 48q38 49 38 202v20h-189q-213 0 -294 79.5t-81 289.5v608h-135v143h135v318h185zM753 154
q-2 418 -2 823h-376v-608q0 -137 37.5 -176t152.5 -39h188z" />
    <glyph glyph-name="uni02A8" unicode="&#x2a8;" horiz-adv-x="1594" 
d="M375 1438v-318h379v-122q149 149 404 149q85 0 166 -17q81 -18 157 -53v-172q-78 43 -157 65q-78 21 -158 21q-179 0 -278 -113q-99 -114 -99 -319t99 -319l8 -9q79 171 285 171q299 0 300 -246q0 -118 -101 -159q-75 -30 -232 -30q-84 0 -157 18q-2 -50 -2 -126l-153 -3
q0 79 6 144h-277q-213 0 -294 79.5t-81 289.5v608h-135v143h135v318h185zM1017 151q66 -24 149 -24q95 0 116 7q31 11 30 50q-1 75 -132 75q-114 0 -154 -86q-5 -10 -9 -22zM723 154q-128 157 -128 405q0 263 139 418h-359v-608q0 -137 37.5 -176t152.5 -39h158z" />
    <glyph glyph-name="uni02A9" unicode="&#x2a9;" horiz-adv-x="1737" 
d="M1647 676v-696q0 -214 -82 -310q-81 -96 -262 -96h-254v156h233q105 0 143 48q38 49 38 202v690q0 159 -62 238t-186 79q-149 0 -235 -95t-86 -259v-633h-185v977h-301v-977h-185v977h-176v143h176v78q0 187 87 272q87 86 276 86h174v-153h-176q-99 0 -138 -40
q-38 -40 -38 -144v-99h301h2h183v-174q66 101 155 151q90 50 207 50q193 0 292 -119q99 -120 99 -352z" />
    <glyph glyph-name="uni02AA" unicode="&#x2aa;" horiz-adv-x="1312" 
d="M1165 1087v-174q-78 40 -162 60t-174 20q-137 0 -205 -42q-69 -42 -69 -126q0 -64 49 -101q49 -36 197 -69l63 -14q198 -44 278 -119q83 -76 83 -213q0 -156 -123 -247q-124 -91 -340 -91q-90 0 -188 17q-93 17 -197 50v-38h-184v1556h184v-739q0 158 112 244t318 86
q102 0 192 -15t166 -45zM377 817v-590q98 -50 193 -75q99 -27 196 -27q130 0 200 45q70 44 70 125q0 75 -50 115q-45 36 -222 77l-64 15q-171 36 -247 110.5t-76 204.5z" />
    <glyph glyph-name="uni02AB" unicode="&#x2ab;" horiz-adv-x="1340" 
d="M193 1556h184v-436h873v-168l-692 -805h692v-147h-873h-26h-158v1556zM377 973v-775l666 775h-666z" />
    <glyph glyph-name="uni02AC" unicode="&#x2ac;" horiz-adv-x="1055" 
d="M54 597h116l145 -489l144 489h137l145 -489l144 489h116l-185 -627h-136l-152 514l-153 -514h-136zM54 1311h116l145 -489l144 489h137l145 -489l144 489h116l-185 -627h-136l-152 514l-153 -514h-136z" />
    <glyph glyph-name="uni02AD" unicode="&#x2ad;" horiz-adv-x="1055" 
d="M54 597h947v-424h-143v261h-661v-261h-143v424zM54 1311h947v-424h-143v261h-661v-261h-143v424z" />
    <glyph glyph-name="uni02AE" unicode="&#x2ae;" horiz-adv-x="1168" 
d="M414 448q0 -159 62 -238t186 -79q149 0 235 95t86 259v633h185v-1556h-185v610q-66 -101 -155 -151q-90 -50 -207 -50q-193 0 -292 119q-99 120 -99 352v676v32q0 153 -38 202q-38 48 -143 48h-49v156h70q181 0 262 -96q82 -96 82 -310v-32v-670z" />
    <glyph glyph-name="uni02AF" unicode="&#x2af;" horiz-adv-x="1359" 
d="M983 0v172q-66 -101 -155 -151q-90 -50 -207 -50q-193 0 -292 119q-99 120 -99 352v676v32q0 153 -38 202q-38 48 -143 48h-49v156h70q181 0 262 -96q82 -96 82 -310v-32v-670q0 -159 62 -238t186 -79q149 0 235 95t86 259v633h185v-1138q-4 -148 38 -202q38 -48 142 -48
h50v-156h-70q-182 0 -264 96q-75 89 -80 310z" />
    <glyph glyph-name="uni02B0" unicode="&#x2b0;" horiz-adv-x="817" 
d="M708 1305v-379h-116v375q0 89 -39 133.5t-117 44.5q-94 0 -148 -53q-54 -54 -54 -146v-354h-117v871h117v-341q41 56 98 84q56 28 130 28q121 0 184 -67q62 -67 62 -196z" />
    <glyph glyph-name="uni02B1" unicode="&#x2b1;" horiz-adv-x="1298" 
d="M233 1454h1q41 57 98 85q56 28 130 28q121 0 184 -67q62 -67 62 -197v-378h-116v375q0 89 -39 133t-117 44q-94 0 -148 -53t-54 -145v-354h-117v561v83q0 119 52 173q51 54 165 54h160v-87h-147q-66 0 -90 -27q-24 -28 -24 -113v-115z" />
    <glyph glyph-name="uni02B2" unicode="&#x2b2;" horiz-adv-x="358" 
d="M123 1553h116v-638q0 -120 -52 -174q-51 -54 -165 -54h-44v88h31q66 0 90 27t24 113v638zM123 1797h116v-130h-116v130z" />
    <glyph glyph-name="uni02B3" unicode="&#x2b3;" horiz-adv-x="530" 
d="M530 1457q-19 10 -42 14.5t-51 4.5q-98 0 -151 -56q-52 -57 -52 -164v-330h-117v627h117v-97q36 57 95 85q58 27 142 27q12 0 27 -1q14 -1 32 -4v-106z" />
    <glyph glyph-name="uni02B4" unicode="&#x2b4;" horiz-adv-x="605" 
d="M71 1022q20 -10 43 -15q23 -4 50 -4q99 0 151 57q53 56 53 163v330h116v-627h-116v97q-37 -57 -95 -84q-59 -28 -143 -28q-12 0 -26 1q-15 2 -32 4z" />
    <glyph glyph-name="uni02B5" unicode="&#x2b5;" horiz-adv-x="606" 
d="M369 998h115v-83q0 -86 24 -113t90 -27h31v-88h-44q-114 0 -165 54t-51 174v83zM71 1022q20 -10 43 -15q23 -4 50 -4q99 0 151 57q53 56 53 163v330h116v-627h-116v97q-37 -57 -95 -84q-59 -28 -143 -28q-12 0 -26 1q-15 2 -32 4z" />
    <glyph glyph-name="uni02B6" unicode="&#x2b6;" horiz-adv-x="776" 
d="M411 1259q67 -15 102 -54t35 -98q0 -91 -67 -136q-68 -45 -205 -45h-244v627h116v-265h107q61 0 98 21q37 20 77 83l102 161h123l-110 -171q-33 -53 -66 -83q-34 -30 -68 -40zM148 1013h125q75 0 114 23q41 24 41 71q0 46 -41 70q-39 25 -114 25h-125v-189z" />
    <glyph glyph-name="uni02B7" unicode="&#x2b7;" horiz-adv-x="1055" 
d="M54 1553h116l145 -489l144 489h137l145 -489l144 489h116l-185 -627h-136l-152 514l-153 -514h-136z" />
    <glyph glyph-name="uni02B8" unicode="&#x2b8;" horiz-adv-x="763" 
d="M415 868q-49 -112 -96 -146q-46 -35 -124 -35h-93v87h68q48 0 74 20q27 20 59 95l21 47l-286 617h123l221 -490l220 490h123z" />
    <glyph glyph-name="uni02BB" unicode="&#x2bb;" horiz-adv-x="651" 
d="M385 1001h-211v173l164 319h129l-82 -319v-173z" />
    <glyph glyph-name="afii57929" unicode="&#x2bc;" horiz-adv-x="651" 
d="M260 1493h211v-152l-164 -319h-129l82 319v152z" />
    <glyph glyph-name="uni02C0" unicode="&#x2c0;" horiz-adv-x="757" 
d="M276 1373h39q121 0 176 64q36 42 36 97q-1 75 -36 111q-63 64 -176 64q-50 0 -100 -12q-49 -12 -98 -36v96q48 20 99 29q51 10 104 10q174 0 261 -88q68 -70 68 -174q0 -95 -68 -159q-70 -67 -177 -84v-365h-128v447z" />
    <glyph glyph-name="uni02C1" unicode="&#x2c1;" horiz-adv-x="757" 
d="M490 1373v-447h-127v365q-107 17 -178 84q-68 64 -68 159q0 104 69 174q87 88 260 88q53 0 104 -10q51 -9 99 -29v-96q-49 24 -99 36q-49 12 -99 12q-113 0 -175 -64q-36 -36 -37 -111q0 -55 37 -97q54 -64 175 -64h39z" />
    <glyph glyph-name="circumflex" unicode="&#x2c6;" horiz-adv-x="1024" 
d="M438 1638h148l245 -376h-139l-180 245l-180 -245h-139z" />
    <glyph glyph-name="caron" unicode="&#x2c7;" horiz-adv-x="1024" 
d="M438 1262l-245 376h139l180 -245l180 245h139l-245 -376h-148z" />
    <glyph glyph-name="uni02C8" unicode="&#x2c8;" horiz-adv-x="563" 
d="M350 1554v-555h-136v555h136z" />
    <glyph glyph-name="uni02CC" unicode="&#x2cc;" horiz-adv-x="563" 
d="M350 252v-555h-136v555h136z" />
    <glyph glyph-name="uni02D0" unicode="&#x2d0;" horiz-adv-x="690" 
d="M289 729l-178 330h357zM289 330l179 -330h-357z" />
    <glyph glyph-name="uni02D1" unicode="&#x2d1;" horiz-adv-x="690" 
d="M289 729l-178 330h357z" />
    <glyph glyph-name="uni02D2" unicode="&#x2d2;" horiz-adv-x="629" 
d="M117 1249v123q64 0 108 44t44 108q0 63 -44 107t-108 44v123q115 0 195 -80q79 -79 79 -194t-79 -195q-80 -80 -195 -80z" />
    <glyph glyph-name="uni02D6" unicode="&#x2d6;" horiz-adv-x="845" 
d="M418 766v225h148v-225h225v-148h-225v-225h-148v225h-225v148h225z" />
    <glyph glyph-name="breve" unicode="&#x2d8;" horiz-adv-x="1024" 
d="M199 1608h118q11 -75 59.5 -112.5t135.5 -37.5q86 0 134 37t61 113h118q-10 -143 -89 -215t-224 -72t-224 72t-89 215z" />
    <glyph glyph-name="dotaccent" unicode="&#x2d9;" horiz-adv-x="1024" 
d="M410 1552h204v-204h-204v204z" />
    <glyph glyph-name="ring" unicode="&#x2da;" horiz-adv-x="1024" 
d="M664 1524q0 63 -44 107t-108 44q-65 0 -108.5 -43.5t-43.5 -107.5q0 -65 43.5 -108.5t108.5 -43.5q64 0 108 44t44 108zM786 1524q0 -115 -79.5 -195t-194.5 -80t-194.5 80t-79.5 195t79.5 194.5t194.5 79.5t194.5 -79.5t79.5 -194.5z" />
    <glyph glyph-name="ogonek" unicode="&#x2db;" horiz-adv-x="1024" 
d="M440 0h119q-45 -61 -66.5 -105t-21.5 -75q0 -46 27.5 -69t81.5 -23q32 0 63 7.5t62 22.5v-133q-38 -10 -72 -15t-64 -5q-122 0 -179.5 43.5t-57.5 136.5q0 48 26.5 100.5t81.5 114.5z" />
    <glyph glyph-name="tilde" unicode="&#x2dc;" horiz-adv-x="1024" 
d="M508 1370l-57 55q-22 20 -38.5 29.5t-29.5 9.5q-38 0 -56 -36.5t-20 -118.5h-125q2 135 53 208.5t142 73.5q38 0 70 -14t69 -47l57 -55q22 -20 38.5 -29.5t29.5 -9.5q38 0 56 36.5t20 118.5h125q-2 -135 -53 -208.5t-142 -73.5q-38 0 -70 14t-69 47z" />
    <glyph glyph-name="hungarumlaut" unicode="&#x2dd;" horiz-adv-x="1024" 
d="M764 1638h178l-248 -376h-135zM430 1638h170l-223 -376h-137z" />
    <glyph glyph-name="uni02DE" unicode="&#x2de;" horiz-adv-x="646" 
d="M-1 868l278 164h184v-148q0 -153 38 -202q38 -48 143 -48h43v-156h-64q-175 0 -262 96q-82 90 -82 290l-277 -162z" />
    <glyph glyph-name="uni02E0" unicode="&#x2e0;" horiz-adv-x="872" 
d="M517 1246q178 -249 178 -429q0 -129 -242 -132q-266 -3 -267 132q-1 192 181 433l-250 303h137l191 -224l183 224h137zM441 1179q-140 -174 -137 -326q2 -77 136 -77q128 0 129 77q0 140 -128 326z" />
    <glyph glyph-name="uni02E1" unicode="&#x2e1;" horiz-adv-x="340" 
d="M117 1797h116v-871h-116v871z" />
    <glyph glyph-name="uni02E2" unicode="&#x2e2;" horiz-adv-x="764" 
d="M618 1551v-97q-49 22 -102 33q-52 11 -109 11q-87 0 -130 -23q-43 -24 -43 -71q0 -36 31 -56q31 -21 124 -39l40 -8q125 -24 175 -66q52 -43 52 -120q0 -87 -78 -138q-77 -51 -213 -51q-57 0 -119 10q-61 10 -129 29v107q64 -30 127 -45q62 -15 123 -15q82 0 126 25
t44 70q0 42 -32 65q-28 20 -139 43l-40 8q-108 21 -156 62q-48 42 -48 115q0 88 71 136q70 49 200 49q64 0 121 -9q57 -8 104 -25z" />
    <glyph glyph-name="uni02E3" unicode="&#x2e3;" horiz-adv-x="909" 
d="M788 1553l-255 -305l268 -322h-137l-205 246l-205 -246h-137l274 328l-251 299h137l187 -223l187 223h137z" />
    <glyph glyph-name="uni02E4" unicode="&#x2e4;" horiz-adv-x="757" 
d="M490 1373v-447h-127v365q-107 17 -178 84q-68 64 -68 159q0 104 69 174q87 88 260 88q53 0 104 -10q51 -9 99 -29v-96q-49 24 -99 36q-49 12 -99 12q-113 0 -175 -64q-36 -36 -37 -111q0 -55 37 -97q54 -64 175 -64h39z" />
    <glyph glyph-name="uni02E5" unicode="&#x2e5;" horiz-adv-x="1010" 
d="M661 0v1232h-447v136h583v-1368h-136z" />
    <glyph glyph-name="uni02E6" unicode="&#x2e6;" horiz-adv-x="1010" 
d="M661 0v924h-447v136h447v308h136v-1368h-136z" />
    <glyph glyph-name="uni02E7" unicode="&#x2e7;" horiz-adv-x="1010" 
d="M661 752v616h136v-1368h-136v616h-447v136h447z" />
    <glyph glyph-name="uni02E8" unicode="&#x2e8;" horiz-adv-x="1010" 
d="M661 444v924h136v-1368h-136v308h-447v136h447z" />
    <glyph glyph-name="uni02E9" unicode="&#x2e9;" horiz-adv-x="1010" 
d="M661 136v1232h136v-1368h-583v136h447z" />
    <glyph glyph-name="gravecomb" unicode="&#x300;" 
d="M-658 1638l282 -374h-153l-326 374h197z" />
    <glyph glyph-name="acutecomb" unicode="&#x301;" 
d="M-374 1638h199l-326 -376h-153z" />
    <glyph glyph-name="uni0302" unicode="&#x302;" 
d="M-587 1638h148l245 -376h-139l-180 245l-180 -245h-139z" />
    <glyph glyph-name="tildecomb" unicode="&#x303;" 
d="M-517 1370l-57 55q-22 20 -38.5 29.5t-29.5 9.5q-38 0 -56 -36.5t-20 -118.5h-125q2 135 53 208.5t142 73.5q38 0 70 -14t69 -47l57 -55q22 -20 38.5 -29.5t29.5 -9.5q38 0 56 36.5t20 118.5h125q-2 -135 -53 -208.5t-142 -73.5q-38 0 -70 14t-69 47z" />
    <glyph glyph-name="uni0304" unicode="&#x304;" 
d="M-806 1526h598v-148h-598v148z" />
    <glyph glyph-name="uni0305" unicode="&#x305;" 
d="M-1023 1526h1024v-148h-1024v148z" />
    <glyph glyph-name="uni0306" unicode="&#x306;" 
d="M-832 1608h118q11 -75 59.5 -112.5t135.5 -37.5q86 0 134 37t61 113h118q-10 -143 -89 -215t-224 -72t-224 72t-89 215z" />
    <glyph glyph-name="uni0307" unicode="&#x307;" 
d="M-603 1552h204v-204h-204v204z" />
    <glyph glyph-name="uni0308" unicode="&#x308;" 
d="M-419 1552h203v-202h-203v202zM-810 1552h203v-202h-203v202z" />
    <glyph glyph-name="uni030A" unicode="&#x30a;" 
d="M-361 1524q0 63 -44 107t-108 44q-65 0 -108.5 -43.5t-43.5 -107.5q0 -65 43.5 -108.5t108.5 -43.5q64 0 108 44t44 108zM-239 1524q0 -115 -79.5 -195t-194.5 -80t-194.5 80t-79.5 195t79.5 194.5t194.5 79.5t194.5 -79.5t79.5 -194.5z" />
    <glyph glyph-name="uni030B" unicode="&#x30b;" 
d="M-255 1638h178l-248 -376h-135zM-589 1638h170l-223 -376h-137z" />
    <glyph glyph-name="uni030C" unicode="&#x30c;" 
d="M-581 1262l-245 376h139l180 -245l180 245h139l-245 -376h-148z" />
    <glyph glyph-name="uni030D" unicode="&#x30d;" 
d="M-444 1704v-444h-136v444h136z" />
    <glyph glyph-name="uni030E" unicode="&#x30e;" 
d="M-647 1704v-444h-136v444h136zM-240 1704v-444h-136v444h136z" />
    <glyph glyph-name="uni030F" unicode="&#x30f;" 
d="M-753 1638l205 -376h-135l-248 376h178zM-419 1638l190 -376h-137l-223 376h170z" />
    <glyph glyph-name="uni0310" unicode="&#x310;" 
d="M-609 1750h204v-204h-204v204zM-832 1608h118q11 -75 59.5 -112.5t135.5 -37.5q86 0 134 37t61 113h118q-10 -143 -89 -215t-224 -72t-224 72t-89 215z" />
    <glyph glyph-name="uni0311" unicode="&#x311;" 
d="M-205.988 1321.1h-117.992q-11 74.9961 -59.4961 112.493q-48.4971 37.498 -135.492 37.498q-85.9951 0 -133.992 -36.998q-47.9971 -36.9971 -60.9961 -112.993h-117.992q9.99902 142.992 88.9941 214.987q78.9951 71.9961 223.986 71.9961t223.986 -71.9961
q78.9951 -71.9951 88.9941 -214.987z" />
    <glyph glyph-name="uni0312" unicode="&#x312;" 
d="M-270 1001h-211l164 319h129z" />
    <glyph glyph-name="uni0315" unicode="&#x315;" 
d="M0 1554h199l-117 -376h-153z" />
    <glyph glyph-name="uni0316" unicode="&#x316;" 
d="M-658 -130l282 -374h-153l-326 374h197z" />
    <glyph glyph-name="uni0317" unicode="&#x317;" 
d="M-374 -130h199l-326 -376h-153z" />
    <glyph glyph-name="uni0318" unicode="&#x318;" 
d="M-264 -377v177h136v-490h-136v177h-176v136h176z" />
    <glyph glyph-name="uni0319" unicode="&#x319;" 
d="M-304 -513v-177h-136v490h136v-177h176v-136h-176z" />
    <glyph glyph-name="uni031C" unicode="&#x31c;" 
d="M-235 -200v-123q-64 0 -108 -44t-44 -108q0 -63 44 -107t108 -44v-123q-115 0 -195 79q-79 80 -79 195t79 195q80 80 195 80z" />
    <glyph glyph-name="uni031D" unicode="&#x31d;" 
d="M-216 -377h177v-136h-490v136h177v177h136v-177z" />
    <glyph glyph-name="uni031E" unicode="&#x31e;" 
d="M-352 -336h-177v136h490v-136h-177v-177h-136v177z" />
    <glyph glyph-name="uni031F" unicode="&#x31f;" 
d="M-352 -513h-177v136h177v177h136v-177h177v-136h-177v-177h-136v177z" />
    <glyph glyph-name="uni0320" unicode="&#x320;" 
d="M-529 -336v136h490v-136h-490z" />
    <glyph glyph-name="uni0321" unicode="&#x321;" 
d="M-48 128v-148q0 -214 -82 -310q-81 -96 -262 -96h-254v156h233q105 0 143 48q38 49 38 202v148h184z" />
    <glyph glyph-name="uni0322" unicode="&#x322;" 
d="M-649 128h184v-148q0 -153 38 -202q38 -48 143 -48h233v-156h-254q-181 0 -262 96q-82 96 -82 310v148z" />
    <glyph glyph-name="uni0324" unicode="&#x324;" 
d="M-419 -132h203v-202h-203v202zM-810 -132h203v-202h-203v202z" />
    <glyph glyph-name="uni0325" unicode="&#x325;" 
d="M-361 -406q0 63 -44 107t-108 44q-65 0 -108.5 -43.5t-43.5 -107.5q0 -65 43.5 -108.5t108.5 -43.5q64 0 108 44t44 108zM-239 -406q0 -115 -79.5 -195t-194.5 -80t-194.5 80t-79.5 195t79.5 194.5t194.5 79.5t194.5 -79.5t79.5 -194.5z" />
    <glyph glyph-name="uni0326" unicode="&#x326;" 
d="M-580 -132h211l-164 -320h-129z" />
    <glyph glyph-name="uni0329" unicode="&#x329;" 
d="M-444 -132v-444h-136v444h136z" />
    <glyph glyph-name="uni032A" unicode="&#x32a;" 
d="M-233 -132v-330h-137v194h-277v-194h-137v330h551z" />
    <glyph glyph-name="uni032C" unicode="&#x32c;" 
d="M-581 -509l-245 376h139l180 -245l180 245h139l-245 -376h-148z" />
    <glyph glyph-name="uni032D" unicode="&#x32d;" 
d="M-587 -130h148l245 -376h-139l-180 245l-180 -245h-139z" />
    <glyph glyph-name="uni032E" unicode="&#x32e;" 
d="M-832 -127h118q11 -75 59.5 -112.5t135.5 -37.5q86 0 134 37t61 113h118q-10 -143 -89 -215t-224 -72t-224 72t-89 215z" />
    <glyph glyph-name="uni032F" unicode="&#x32f;" 
d="M-205.988 -417.902h-117.992q-11 74.9961 -59.4961 112.493q-48.4971 37.498 -135.492 37.498q-85.9951 0 -133.992 -36.998q-47.9971 -36.9971 -60.9961 -112.993h-117.992q9.99902 142.992 88.9941 214.987q78.9951 71.9961 223.986 71.9961t223.986 -71.9961
q78.9951 -71.9951 88.9941 -214.987z" />
    <glyph glyph-name="uni0330" unicode="&#x330;" 
d="M-517 -353l-57 55q-22 20 -38.5 29.5t-29.5 9.5q-38 0 -56 -36.5t-20 -118.5h-125q2 135 53 208.5t142 73.5q38 0 70 -14t69 -47l57 -55q22 -20 38.5 -29.5t29.5 -9.5q38 0 56 36.5t20 118.5h125q-2 -135 -53 -208.5t-142 -73.5q-38 0 -70 14t-69 47z" />
    <glyph glyph-name="uni0331" unicode="&#x331;" 
d="M-806 -131h598v-148h-598v148z" />
    <glyph glyph-name="uni0332" unicode="&#x332;" 
d="M-1023 -132h1024v-148h-1024v148z" />
    <glyph glyph-name="uni0339" unicode="&#x339;" 
d="M-508.015 -748.012v122.992q63.9961 0 107.994 43.9971q43.9971 43.9971 43.9971 107.993q0 62.9961 -43.9971 106.994q-43.998 43.9971 -107.994 43.9971v122.992q114.993 0 194.988 -78.9951q78.9951 -79.9951 78.9951 -194.988q0 -114.992 -78.9951 -194.988
q-79.9951 -79.9941 -194.988 -79.9941z" />
    <glyph glyph-name="uni033A" unicode="&#x33a;" 
d="M-782.015 -460.008v329.979h136.992v-193.988h276.983v193.988h136.991v-329.979h-550.967z" />
    <glyph glyph-name="uni033B" unicode="&#x33b;" 
d="M-233 -132v-550h-551v550h551zM-370 -546v278h-277v-278h277z" />
    <glyph glyph-name="uni033D" unicode="&#x33d;" 
d="M-512 1370l-126 -126l-96 96l126 126l-125 125l96 96l125 -125l125 125l96 -96l-125 -125l125 -125l-96 -96z" />
    <glyph glyph-name="uni0361" unicode="&#x361;" 
d="M0 1710q-55 0 -340 -25q-268 -23 -395 -165h-118q0 240 508 300q229 27 345 27t345 -27q508 -60 508 -300h-118q-127 142 -395 165q-285 25 -340 25z" />
    <glyph glyph-name="uni0374" unicode="&#x374;" horiz-adv-x="570" 
d="M160 1140l65 498h190l-110 -498h-145z" />
    <glyph glyph-name="uni0375" unicode="&#x375;" horiz-adv-x="570" 
d="M415 72l-65 -498h-190l110 498h145z" />
    <glyph glyph-name="uni037A" unicode="&#x37a;" horiz-adv-x="740" 
d="M479 -426h-132q-88 0 -88 183v151h149v-164q0 -104 51 -104h20v-66z" />
    <glyph glyph-name="uni037E" unicode="&#x37e;" horiz-adv-x="690" 
d="M240 1059h211v-254h-211v254zM240 254h211v-172l-164 -320h-129l82 320v172z" />
    <glyph glyph-name="tonos" unicode="&#x384;" horiz-adv-x="1024" 
d="M651 1638h199l-326 -376h-153z" />
    <glyph glyph-name="dieresistonos" unicode="&#x385;" horiz-adv-x="1024" 
d="M606 1552h203v-202h-203v202zM215 1552h203v-202h-203v202zM651 2002h199l-326 -376h-153z" />
    <glyph glyph-name="Alphatonos" unicode="&#x386;" horiz-adv-x="1418" 
d="M357 1638h199l-326 -376h-153zM700 1294l-274 -743h549zM586 1493h229l569 -1493h-210l-136 383h-673l-136 -383h-213z" />
    <glyph glyph-name="anoteleia" unicode="&#x387;" horiz-adv-x="651" 
d="M219 838h211v-254h-211v254z" />
    <glyph glyph-name="Epsilontonos" unicode="&#x388;" horiz-adv-x="1528" 
d="M255 1638h199l-326 -376h-153zM435 1493h944v-170h-742v-442h711v-170h-711v-541h760v-170h-962v1493z" />
    <glyph glyph-name="Etatonos" unicode="&#x389;" horiz-adv-x="1784" 
d="M267 1638h199l-326 -376h-153zM429 1493h202v-612h734v612h202v-1493h-202v711h-734v-711h-202v1493z" />
    <glyph glyph-name="Iotatonos" unicode="&#x38a;" horiz-adv-x="836" 
d="M261 1638h199l-326 -376h-153zM435 1493h202v-1493h-202v1493z" />
    <glyph glyph-name="Omicrontonos" unicode="&#x38c;" horiz-adv-x="1664" 
d="M266 1638h199l-326 -376h-153zM847 1356q-220 0 -349.5 -164t-129.5 -447q0 -282 129.5 -446t349.5 -164t348.5 164t128.5 446q0 283 -128.5 447t-348.5 164zM847 1520q314 0 502 -210.5t188 -564.5q0 -353 -188 -563.5t-502 -210.5q-315 0 -503.5 210t-188.5 564
t188.5 564.5t503.5 210.5z" />
    <glyph glyph-name="Upsilontonos" unicode="&#x38e;" horiz-adv-x="1689" 
d="M249 1638h199l-326 -376h-153zM422 1493h217l414 -614l411 614h217l-528 -782v-711h-203v711z" />
    <glyph glyph-name="Omegatonos" unicode="&#x38f;" horiz-adv-x="1691" 
d="M244 1638h199l-326 -376h-153zM1541 178v-178h-600v178q177 97 276 263t99 368q0 240 -132 385t-348 145t-348.5 -145.5t-132.5 -384.5q0 -202 99 -368q100 -166 278 -263v-178h-600v178h319q-158 139 -231 288q-72 149 -72 333q0 318 192 515q191 197 496 197
q303 0 496 -197q192 -196 192 -505q0 -194 -71 -342t-232 -289h320z" />
    <glyph glyph-name="iotadieresistonos" unicode="&#x390;" horiz-adv-x="599" 
d="M208 1120h184v-1120h-184v1120zM396 1552h203v-202h-203v202zM5 1552h203v-202h-203v202zM441 2002h199l-326 -376h-153z" />
    <glyph glyph-name="Alpha" unicode="&#x391;" horiz-adv-x="1401" 
d="M700 1294l-274 -743h549zM586 1493h229l569 -1493h-210l-136 383h-673l-136 -383h-213z" />
    <glyph glyph-name="Beta" unicode="&#x392;" horiz-adv-x="1405" 
d="M403 713v-547h324q163 0 241.5 67.5t78.5 206.5q0 140 -78.5 206.5t-241.5 66.5h-324zM403 1327v-450h299q148 0 220.5 55.5t72.5 169.5q0 113 -72.5 169t-220.5 56h-299zM201 1493h516q231 0 356 -96t125 -273q0 -137 -64 -218t-188 -101q149 -32 231.5 -133.5
t82.5 -253.5q0 -200 -136 -309t-387 -109h-536v1493z" />
    <glyph glyph-name="Gamma" unicode="&#x393;" horiz-adv-x="1141" 
d="M201 0v1493h929v-170h-727v-1323h-202z" />
    <glyph glyph-name="uni0394" unicode="&#x394;" horiz-adv-x="1401" 
d="M700 1294l-410 -1126h821zM16 0l570 1493h229l569 -1493h-1368z" />
    <glyph glyph-name="Epsilon" unicode="&#x395;" horiz-adv-x="1294" 
d="M201 1493h944v-170h-742v-442h711v-170h-711v-541h760v-170h-962v1493z" />
    <glyph glyph-name="Zeta" unicode="&#x396;" horiz-adv-x="1403" 
d="M115 1493h1173v-154l-944 -1169h967v-170h-1219v154l944 1169h-921v170z" />
    <glyph glyph-name="Eta" unicode="&#x397;" horiz-adv-x="1540" 
d="M201 1493h202v-612h734v612h202v-1493h-202v711h-734v-711h-202v1493z" />
    <glyph glyph-name="Theta" unicode="&#x398;" horiz-adv-x="1612" 
d="M453 880h706v-170h-706v170zM807 1356q-220 0 -349 -164q-130 -164 -130 -447q0 -282 129.5 -446t349.5 -164t349 164q128 164 128 446q0 283 -128 447q-129 164 -349 164zM807 1520q314 0 502 -210.5t188 -564.5q0 -353 -188 -563q-188 -211 -502 -211q-315 0 -503 210
q-189 210 -189 564t189 565q188 210 503 210z" />
    <glyph glyph-name="Iota" unicode="&#x399;" horiz-adv-x="604" 
d="M201 1493h202v-1493h-202v1493z" />
    <glyph glyph-name="Kappa" unicode="&#x39a;" horiz-adv-x="1343" 
d="M201 1493h202v-631l670 631h260l-741 -696l794 -797h-266l-717 719v-719h-202v1493z" />
    <glyph glyph-name="Lambda" unicode="&#x39b;" horiz-adv-x="1401" 
d="M229 0h-213l570 1493h229l569 -1493h-210l-474 1294z" />
    <glyph glyph-name="Mu" unicode="&#x39c;" horiz-adv-x="1767" 
d="M201 1493h301l381 -1016l383 1016h301v-1493h-197v1311l-385 -1024h-203l-385 1024v-1311h-196v1493z" />
    <glyph glyph-name="Nu" unicode="&#x39d;" horiz-adv-x="1532" 
d="M201 1493h272l662 -1249v1249h196v-1493h-272l-662 1249v-1249h-196v1493z" />
    <glyph glyph-name="Xi" unicode="&#x39e;" horiz-adv-x="1294" 
d="M306 881h711v-170h-711v170zM201 1493h921v-170h-921v170zM201 170h921v-170h-921v170z" />
    <glyph glyph-name="Omicron" unicode="&#x39f;" horiz-adv-x="1612" 
d="M807 1356q-220 0 -349.5 -164t-129.5 -447q0 -282 129.5 -446t349.5 -164t348.5 164t128.5 446q0 283 -128.5 447t-348.5 164zM807 1520q314 0 502 -210.5t188 -564.5q0 -353 -188 -563.5t-502 -210.5q-315 0 -503.5 210t-188.5 564t188.5 564.5t503.5 210.5z" />
    <glyph glyph-name="Pi" unicode="&#x3a0;" horiz-adv-x="1540" 
d="M1339 1493v-1493h-202v1323h-734v-1323h-202v1493h1138z" />
    <glyph glyph-name="Rho" unicode="&#x3a1;" horiz-adv-x="1235" 
d="M403 1327v-561h254q141 0 218 73t77 208q0 134 -77 207t-218 73h-254zM201 1493h456q251 0 379.5 -113.5t128.5 -332.5q0 -221 -128.5 -334t-379.5 -113h-254v-600h-202v1493z" />
    <glyph glyph-name="Sigma" unicode="&#x3a3;" horiz-adv-x="1294" 
d="M433 170h730v-170h-962v170l479 624l-479 529v170h944v-170h-712l479 -525z" />
    <glyph glyph-name="Tau" unicode="&#x3a4;" horiz-adv-x="1251" 
d="M-6 1493h1263v-170h-530v-1323h-203v1323h-530v170z" />
    <glyph glyph-name="Upsilon" unicode="&#x3a5;" horiz-adv-x="1251" 
d="M-4 1493h217l414 -614l411 614h217l-528 -782v-711h-203v711z" />
    <glyph glyph-name="Phi" unicode="&#x3a6;" horiz-adv-x="1612" 
d="M706 1166q-150 -21 -248 -108q-130 -115 -130 -313q0 -197 130 -312q98 -87 248 -108v841zM908 325q150 21 248 108q128 115 128 312q0 198 -128 313q-98 87 -248 108v-841zM706 158q-244 22 -402 156q-189 160 -189 431t189 432q157 135 402 157v159h202v-159
q244 -23 401 -157q188 -161 188 -432q0 -270 -188 -431q-157 -134 -401 -157v-157h-202v158z" />
    <glyph glyph-name="Chi" unicode="&#x3a7;" horiz-adv-x="1403" 
d="M129 1493h217l371 -555l373 555h217l-480 -717l512 -776h-217l-420 635l-423 -635h-218l533 797z" />
    <glyph glyph-name="Psi" unicode="&#x3a8;" horiz-adv-x="1612" 
d="M706 0q1 134 0 310q-214 0 -402 210q-184 204 -189 564v409h213v-409q0 -282 130 -446q110 -140 248 -154v1009h202v-1009q138 14 248 154q130 164 130 446v409h213v-409q-5 -360 -189 -564q-188 -210 -402 -210q-1 -72 0 -310h-202z" />
    <glyph glyph-name="uni03A9" unicode="&#x3a9;" horiz-adv-x="1565" 
d="M1487 178v-178h-600v178q177 97 276 263t99 368q0 240 -132 385t-348 145t-348.5 -145.5t-132.5 -384.5q0 -202 99 -368q100 -166 278 -263v-178h-600v178h319q-158 139 -231 288q-72 149 -72 333q0 318 192 515q191 197 496 197q303 0 496 -197q192 -196 192 -505
q0 -194 -71 -342t-232 -289h320z" />
    <glyph glyph-name="Iotadieresis" unicode="&#x3aa;" horiz-adv-x="604" 
d="M397 1870h203v-203h-203v203zM6 1870h203v-203h-203v203zM201 1493h202v-1493h-202v1493z" />
    <glyph glyph-name="Upsilondieresis" unicode="&#x3ab;" horiz-adv-x="1251" 
d="M719 1870h203v-203h-203v203zM328 1870h203v-203h-203v203zM-4 1493h217l414 -614l411 614h217l-528 -782v-711h-203v711z" />
    <glyph glyph-name="alphatonos" unicode="&#x3ac;" horiz-adv-x="1306" 
d="M761 1638h199l-326 -376h-153zM960 459v246q-192 286 -361 286q-121 1 -206 -115q-86 -116 -86 -317t85 -317q86 -116 204 -115q251 3 364 332zM960 217q-75 -246 -364 -246q-212 0 -346 157q-137 156 -137 431q0 276 137 432q137 157 349 156q202 0 361 -223v196h184
v-1120h-184v217z" />
    <glyph glyph-name="epsilontonos" unicode="&#x3ad;" horiz-adv-x="1123" 
d="M731 1638h199l-326 -376h-153zM395 604q-112 24 -172 89q-60 64 -60 157q0 141 114 220q113 78 309 78q76 0 161 -12t183 -36v-167q-97 29 -177 42q-81 13 -152 13q-119 0 -188 -46q-70 -46 -70 -110q0 -70 68 -115q67 -44 183 -44h155v-152h-148q-137 0 -209 -51
q-78 -56 -78 -144q0 -90 84 -146q85 -56 236 -56q93 0 178 18q85 19 156 56v-171q-90 -28 -174 -42q-85 -14 -165 -14q-238 0 -367 91t-129 264q0 108 69 181t193 97z" />
    <glyph glyph-name="etatonos" unicode="&#x3ae;" horiz-adv-x="1340" 
d="M849 1638h199l-326 -376h-153zM1124 676v-1102h-184v1096q0 159 -62 238t-186 79q-149 0 -235 -95t-86 -259v-633h-185v1120h185v-174q66 101 155 151q90 50 207 50q193 0 292 -119q99 -120 99 -352z" />
    <glyph glyph-name="iotatonos" unicode="&#x3af;" horiz-adv-x="592" 
d="M465 1638h199l-326 -376h-153zM193 1120h184v-1120h-184v1120z" />
    <glyph glyph-name="upsilondieresistonos" unicode="&#x3b0;" horiz-adv-x="1298" 
d="M643 -29q-266 0 -369 120q-100 118 -100 351v678h184v-671q0 -159 62 -239q61 -78 223 -79q157 0 223 79q62 75 62 239v671h184v-678q0 -223 -100 -351q-96 -120 -369 -120zM734 1552h203v-202h-203v202zM343 1552h203v-202h-203v202zM779 2002h199l-326 -376h-153z" />
    <glyph glyph-name="alpha" unicode="&#x3b1;" horiz-adv-x="1253" 
d="M960 459v246q-192 286 -361 286q-121 1 -206 -115q-86 -116 -86 -317t85 -317q86 -116 204 -115q251 3 364 332zM960 217q-75 -246 -364 -246q-212 0 -346 157q-137 156 -137 431q0 276 137 432q137 157 349 156q202 0 361 -223v196h184v-1120h-184v217z" />
    <glyph glyph-name="beta" unicode="&#x3b2;" horiz-adv-x="1307" 
d="M377 69v-495h-185v1539q0 487 461 456q399 -27 399 -385q-1 -276 -172 -374q278 -54 280 -357q4 -451 -482 -474q-130 -6 -301 90zM377 342q81 -141 308 -162q288 -25 288 270q0 282 -464 260v170q363 -6 363 298q0 189 -234 202q-261 15 -261 -273v-765z" />
    <glyph glyph-name="gamma" unicode="&#x3b3;" horiz-adv-x="1212" 
d="M61 1120h195l350 -940l350 940h195l-420 -1120v-426h-250v426z" />
    <glyph glyph-name="delta" unicode="&#x3b4;" horiz-adv-x="1253" 
d="M1004 1297q-102 70 -341 70q-253 0 -253 -117q0 -92 264 -140q208 -37 325 -149q142 -135 142 -412q0 -265 -137 -421q-137 -157 -377 -157q-239 0 -377 157q-137 156 -137 431q0 204 137 369q53 64 128 100q-156 79 -156 220q0 272 441 272q221 0 341 -70v-153zM516 978
q-68 -29 -123 -102q-86 -113 -86 -317q0 -203 85 -317q86 -115 235 -115q147 0 233 116t86 306q0 199 -91 295q-97 103 -223 114q-64 6 -116 20z" />
    <glyph glyph-name="epsilon" unicode="&#x3b5;" horiz-adv-x="1107" 
d="M395 604q-112 24 -172 89q-60 64 -60 157q0 141 114 220q113 78 309 78q76 0 161 -12t183 -36v-167q-97 29 -177 42q-81 13 -152 13q-119 0 -188 -46q-70 -46 -70 -110q0 -70 68 -115q67 -44 183 -44h155v-152h-148q-137 0 -209 -51q-78 -56 -78 -144q0 -90 84 -146
q85 -56 236 -56q93 0 178 18q85 19 156 56v-171q-90 -28 -174 -42q-85 -14 -165 -14q-238 0 -367 91t-129 264q0 108 69 181t193 97z" />
    <glyph glyph-name="zeta" unicode="&#x3b6;" horiz-adv-x="1282" 
d="M1100 -144q5 -282 -500 -282v111q316 22 311 167q-4 148 -180 148q-556 0 -540 726q9 427 409 645h-370v185h870v-185q-713 -156 -724 -645q-12 -540 352 -541q366 -1 372 -329z" />
    <glyph glyph-name="eta" unicode="&#x3b7;" horiz-adv-x="1298" 
d="M1124 676v-1102h-184v1096q0 159 -62 238t-186 79q-149 0 -235 -95t-86 -259v-633h-185v1120h185v-174q66 101 155 151q90 50 207 50q193 0 292 -119q99 -120 99 -352z" />
    <glyph glyph-name="theta" unicode="&#x3b8;" horiz-adv-x="1253" 
d="M945 710h-637q9 -228 84 -365q86 -156 235 -156q147 0 233 157q76 138 85 364zM942 880q-14 195 -82 322q-86 158 -233 158q-148 0 -234 -156q-69 -126 -83 -324h632zM627 1572q240 0 377 -212q137 -211 137 -585q0 -373 -137 -585q-137 -213 -377 -213q-241 0 -377 213
q-137 212 -137 585q0 374 137 585q136 212 377 212z" />
    <glyph glyph-name="iota" unicode="&#x3b9;" horiz-adv-x="569" 
d="M193 1120h184v-1120h-184v1120z" />
    <glyph glyph-name="kappa" unicode="&#x3ba;" horiz-adv-x="1237" 
d="M191 1120h185v-483l549 483h235l-594 -524l619 -596h-240l-569 547v-547h-185v1120z" />
    <glyph glyph-name="lambda" unicode="&#x3bb;" horiz-adv-x="1212" 
d="M61 0l491 1074l-182 482h200l581 -1556h-195l-314 828l-386 -828h-195z" />
    <glyph glyph-name="uni03BC" unicode="&#x3bc;" horiz-adv-x="1298" 
d="M358 51v-477h-184v1546h184v-671q0 -159 62 -238.5t186 -79.5q149 0 236 95q86 95 86 259v635h184v-1120h-184v172q-73 -111 -156 -152q-129 -62 -205 -49q-175 29 -209 80z" />
    <glyph glyph-name="nu" unicode="&#x3bd;" horiz-adv-x="1212" 
d="M61 1120h195l350 -940l350 940h195l-420 -1120h-250z" />
    <glyph glyph-name="xi" unicode="&#x3be;" horiz-adv-x="1282" 
d="M1100 -144q5 -282 -500 -282v111q316 22 311 167q-4 148 -180 148q-539 0 -540 452q0 232 333 344q-280 36 -280 296q0 197 220 279h-208v185h789v-185q-629 0 -629 -291q0 -191 528 -200v-170q-564 0 -568 -258q-4 -266 352 -267q366 -1 372 -329z" />
    <glyph glyph-name="omicron" unicode="&#x3bf;" horiz-adv-x="1253" 
d="M614 991q-148 0 -234 -115.5t-86 -316.5t85.5 -316.5t234.5 -115.5q147 0 233 116t86 316q0 199 -86 315.5t-233 116.5zM614 1147q240 0 377 -156t137 -432q0 -275 -137 -431.5t-377 -156.5q-241 0 -377.5 156.5t-136.5 431.5q0 276 136.5 432t377.5 156z" />
    <glyph glyph-name="pi" unicode="&#x3c0;" horiz-adv-x="1351" 
d="M1160 1120v-1120h-184v966h-599v-966h-184v1120h967z" />
    <glyph glyph-name="rho" unicode="&#x3c1;" horiz-adv-x="1300" 
d="M276 920q61 102 212 192q59 35 241 35q204 0 331.5 -162t127.5 -426t-127.5 -426t-331.5 -162q-123 0 -211.5 48.5t-146.5 148.5v-594h-185v975q0 231 90 371zM997 559q0 203 -83.5 318.5t-229.5 115.5t-229.5 -115.5t-83.5 -318.5t83.5 -318.5t229.5 -115.5t229.5 115.5
t83.5 318.5z" />
    <glyph glyph-name="sigma1" unicode="&#x3c2;" horiz-adv-x="1202" 
d="M1020 1120v-170q-698 63 -698 -352q0 -394 352 -413q366 -18 372 -329q5 -282 -500 -282v111q316 22 311 167q-4 148 -180 148q-540 0 -540 598q5 609 883 522z" />
    <glyph glyph-name="sigma" unicode="&#x3c3;" horiz-adv-x="1298" 
d="M627 991q-148 0 -234 -115.5t-86 -316.5t85.5 -316.5t234.5 -115.5q147 0 233 116t86 316q0 199 -86 315q-86 117 -233 117zM627 1147l611 -1v-155h-234q137 -156 137 -432q0 -275 -137 -431q-137 -157 -377 -157q-241 0 -377 157q-137 156 -137 431q0 276 137 432
q136 156 377 156z" />
    <glyph glyph-name="tau" unicode="&#x3c4;" horiz-adv-x="1083" 
d="M5 1120h1073v-170h-446v-950h-181v950h-446v170z" />
    <glyph glyph-name="upsilon" unicode="&#x3c5;" horiz-adv-x="1298" 
d="M643 -29q-266 0 -369 120q-100 118 -100 351v678h184v-671q0 -159 62 -239q61 -78 223 -79q157 0 223 79q62 75 62 239v671h184v-678q0 -223 -100 -351q-96 -120 -369 -120z" />
    <glyph glyph-name="phi" unicode="&#x3c6;" horiz-adv-x="1410" 
d="M630 10q-456 54 -456 578v532h184v-525q0 -392 272 -451v528q0 458 329 458q308 0 310 -481q3 -609 -463 -645v-430h-176v436zM806 133q310 51 307 516q-2 309 -154 303q-153 -6 -153 -280v-539z" />
    <glyph glyph-name="chi" unicode="&#x3c7;" horiz-adv-x="1212" 
d="M1124 1121l-405 -754l426 -794h-217l-326 607l-326 -607h-217l435 809l-398 739h217l297 -553l297 553h217z" />
    <glyph glyph-name="psi" unicode="&#x3c8;" horiz-adv-x="1429" 
d="M848 140q109 13 198 90q85 74 85 249v641h186v-648q0 -247 -131 -362q-110 -97 -338 -134v-402h-183l-1 401q-213 20 -343 136q-130 118 -130 361v648h185v-641q0 -182 84 -249q73 -55 205 -90v980h183v-980z" />
    <glyph glyph-name="omega" unicode="&#x3c9;" horiz-adv-x="1715" 
d="M770 890h170q-7 -692 212 -692q147 1 145 263q-2 509 -130 659h190q138 -100 150 -654q10 -467 -335 -466q-278 1 -317 308q-39 -307 -317 -308q-345 0 -335 466q12 554 150 654h190q-128 -150 -130 -659q-2 -262 145 -263q219 0 212 692z" />
    <glyph glyph-name="iotadieresis" unicode="&#x3ca;" horiz-adv-x="594" 
d="M396 1552h203v-202h-203v202zM5 1552h203v-202h-203v202zM208 1120h184v-1120h-184v1120z" />
    <glyph glyph-name="upsilondieresis" unicode="&#x3cb;" horiz-adv-x="1298" 
d="M736 1552h203v-202h-203v202zM345 1552h203v-202h-203v202zM643 -29q-266 0 -369 120q-100 118 -100 351v678h184v-671q0 -159 62 -239q61 -78 223 -79q157 0 223 79q62 75 62 239v671h184v-678q0 -223 -100 -351q-96 -120 -369 -120z" />
    <glyph glyph-name="omicrontonos" unicode="&#x3cc;" horiz-adv-x="1253" 
d="M776 1638h199l-326 -376h-153zM627 991q-148 0 -234 -115.5t-86 -316.5t85.5 -316.5t234.5 -115.5q147 0 233 116t86 316q0 199 -86 315.5t-233 116.5zM627 1147q240 0 377 -156t137 -432q0 -275 -137 -431.5t-377 -156.5q-241 0 -377.5 156.5t-136.5 431.5
q0 276 136.5 432t377.5 156z" />
    <glyph glyph-name="upsilontonos" unicode="&#x3cd;" horiz-adv-x="1298" 
d="M786 1638h199l-326 -376h-153zM643 -29q-266 0 -369 120q-100 118 -100 351v678h184v-671q0 -159 62 -239q61 -78 223 -79q157 0 223 79q62 75 62 239v671h184v-678q0 -223 -100 -351q-96 -120 -369 -120z" />
    <glyph glyph-name="omegatonos" unicode="&#x3ce;" horiz-adv-x="1715" 
d="M996 1638h199l-326 -376h-153zM770 890h170q-7 -692 212 -692q147 1 145 263q-2 509 -130 659h190q138 -100 150 -654q10 -467 -335 -466q-278 1 -317 308q-39 -307 -317 -308q-345 0 -335 466q12 554 150 654h190q-128 -150 -130 -659q-2 -262 145 -263q219 0 212 692z
" />
    <glyph glyph-name="uni03D0" unicode="&#x3d0;" horiz-adv-x="1258" 
d="M366 880q268 0 346 65q147 123 121 260q-31 161 -203 155q-142 -5 -215 -170q-53 -122 -49 -310zM855 815q380 -250 187 -625q-116 -225 -372 -213q-275 15 -391 213q-102 178 -112 585q-9 383 119 585q134 212 344 212q333 0 383 -382q27 -205 -158 -375zM670 730
q-67 -30 -307 -20q6 -259 60 -364q82 -161 247 -157q175 4 230 156q86 245 -230 385z" />
    <glyph glyph-name="theta1" unicode="&#x3d1;" horiz-adv-x="1268" 
d="M942 880q4 188 -49 310q-73 165 -215 170q-172 6 -203 -155q-26 -137 121 -260q78 -65 346 -65zM945 710q-330 -10 -439 65q-240 164 -211 415q45 382 383 382q210 0 344 -212q128 -200 119 -585q-9 -387 -137 -585q-137 -213 -377 -213q-219 0 -377 213
q-150 200 -137 691l195 -1q7 -429 84 -535q115 -156 235 -156q133 0 233 157q80 126 85 364z" />
    <glyph glyph-name="Upsilon1" unicode="&#x3d2;" horiz-adv-x="1431" 
d="M1194 1500q68 0 125 -46q103 -82 103 -257q0 -120 -99 -202q-92 -76 -213 -76v170h19q127 7 127 113q0 38 -7 63q-16 58 -81 58q-55 0 -110 -31q-127 -71 -219 -275q-116 -258 -116 -591v-426h-203v426q0 157 -42 306q-72 254 -242 433q-123 129 -236 158v170
q104 -5 226 -78q258 -165 390 -595q39 235 125 393q158 287 453 287z" />
    <glyph glyph-name="uni03D3" unicode="&#x3d3;" horiz-adv-x="1815" 
d="M256 1638h199l-326 -376h-153zM1620 1500q68 0 125 -46q103 -82 103 -257q0 -120 -99 -202q-92 -76 -213 -76v170h19q127 7 127 113q0 38 -7 63q-16 58 -81 58q-55 0 -110 -31q-127 -71 -219 -275q-116 -258 -116 -591v-426h-203v426q0 157 -42 306q-72 254 -242 433
q-123 129 -236 158v170q104 -5 226 -78q258 -165 390 -595q39 235 125 393q158 287 453 287z" />
    <glyph glyph-name="uni03D4" unicode="&#x3d4;" horiz-adv-x="1431" 
d="M719 1870h203v-203h-203v203zM328 1870h203v-203h-203v203zM1194 1500q68 0 125 -46q103 -82 103 -257q0 -120 -99 -202q-92 -76 -213 -76v170h19q127 7 127 113q0 38 -7 63q-16 58 -81 58q-55 0 -110 -31q-127 -71 -219 -275q-116 -258 -116 -591v-426h-203v426
q0 157 -42 306q-72 254 -242 433q-123 129 -236 158v170q104 -5 226 -78q258 -165 390 -595q39 235 125 393q158 287 453 287z" />
    <glyph glyph-name="phi1" unicode="&#x3d5;" horiz-adv-x="1253" 
d="M537 139v838q-87 -25 -144 -101q-86 -116 -86 -317t85 -317q58 -77 145 -103zM721 139q81 26 139 104q86 116 86 316q0 199 -86 315q-50 69 -139 103v-838zM721 -24v-402h-184v402q-189 36 -287 152q-137 162 -137 431q0 273 137 432q107 125 287 150v415h184v-415
q177 -29 283 -150q137 -156 137 -432q0 -275 -137 -431q-106 -123 -283 -152z" />
    <glyph glyph-name="omega1" unicode="&#x3d6;" horiz-adv-x="1775" 
d="M191 950v170h1405v-170h-113q48 -178 55 -484q10 -467 -335 -466q-278 1 -317 308q-39 -307 -317 -308q-345 -1 -335 466q7 316 54 484h-97zM1280 950h-788q-47 -181 -48 -489q-1 -262 145 -263q218 -3 212 624h170q-6 -624 212 -624q147 0 145 263q-3 318 -48 489z" />
    <glyph glyph-name="uni03D7" unicode="&#x3d7;" horiz-adv-x="1357" 
d="M1185 185q-29 -487 -245 -570q-210 -80 -325 95v160q290 -355 395 148q-107 25 -185 82q-259 192 -130 385l-365 -485h-209l244 330q211 285 25 520q-67 85 -220 85v185q174 55 340 -115q193 -198 115 -345l350 460h205l-200 -270q-246 -332 -105 -560q65 -105 310 -105z
" />
    <glyph glyph-name="uni03D8" unicode="&#x3d8;" horiz-adv-x="1612" 
d="M900 -24v-400h-184v400q-252 26 -412 205q-189 210 -189 564t189 565q188 210 503 210q314 0 502 -210.5t188 -564.5q0 -353 -188 -563q-159 -179 -409 -206zM807 1356q-220 0 -349 -164q-130 -164 -130 -447q0 -282 129.5 -446t349.5 -164t349 164q128 164 128 446
q0 283 -128 447q-129 164 -349 164z" />
    <glyph glyph-name="uni03D9" unicode="&#x3d9;" horiz-adv-x="1253" 
d="M627 991q-148 0 -234 -115.5t-86 -316.5t85.5 -316.5t234.5 -115.5q147 0 233 116t86 316q0 199 -86 315q-86 117 -233 117zM717 -24v-402h-170v402q-190 27 -297 152q-137 156 -137 431q0 276 136.5 432t377.5 156q240 0 377 -156t137 -432q0 -275 -137 -431
q-106 -123 -287 -152z" />
    <glyph glyph-name="uni03DA" unicode="&#x3da;" horiz-adv-x="1336" 
d="M1152 1311h-232q-292 0 -439 -225q-104 -159 -105 -461q-1 -442 349 -440q406 1 432 -303q26 -308 -598 -313h-4v132q416 22 413 177q-3 122 -240 122q-536 1 -537 625q0 352 149 583q185 287 552 287h260v-184z" />
    <glyph glyph-name="uni03DB" unicode="&#x3db;" horiz-adv-x="1222" 
d="M1009 1272v-170q-75 -144 -180 -144q-508 0 -508 -360q-1 -395 352 -413q366 -18 372 -329q5 -282 -500 -282v111q316 22 311 167q-4 148 -180 148q-541 0 -540 598q1 533 689 533q116 0 184 141z" />
    <glyph glyph-name="uni03DC" unicode="&#x3dc;" horiz-adv-x="1178" 
d="M201 1493h858v-170h-656v-440h592v-170h-592v-713h-202v1493z" />
    <glyph glyph-name="uni03DD" unicode="&#x3dd;" horiz-adv-x="1075" 
d="M918 960h-546v-785h522v-175h-523v-426h-185v1546l732 1v-161z" />
    <glyph glyph-name="uni03DE" unicode="&#x3de;" horiz-adv-x="1351" 
d="M566 1159l-110 -421l780 382l-234 -724q-39 -96 -12 -138q66 -108 197 -73v-189q-230 0 -311 70q-95 82 -76 264l154 474l-762 -367l172 656q39 96 12 138q-66 108 -197 73v189q230 0 311 -70q95 -82 76 -264z" />
    <glyph glyph-name="uni03DF" unicode="&#x3df;" horiz-adv-x="1351" 
d="M1160 880l-281 -880h-184l226 710h-730l281 845h184l-226 -675h730z" />
    <glyph glyph-name="uni03E0" unicode="&#x3e0;" horiz-adv-x="1772" 
d="M593 1338v-628h-170v585q-205 -75 -309 -180v198q208 215 594 207q473 -10 710 -306q214 -271 214 -850q0 -424 -246 -790h-225q260 332 260 790q0 465 -82 590q-56 -32 -177 -124q-69 -52 -64 -260v-570h-205q2 33 2 565q0 247 182 390l187 141q-208 249 -556 260
q-48 1 -115 -18z" />
    <glyph glyph-name="uni03E1" unicode="&#x3e1;" horiz-adv-x="1285" 
d="M878 308l-239 -308h-185l356 448q-14 35 -64 112l-442 -560h-185l543 688q-98 127 -144 160q-188 132 -399 132v164q301 0 543 -216q224 -200 396 -632q116 -289 116 -664h-168q0 350 -96 596z" />
    <glyph glyph-name="uni03F0" unicode="&#x3f0;" horiz-adv-x="1357" 
d="M1180 1120l-135 -180q-264 -352 -120 -585q105 -170 260 -170v-185q-240 0 -375 195q-148 214 -70 360l-410 -555h-209l164 225q261 358 50 625q-67 85 -220 85v185q175 55 340 -115q231 -239 120 -425l400 540h205z" />
    <glyph glyph-name="uni03F1" unicode="&#x3f1;" horiz-adv-x="1300" 
d="M186 549q2 204 90 371q61 102 212 192q59 35 241 35q204 0 331.5 -162t127.5 -426t-127.5 -426t-331.5 -162q-123 0 -211.5 48.5t-146.5 148.5q5 -424 293 -424h500v-170h-484q-502 0 -496 730zM997 559q0 203 -83.5 318.5t-229.5 115.5t-229.5 -115.5t-83.5 -318.5
t83.5 -318.5t229.5 -115.5t229.5 115.5t83.5 318.5z" />
    <glyph glyph-name="uni03F2" unicode="&#x3f2;" horiz-adv-x="1126" 
d="M999 1077v-172q-78 43 -156.5 64.5t-158.5 21.5q-179 0 -278 -113.5t-99 -318.5t99 -318.5t278 -113.5q80 0 158.5 21.5t156.5 64.5v-170q-77 -36 -159.5 -54t-175.5 -18q-253 0 -402 159t-149 429q0 274 150.5 431t412.5 157q85 0 166 -17.5t157 -52.5z" />
    <glyph glyph-name="uni03F3" unicode="&#x3f3;" horiz-adv-x="569" 
d="M193 1120h184v-1140q0 -214 -81.5 -310t-262.5 -96h-70v156h49q105 0 143 48.5t38 201.5v1140zM193 1556h184v-233h-184v233z" />
    <glyph glyph-name="uni03F4" unicode="&#x3f4;" horiz-adv-x="1612" 
d="M1283 710h-955q8 -257 130 -411q129 -164 349 -164t349 164q119 153 127 411zM1276 880q-22 186 -120 312q-129 164 -349 164t-349 -164q-96 -121 -121 -312h939zM807 1520q314 0 502 -210.5t188 -564.5q0 -353 -188 -563q-188 -211 -502 -211q-315 0 -503 210
q-189 210 -189 564t189 565q188 210 503 210z" />
    <glyph glyph-name="uni03F5" unicode="&#x3f5;" horiz-adv-x="1260" 
d="M984 942q-37 13 -74 23q-99 26 -205 26q-183 0 -285 -99q-95 -92 -113 -261h677v-144h-677q18 -169 113 -261q102 -99 285 -99q128 0 205 26l74 25v-167l-79 -18q-104 -22 -211 -22q-268 0 -424 156q-157 156 -157 432t157 432q156 156 424 156q101 0 211 -22
q40 -8 79 -20v-163z" />
    <glyph glyph-name="uni03F6" unicode="&#x3f6;" horiz-adv-x="1260" 
d="M196 942v163q39 12 79 20q110 22 211 22q268 0 424 -156q157 -156 157 -432t-157 -432q-156 -156 -424 -156q-107 0 -211 22l-79 18v167l74 -25q77 -26 205 -26q183 0 285 99q95 92 113 261h-677v144h677q-18 169 -113 261q-102 99 -285 99q-106 0 -205 -26
q-37 -10 -74 -23z" />
    <glyph glyph-name="uni03F7" unicode="&#x3f7;" horiz-adv-x="1239" 
d="M201 1493h202v-264h254q251 0 379.5 -112.5t128.5 -332.5t-128.5 -333t-379.5 -113h-254v-338h-202v1493zM403 1063v-559h254q141 0 218 73t77 207t-76.5 206.5t-218.5 72.5h-254z" />
    <glyph glyph-name="uni03F8" unicode="&#x3f8;" horiz-adv-x="1300" 
d="M371 168v-594h-185v1982h185v-606q58 100 146.5 148.5t211.5 48.5q204 0 331.5 -162t127.5 -426t-127.5 -426t-331.5 -162q-123 0 -211.5 48.5t-146.5 148.5zM997 559q0 203 -83.5 318.5t-229.5 115.5t-229.5 -115.5t-83.5 -318.5t83.5 -318.5t229.5 -115.5t229.5 115.5
t83.5 318.5z" />
    <glyph glyph-name="uni03F9" unicode="&#x3f9;" horiz-adv-x="1430" 
d="M1319 1378v-213q-102 95 -217.5 142t-245.5 47q-256 0 -392 -156.5t-136 -452.5q0 -295 136 -451.5t392 -156.5q130 0 245.5 47t217.5 142v-211q-106 -72 -224.5 -108t-250.5 -36q-339 0 -534 207.5t-195 566.5q0 360 195 567.5t534 207.5q134 0 252.5 -35.5
t222.5 -106.5z" />
    <glyph glyph-name="uni03FA" unicode="&#x3fa;" horiz-adv-x="1767" 
d="M201 1493h301l381 -479l383 479h301v-1493h-197v1311l-385 -487h-203l-385 487v-1311h-196v1493z" />
    <glyph glyph-name="uni03FB" unicode="&#x3fb;" horiz-adv-x="1427" 
d="M722 396l-347 559v-1381h-184v1546h254l277 -481l277 481h254v-1120h-184v945z" />
    <glyph glyph-name="uni03FC" unicode="&#x3fc;" horiz-adv-x="1300" 
d="M186 -144v693q0 231 90 371q61 102 212 192q59 35 241 35q204 0 331.5 -162t127.5 -426t-127.5 -426t-331.5 -162q-123 0 -211.5 48.5t-146.5 148.5v-312h485v-170h-485v-112h-185v112h-101v170h101zM997 559q0 203 -83.5 318.5t-229.5 115.5t-229.5 -115.5t-83.5 -318.5
t83.5 -318.5t229.5 -115.5t229.5 115.5t83.5 318.5z" />
    <glyph glyph-name="uni03FD" unicode="&#x3fd;" horiz-adv-x="1430" 
d="M121 1378q104 71 222.5 106.5t252.5 35.5q339 0 534 -207.5t195 -567.5q0 -359 -195 -566.5t-534 -207.5q-132 0 -250.5 36t-224.5 108v211q102 -95 217.5 -142t245.5 -47q256 0 392 156.5t136 451.5q0 296 -136 452.5t-392 156.5q-130 0 -245.5 -47t-217.5 -142v213z
" />
    <glyph glyph-name="uni03FE" unicode="&#x3fe;" horiz-adv-x="1430" 
d="M1319 1378v-213q-102 95 -217.5 142t-245.5 47q-256 0 -392 -156.5t-136 -452.5q0 -295 136 -451.5t392 -156.5q130 0 245.5 47t217.5 142v-211q-106 -72 -224.5 -108t-250.5 -36q-339 0 -534 207.5t-195 566.5q0 360 195 567.5t534 207.5q134 0 252.5 -35.5
t222.5 -106.5zM782 838h211v-254h-211v254z" />
    <glyph glyph-name="uni03FF" unicode="&#x3ff;" horiz-adv-x="1430" 
d="M654 838v-254h-211v254h211zM117 1378q104 71 222.5 106.5t252.5 35.5q339 0 534 -207.5t195 -567.5q0 -359 -195 -566.5t-534 -207.5q-132 0 -250.5 36t-224.5 108v211q102 -95 217.5 -142t245.5 -47q256 0 392 156.5t136 451.5q0 296 -136 452.5t-392 156.5
q-130 0 -245.5 -47t-217.5 -142v213z" />
    <glyph glyph-name="uni0400" unicode="&#x400;" horiz-adv-x="1294" 
d="M201 1493h944v-170h-742v-442h711v-170h-711v-541h760v-170h-962v1493zM693 1899l196 -264h-153l-230 264h187z" />
    <glyph glyph-name="afii10023" unicode="&#x401;" horiz-adv-x="1294" 
d="M201 1493h944v-170h-742v-442h711v-170h-711v-541h760v-170h-962v1493zM835 1870h203v-203h-203v203zM444 1870h203v-203h-203v203z" />
    <glyph glyph-name="afii10051" unicode="&#x402;" horiz-adv-x="1610" 
d="M1452 104q0 -270 -102 -392t-330 -122h-76v170h62q134 0 190 75q55 75 55 269v290q0 159 -62 238t-186 79h-376v-711h-203v1323h-430v170h1163v-170h-530v-442h417q186 0 299 -119q109 -114 109 -352v-306z" />
    <glyph glyph-name="afii10052" unicode="&#x403;" horiz-adv-x="1141" 
d="M201 0v1493h929v-170h-727v-1323h-202zM741 1899h185l-228 -264h-153z" />
    <glyph glyph-name="afii10053" unicode="&#x404;" horiz-adv-x="1430" 
d="M328 711q7 -270 136 -417q136 -157 392 -157q130 0 246 47q115 47 217 142v-211q-106 -72 -225 -108q-118 -36 -250 -36q-339 0 -534 207q-195 208 -195 567q0 360 195 567q195 208 534 208q134 0 252 -36q119 -35 223 -106v-213q-102 95 -217 142q-116 47 -246 47
q-256 0 -392 -156q-103 -119 -128 -317h690v-170h-698z" />
    <glyph glyph-name="afii10054" unicode="&#x405;" horiz-adv-x="1300" 
d="M1096 1444v-197q-115 55 -217 82t-197 27q-165 0 -254.5 -64t-89.5 -182q0 -99 59.5 -149.5t225.5 -81.5l122 -25q226 -43 333.5 -151.5t107.5 -290.5q0 -217 -145.5 -329t-426.5 -112q-106 0 -225.5 24t-247.5 71v208q123 -69 241 -104t232 -35q173 0 267 68t94 194
q0 110 -67.5 172t-221.5 93l-123 24q-226 45 -327 141t-101 267q0 198 139.5 312t384.5 114q105 0 214 -19t223 -57z" />
    <glyph glyph-name="afii10055" unicode="&#x406;" horiz-adv-x="604" 
d="M201 1493h202v-1493h-202v1493z" />
    <glyph glyph-name="afii10056" unicode="&#x407;" horiz-adv-x="604" 
d="M201 1493h202v-1493h-202v1493zM397 1870h203v-203h-203v203zM6 1870h203v-203h-203v203z" />
    <glyph glyph-name="afii10057" unicode="&#x408;" horiz-adv-x="604" 
d="M201 1493h202v-1389q0 -270 -102.5 -392t-329.5 -122h-77v170h63q134 0 189 75t55 269v1389z" />
    <glyph glyph-name="afii10058" unicode="&#x409;" horiz-adv-x="2240" 
d="M1136 1323h-485v-213q0 -488 -132 -830q-98 -253 -465 -309v167q212 46 279 214q117 293 117 858v283h888v-614h234q251 0 387 -109t136 -331q0 -221 -136 -330t-387 -109h-436v1323zM1882 439q0 139 -79 207q-78 67 -241 67h-224v-547h224q161 0 241 68q79 67 79 205z
" />
    <glyph glyph-name="afii10059" unicode="&#x40a;" horiz-adv-x="2140" 
d="M1037 0v711h-634v-711h-202v1493h202v-612h634v612h202v-614h234q251 0 387 -109t136 -331q0 -221 -136 -330t-387 -109h-436zM1783 439q0 139 -79 207q-78 67 -241 67h-224v-547h224q161 0 241 68q79 67 79 205z" />
    <glyph glyph-name="afii10060" unicode="&#x40b;" horiz-adv-x="1610" 
d="M1044 881q186 0 299 -119q109 -114 109 -352v-410h-201v394q0 159 -62 238t-186 79h-376v-711h-203v1323h-430v170h1163v-170h-530v-442h417z" />
    <glyph glyph-name="afii10061" unicode="&#x40c;" horiz-adv-x="1343" 
d="M201 1493h202v-631l670 631h260l-741 -696l794 -797h-266l-717 719v-719h-202v1493zM805 1899h185l-228 -264h-153z" />
    <glyph glyph-name="uni040D" unicode="&#x40d;" horiz-adv-x="1532" 
d="M1331 1493v-1493h-196v1249l-662 -1249h-272v1493h196v-1249l662 1249h272zM684 1899l196 -264h-153l-230 264h187z" />
    <glyph glyph-name="afii10062" unicode="&#x40e;" horiz-adv-x="1248" 
d="M313 1901h118q13 -54 62.5 -82.5t132.5 -28.5q82 0 130.5 27.5t64.5 83.5h118q-10 -119 -90 -180.5t-223 -61.5q-144 0 -223.5 61t-89.5 181zM655 181q-22 -51 -53 -88q-103 -122 -330 -122h-77v170h63q140 0 189 75q14 22 22 40l45 106l-479 1131h217l371 -876l373 876
h217z" />
    <glyph glyph-name="afii10145" unicode="&#x40f;" horiz-adv-x="1540" 
d="M700 0h-499v1493h202v-1323h734v1323h202v-1493h-438v-426h-201v426z" />
    <glyph glyph-name="afii10017" unicode="&#x410;" horiz-adv-x="1401" 
d="M700 1294l-274 -743h549zM586 1493h229l569 -1493h-210l-136 383h-673l-136 -383h-213z" />
    <glyph glyph-name="afii10018" unicode="&#x411;" horiz-adv-x="1405" 
d="M1047 439q0 139 -79 207q-78 67 -241 67h-324v-547h324q163 0 241 68q79 67 79 205zM1047 1493v-166h-644v-448h334q251 0 387 -109t136 -331q0 -221 -136 -330t-387 -109h-536v1493h846z" />
    <glyph glyph-name="afii10019" unicode="&#x412;" horiz-adv-x="1405" 
d="M403 713v-547h324q163 0 241.5 67.5t78.5 206.5q0 140 -78.5 206.5t-241.5 66.5h-324zM403 1327v-450h299q148 0 220.5 55.5t72.5 169.5q0 113 -72.5 169t-220.5 56h-299zM201 1493h516q231 0 356 -96t125 -273q0 -137 -64 -218t-188 -101q149 -32 231.5 -133.5
t82.5 -253.5q0 -200 -136 -309t-387 -109h-536v1493z" />
    <glyph glyph-name="afii10020" unicode="&#x413;" horiz-adv-x="1141" 
d="M201 0v1493h929v-170h-727v-1323h-202z" />
    <glyph glyph-name="afii10021" unicode="&#x414;" horiz-adv-x="1590" 
d="M456 170h680v1153h-485v-212q0 -495 -132 -830q-24 -61 -63 -111zM151 170q132 57 182 183q117 293 117 858v282h888v-1323h201v-596h-201v426h-1088v-426h-201v596h102z" />
    <glyph glyph-name="afii10022" unicode="&#x415;" horiz-adv-x="1294" 
d="M201 1493h944v-170h-742v-442h711v-170h-711v-541h760v-170h-962v1493z" />
    <glyph glyph-name="afii10024" unicode="&#x416;" horiz-adv-x="1768" 
d="M985 881h149l308 612h217l-350 -697l400 -796h-217l-357 711h-150v-711h-202v711h-150l-357 -711h-217l400 796l-350 697h217l308 -612h149v612h202v-612z" />
    <glyph glyph-name="afii10025" unicode="&#x417;" horiz-adv-x="1303" 
d="M831 805q145 -31 226.5 -129t81.5 -242q0 -221 -152 -342t-432 -121q-94 0 -193.5 18.5t-205.5 55.5v195q84 -49 184 -74t209 -25q190 0 289.5 75t99.5 218q0 132 -92.5 206.5t-257.5 74.5h-174v166h182q149 0 228 59.5t79 171.5q0 115 -81.5 176.5t-233.5 61.5
q-83 0 -178 -18t-209 -56v180q115 32 215.5 48t189.5 16q230 0 364 -104.5t134 -282.5q0 -124 -71 -209.5t-202 -118.5z" />
    <glyph glyph-name="afii10026" unicode="&#x418;" horiz-adv-x="1532" 
d="M1331 1493v-1493h-196v1249l-662 -1249h-272v1493h196v-1249l662 1249h272z" />
    <glyph glyph-name="afii10027" unicode="&#x419;" horiz-adv-x="1532" 
d="M444 1901h118q13 -54 62.5 -82.5t132.5 -28.5q82 0 130.5 27.5t64.5 83.5h118q-10 -119 -90 -180.5t-223 -61.5q-144 0 -223.5 61t-89.5 181zM1331 1493v-1493h-196v1249l-662 -1249h-272v1493h196v-1249l662 1249h272z" />
    <glyph glyph-name="afii10028" unicode="&#x41a;" horiz-adv-x="1343" 
d="M201 1493h202v-631l670 631h260l-741 -696l794 -797h-266l-717 719v-719h-202v1493z" />
    <glyph glyph-name="afii10029" unicode="&#x41b;" horiz-adv-x="1540" 
d="M54 -28v167q212 46 279 214q117 293 117 858v282h888v-1493h-202v1323h-485v-212q0 -488 -132 -830q-98 -253 -465 -309z" />
    <glyph glyph-name="afii10030" unicode="&#x41c;" horiz-adv-x="1767" 
d="M201 1493h301l381 -1016l383 1016h301v-1493h-197v1311l-385 -1024h-203l-385 1024v-1311h-196v1493z" />
    <glyph glyph-name="afii10031" unicode="&#x41d;" horiz-adv-x="1540" 
d="M201 1493h202v-612h734v612h202v-1493h-202v711h-734v-711h-202v1493z" />
    <glyph glyph-name="afii10032" unicode="&#x41e;" horiz-adv-x="1612" 
d="M807 1356q-220 0 -349.5 -164t-129.5 -447q0 -282 129.5 -446t349.5 -164t348.5 164t128.5 446q0 283 -128.5 447t-348.5 164zM807 1520q314 0 502 -210.5t188 -564.5q0 -353 -188 -563.5t-502 -210.5q-315 0 -503.5 210t-188.5 564t188.5 564.5t503.5 210.5z" />
    <glyph glyph-name="afii10033" unicode="&#x41f;" horiz-adv-x="1540" 
d="M1339 1493v-1493h-202v1323h-734v-1323h-202v1493h1138z" />
    <glyph glyph-name="afii10034" unicode="&#x420;" horiz-adv-x="1235" 
d="M403 1327v-561h254q141 0 218 73t77 208q0 134 -77 207t-218 73h-254zM201 1493h456q251 0 379.5 -113.5t128.5 -332.5q0 -221 -128.5 -334t-379.5 -113h-254v-600h-202v1493z" />
    <glyph glyph-name="afii10035" unicode="&#x421;" horiz-adv-x="1430" 
d="M1319 1378v-213q-102 95 -217.5 142t-245.5 47q-256 0 -392 -156.5t-136 -452.5q0 -295 136 -451.5t392 -156.5q130 0 245.5 47t217.5 142v-211q-106 -72 -224.5 -108t-250.5 -36q-339 0 -534 207.5t-195 566.5q0 360 195 567.5t534 207.5q134 0 252.5 -35.5
t222.5 -106.5z" />
    <glyph glyph-name="afii10036" unicode="&#x422;" horiz-adv-x="1251" 
d="M-6 1493h1263v-170h-530v-1323h-203v1323h-530v170z" />
    <glyph glyph-name="afii10037" unicode="&#x423;" horiz-adv-x="1248" 
d="M655 181q-22 -51 -53 -88q-103 -122 -330 -122h-77v170h63q140 0 189 75q14 22 22 40l45 106l-479 1131h217l371 -876l373 876h217z" />
    <glyph glyph-name="afii10038" unicode="&#x424;" horiz-adv-x="1612" 
d="M706 1166q-150 -21 -248 -108q-130 -115 -130 -313q0 -197 130 -312q98 -87 248 -108v841zM908 325q150 21 248 108q128 115 128 312q0 198 -128 313q-98 87 -248 108v-841zM706 158q-244 22 -402 156q-189 160 -189 431t189 432q157 135 402 157v159h202v-159
q244 -23 401 -157q188 -161 188 -432q0 -270 -188 -431q-157 -134 -401 -157v-157h-202v158z" />
    <glyph glyph-name="afii10039" unicode="&#x425;" horiz-adv-x="1403" 
d="M129 1493h217l371 -555l373 555h217l-480 -717l512 -776h-217l-420 635l-423 -635h-218l533 797z" />
    <glyph glyph-name="afii10040" unicode="&#x426;" horiz-adv-x="1590" 
d="M1339 0h-1138v1493h202v-1323h734v1323h202v-1323h201v-596h-201v426z" />
    <glyph glyph-name="afii10041" unicode="&#x427;" horiz-adv-x="1404" 
d="M1000 0v711h-417q-186 0 -299 119q-109 114 -109 352v311h201v-295q0 -159 62 -238t186 -79h376v612h203v-1493h-203z" />
    <glyph glyph-name="afii10042" unicode="&#x428;" horiz-adv-x="2054" 
d="M1126 170h521v1323h202v-1493h-1648v1493h202v-1323h521v1245h202v-1245z" />
    <glyph glyph-name="afii10043" unicode="&#x429;" horiz-adv-x="2100" 
d="M1849 0h-1648v1493h202v-1323h521v1245h202v-1245h521v1323h202v-1323h201v-596h-201v426z" />
    <glyph glyph-name="afii10044" unicode="&#x42a;" horiz-adv-x="1705" 
d="M501 0v1323h-451v170h653v-614h334q251 0 387 -109t136 -331q0 -221 -136 -330t-387 -109h-536zM1347 439q0 139 -79 207q-78 67 -241 67h-324v-547h324q161 0 241 68q79 67 79 205z" />
    <glyph glyph-name="afii10045" unicode="&#x42b;" horiz-adv-x="1807" 
d="M1404 1493h202v-1493h-202v1493zM1047 439q0 139 -79 207q-78 67 -241 67h-324v-547h324q163 0 241 68q79 67 79 205zM201 1493h202v-614h334q251 0 387 -109t136 -331q0 -221 -136 -330t-387 -109h-536v1493z" />
    <glyph glyph-name="afii10046" unicode="&#x42c;" horiz-adv-x="1405" 
d="M1047 439q0 139 -79 207q-78 67 -241 67h-324v-547h324q163 0 241 68q79 67 79 205zM201 1493h202v-614h334q251 0 387 -109t136 -331q0 -221 -136 -330t-387 -109h-536v1493z" />
    <glyph glyph-name="afii10047" unicode="&#x42d;" horiz-adv-x="1430" 
d="M1102 711h-698v170h690q-25 198 -128 317q-136 156 -392 156q-130 0 -246 -47q-115 -47 -217 -142v213q104 71 223 106q118 36 252 36q339 0 534 -208q195 -207 195 -567q0 -359 -195 -567q-195 -207 -534 -207q-132 0 -250 36q-119 36 -225 108v211q102 -95 217 -142
q116 -47 246 -47q256 0 392 157q129 147 136 417z" />
    <glyph glyph-name="afii10048" unicode="&#x42e;" horiz-adv-x="2111" 
d="M1306 1356q-220 0 -350 -164q-129 -164 -129 -447q0 -282 129 -446q130 -164 350 -164t348 164q129 164 129 446q0 283 -129 447q-128 164 -348 164zM621 881q30 261 181 429q189 210 504 210q314 0 502 -210q188 -211 188 -565q0 -353 -188 -563q-188 -211 -502 -211
q-315 0 -504 210q-179 200 -188 530h-201v-711h-202v1493h202v-612h208z" />
    <glyph glyph-name="afii10049" unicode="&#x42f;" horiz-adv-x="1423" 
d="M514 700q-125 36 -190.5 129t-65.5 234q0 216 126 323t382 107h456v-1493h-202v631h-220q-120 0 -189.5 -49t-143.5 -199l-191 -383h-217l205 408q62 126 123.5 198t126.5 94zM1020 1327h-254q-146 0 -220.5 -66.5t-74.5 -197.5t74.5 -198.5t220.5 -67.5h254v530z" />
    <glyph glyph-name="afii10065" unicode="&#x430;" horiz-adv-x="1255" 
d="M702 563q-223 0 -309 -51t-86 -174q0 -98 64.5 -155.5t175.5 -57.5q153 0 245.5 108.5t92.5 288.5v41h-183zM1069 639v-639h-184v170q-63 -102 -157 -150.5t-230 -48.5q-172 0 -273.5 96.5t-101.5 258.5q0 189 126.5 285t377.5 96h258v18q0 127 -83.5 196.5t-234.5 69.5
q-96 0 -187 -23t-175 -69v170q101 39 196 58.5t185 19.5q243 0 363 -126t120 -382z" />
    <glyph glyph-name="afii10066" unicode="&#x431;" horiz-adv-x="1253" 
d="M1004 1297q-102 70 -341 70q-253 0 -253 -117q0 -92 264 -140q208 -37 325 -149q142 -135 142 -412q0 -265 -137 -421q-137 -157 -377 -157q-239 0 -377 157q-137 156 -137 431q0 204 137 369q53 64 128 100q-156 79 -156 220q0 272 441 272q221 0 341 -70v-153zM516 978
q-68 -29 -123 -102q-86 -113 -86 -317q0 -203 85 -317q86 -115 235 -115q147 0 233 116t86 306q0 199 -91 295q-97 103 -223 114q-64 6 -116 20z" />
    <glyph glyph-name="afii10067" unicode="&#x432;" horiz-adv-x="1200" 
d="M370 514v-361h262q129 0 195 46q63 44 63 135q0 94 -63 135q-69 45 -195 45h-262zM370 967v-294h242q117 0 178 38q58 36 58 111q0 72 -58 108q-61 37 -178 37h-242zM186 1120h438q197 0 303 -72t106 -205q0 -103 -54 -163q-54 -61 -160 -76q127 -24 197 -100t70 -190
q0 -150 -116 -232q-115 -82 -329 -82h-455v1120z" />
    <glyph glyph-name="afii10068" unicode="&#x433;" horiz-adv-x="1006" 
d="M186 0v1120h790v-170h-606v-950h-184z" />
    <glyph glyph-name="afii10069" unicode="&#x434;" horiz-adv-x="1376" 
d="M422 153h536v814h-389v-134q0 -403 -118 -626q-20 -17 -29 -54zM156 153q91 40 131 125q98 211 98 630v212h757v-967h184v-579h-184v426h-908v-426h-184v579h106z" />
    <glyph glyph-name="afii10070" unicode="&#x435;" horiz-adv-x="1260" 
d="M1151 606v-90h-846q12 -190 114.5 -289.5t285.5 -99.5q106 0 205.5 26t197.5 78v-174q-99 -42 -203 -64t-211 -22q-268 0 -424.5 156t-156.5 422q0 275 148.5 436.5t400.5 161.5q226 0 357.5 -145.5t131.5 -395.5zM967 660q-2 151 -84.5 241t-218.5 90q-154 0 -246.5 -87
t-106.5 -245z" />
    <glyph glyph-name="afii10072" unicode="&#x436;" horiz-adv-x="1502" 
d="M843 673h113l258 447h196l-297 -523l340 -597h-197l-299 521h-114v-521h-183v521h-114l-299 -521h-197l340 597l-297 523h196l258 -447h113v447h183v-447z" />
    <glyph glyph-name="afii10073" unicode="&#x437;" horiz-adv-x="1107" 
d="M706 604q124 -24 193 -97t69 -181q0 -173 -129 -264t-367 -91q-80 0 -165 14q-84 14 -174 42v171q71 -37 156 -56q85 -18 178 -18q151 0 236 56q84 56 84 146q0 88 -78 144q-72 51 -209 51h-148v152h155q116 0 183 44q68 45 68 115q0 64 -70 110q-69 46 -188 46
q-71 0 -152 -13q-80 -13 -177 -42v167q98 24 183 36t161 12q196 0 309 -78q114 -79 114 -220q0 -93 -60 -157q-60 -65 -172 -89z" />
    <glyph glyph-name="afii10074" unicode="&#x438;" horiz-adv-x="1345" 
d="M1152 1120v-1120h-183v899l-540 -899h-236v1120h183v-897l539 897h237z" />
    <glyph glyph-name="afii10075" unicode="&#x439;" horiz-adv-x="1345" 
d="M359 1557h118q11 -75 59.5 -112.5t135.5 -37.5q86 0 134 37t61 113h118q-10 -143 -89 -215t-224 -72t-224 72t-89 215zM1152 1120v-1120h-183v899l-540 -899h-236v1120h183v-897l539 897h237z" />
    <glyph glyph-name="afii10076" unicode="&#x43a;" horiz-adv-x="1237" 
d="M191 1120h185v-483l549 483h235l-594 -524l619 -596h-240l-569 547v-547h-185v1120z" />
    <glyph glyph-name="afii10077" unicode="&#x43b;" horiz-adv-x="1309" 
d="M46 -29v153q179 27 238 154q98 207 98 630v212h757v-1120h-184v967h-389v-134q0 -366 -118 -626q-94 -207 -402 -236z" />
    <glyph glyph-name="afii10078" unicode="&#x43c;" horiz-adv-x="1545" 
d="M193 1120h262l318 -750l319 750h260v-1120h-178v944l-309 -729h-184l-310 729v-944h-178v1120z" />
    <glyph glyph-name="afii10079" unicode="&#x43d;" horiz-adv-x="1353" 
d="M193 1120h184v-461h599v461h184v-1120h-184v516h-599v-516h-184v1120z" />
    <glyph glyph-name="afii10080" unicode="&#x43e;" horiz-adv-x="1253" 
d="M614 991q-148 0 -234 -115.5t-86 -316.5t85.5 -316.5t234.5 -115.5q147 0 233 116t86 316q0 199 -86 315.5t-233 116.5zM614 1147q240 0 377 -156t137 -432q0 -275 -137 -431.5t-377 -156.5q-241 0 -377.5 156.5t-136.5 431.5q0 276 136.5 432t377.5 156z" />
    <glyph glyph-name="afii10081" unicode="&#x43f;" horiz-adv-x="1351" 
d="M1160 1120v-1120h-184v966h-599v-966h-184v1120h967z" />
    <glyph glyph-name="afii10082" unicode="&#x440;" horiz-adv-x="1300" 
d="M371 168v-594h-185v1546h185v-170q58 100 146.5 148.5t211.5 48.5q204 0 331.5 -162t127.5 -426t-127.5 -426t-331.5 -162q-123 0 -211.5 48.5t-146.5 148.5zM997 559q0 203 -83.5 318.5t-229.5 115.5t-229.5 -115.5t-83.5 -318.5t83.5 -318.5t229.5 -115.5t229.5 115.5
t83.5 318.5z" />
    <glyph glyph-name="afii10083" unicode="&#x441;" horiz-adv-x="1126" 
d="M999 1077v-172q-78 43 -156.5 64.5t-158.5 21.5q-179 0 -278 -113.5t-99 -318.5t99 -318.5t278 -113.5q80 0 158.5 21.5t156.5 64.5v-170q-77 -36 -159.5 -54t-175.5 -18q-253 0 -402 159t-149 429q0 274 150.5 431t412.5 157q85 0 166 -17.5t157 -52.5z" />
    <glyph glyph-name="afii10084" unicode="&#x442;" horiz-adv-x="1083" 
d="M5 1120h1073v-170h-446v-950h-181v950h-446v170z" />
    <glyph glyph-name="afii10085" unicode="&#x443;" horiz-adv-x="1212" 
d="M659 -104q-78 -200 -152 -261t-198 -61h-147v154h108q76 0 118 36t93 170l33 84l-453 1102h195l350 -876l350 876h195z" />
    <glyph glyph-name="afii10086" unicode="&#x444;" horiz-adv-x="1877" 
d="M308 559q0 -214 68 -323q67 -109 200 -109t202 109q68 110 68 323t-68 323q-69 109 -202 109t-200 -109q-68 -109 -68 -323zM846 -426v569q-45 -83 -122 -127q-76 -45 -177 -45q-201 0 -317 155q-117 156 -117 429q0 278 116 435t318 157q100 0 177 -43q76 -44 122 -127
v516h185v-516q46 83 123 127q76 43 176 43q203 0 318 -157q116 -157 116 -435q0 -273 -116 -429q-116 -155 -318 -155q-102 0 -178 43q-77 44 -121 127v-567h-185zM1571 559q0 214 -67 323q-68 109 -201 109q-134 0 -203 -109q-69 -110 -69 -323q0 -212 69 -322t203 -110
q133 0 201 109q67 109 67 323z" />
    <glyph glyph-name="afii10087" unicode="&#x445;" horiz-adv-x="1212" 
d="M1124 1120l-405 -545l426 -575h-217l-326 440l-326 -440h-217l435 586l-398 534h217l297 -399l297 399h217z" />
    <glyph glyph-name="afii10088" unicode="&#x446;" horiz-adv-x="1394" 
d="M1160 0h-967v1120h184v-967h599v967h184v-967h184v-579h-184v426z" />
    <glyph glyph-name="afii10089" unicode="&#x447;" horiz-adv-x="1210" 
d="M840 0v521h-343q-153 0 -255 95q-92 86 -92 270v234h184v-211q0 -117 52 -176q53 -59 157 -59h297v446h184v-1120h-184z" />
    <glyph glyph-name="afii10090" unicode="&#x448;" horiz-adv-x="1787" 
d="M985 153h425v967h184v-1120h-1401v1120h184v-967h424v908h184v-908z" />
    <glyph glyph-name="afii10091" unicode="&#x449;" horiz-adv-x="1828" 
d="M1594 0h-1401v1120h184v-967h424v908h184v-908h425v967h184v-967h184v-579h-184v426z" />
    <glyph glyph-name="afii10092" unicode="&#x44a;" horiz-adv-x="1440" 
d="M1130 332q0 94 -62 136q-67 46 -195 46h-263v-361h263q129 0 195 46q62 43 62 133zM426 966h-384v154h568v-453h271q208 0 329 -85q116 -82 116 -250t-116 -250q-115 -82 -329 -82h-455v966z" />
    <glyph glyph-name="afii10093" unicode="&#x44b;" horiz-adv-x="1567" 
d="M897 332q0 94 -62 136q-67 46 -195 46h-263v-361h263q129 0 195 46q62 43 62 133zM193 1120h184v-453h271q208 0 329 -85q116 -82 116 -250t-116 -250q-115 -82 -329 -82h-455v1120zM1201 1120h184v-1120h-184v1120z" />
    <glyph glyph-name="afii10094" unicode="&#x44c;" horiz-adv-x="1207" 
d="M897 332q0 94 -62 136q-67 46 -195 46h-263v-361h263q129 0 195 46q62 43 62 133zM193 1120h184v-453h271q208 0 329 -85q116 -82 116 -250t-116 -250q-115 -82 -329 -82h-455v1120z" />
    <glyph glyph-name="afii10095" unicode="&#x44d;" horiz-adv-x="1260" 
d="M276 942v163q39 12 79 20q104 22 211 22q268 0 424 -156q157 -156 157 -432t-157 -432q-156 -156 -424 -156q-107 0 -211 22t-203 64v174q98 -52 198 -78q99 -26 205 -26q183 0 285 99q95 92 113 261h-677v144h677q-18 169 -113 261q-102 99 -285 99q-106 0 -205 -26
q-37 -10 -74 -23z" />
    <glyph glyph-name="afii10096" unicode="&#x44e;" horiz-adv-x="1664" 
d="M1038 991q-148 0 -234 -115q-86 -116 -86 -317t85 -317q86 -115 235 -115q147 0 233 116t86 316q0 199 -86 315q-86 117 -233 117zM530 673q19 190 131 318q137 156 377 156t377 -156t137 -432q0 -275 -137 -431q-137 -157 -377 -157q-241 0 -377 157q-127 145 -136 393
h-148v-521h-184v1120h184v-447h153z" />
    <glyph glyph-name="afii10097" unicode="&#x44f;" horiz-adv-x="1232" 
d="M437 525q-106 27 -162 97t-56 175q0 162 107 243q108 80 325 80h388v-1120h-185v473h-169q-97 0 -156 -37q-59 -36 -122 -149l-162 -287h-195l174 306q53 94 105 148q53 54 108 71zM854 965h-198q-119 0 -182 -42q-64 -42 -64 -126q0 -83 64 -126q63 -43 182 -43h198v337
z" />
    <glyph glyph-name="uni0450" unicode="&#x450;" horiz-adv-x="1260" 
d="M457 1643l282 -374h-153l-326 374h197zM1151 606v-90h-846q12 -190 114.5 -289.5t285.5 -99.5q106 0 205.5 26t197.5 78v-174q-99 -42 -203 -64t-211 -22q-268 0 -424.5 156t-156.5 422q0 275 148.5 436.5t400.5 161.5q226 0 357.5 -145.5t131.5 -395.5zM967 660
q-2 151 -84.5 241t-218.5 90q-154 0 -246.5 -87t-106.5 -245z" />
    <glyph glyph-name="afii10071" unicode="&#x451;" horiz-adv-x="1260" 
d="M756 1552h203v-202h-203v202zM365 1552h203v-202h-203v202zM1151 606v-90h-846q12 -190 114.5 -289.5t285.5 -99.5q106 0 205.5 26t197.5 78v-174q-99 -42 -203 -64t-211 -22q-268 0 -424.5 156t-156.5 422q0 275 148.5 436.5t400.5 161.5q226 0 357.5 -145.5
t131.5 -395.5zM967 660q-2 151 -84.5 241t-218.5 90q-154 0 -246.5 -87t-106.5 -245z" />
    <glyph glyph-name="afii10099" unicode="&#x452;" horiz-adv-x="1319" 
d="M193 1284h-153v125h153v147h185v-147h326v-125h-326v-425q66 101 155 151q90 50 207 50q185 0 292 -119q99 -110 99 -352v-609q0 -214 -82 -310q-81 -96 -262 -96h-70v156h49q110 0 143 48q38 55 38 202v603q0 159 -62 238t-186 79q-154 0 -235 -95q-86 -101 -86 -259
v-546h-185v1284z" />
    <glyph glyph-name="afii10100" unicode="&#x453;" horiz-adv-x="1006" 
d="M785 1645h199l-326 -376h-153zM186 0v1120h790v-170h-606v-950h-184z" />
    </font>
</defs>
</svg>
